#TITLE:Enhanced Reality;
#SUBTITLE:;
#ARTIST:Matduke;
#TITLETRANSLIT:;
#SUBTITLETRANSLIT:;
#ARTISTTRANSLIT:;
#GENRE:VARIETY;
#CREDIT:MUINELIM;
#BANNER:Enhanced Reality.png;
#BACKGROUND:Enhanced Reality-bg.png;
#LYRICSPATH:;
#CDTITLE:;
#MUSIC:Enhanced Reality.mp3;
#OFFSET:-0.016000;
#SAMPLESTART:85.780708;
#SAMPLELENGTH:11.294121;
#SELECTABLE:YES;
#DISPLAYBPM:170;
#BPMS:0.000000=85,5.000000=340,7.000000=170,67.000000=340,69.000000=170,300.000000=340,302.000000=170;
#STOPS:
;
#BGCHANGES:;
#KEYSOUNDS:;
#ATTACKS:;

//---------------dance-single - ----------------
#NOTES:
     dance-single:
     :
     Hard:
     14:
     0.626566,0.859397,0.150325,0.786998,0.207803,496.000000,479.000000,17.000000,89.000000,0.000000,0.000000,0.626566,0.859397,0.150325,0.786998,0.207803,496.000000,479.000000,17.000000,89.000000,0.000000,0.000000:
0000
0000
0000
0000
,
0000
0000
0000
0000
0000
0000
0001
1000
,
0100
0000
1000
0001
0100
0000
0001
1000
,
0010
0000
1000
0001
0010
0000
0001
0100
,
0010
0000
1000
0010
0100
0000
0001
0010
,
0100
0000
1000
0100
0010
0000
1001
0001
,
0100
0000
1000
0100
0001
0000
1001
1000
,
0010
0000
0001
0010
1000
0000
1100
0000
,
0011
0000
0101
0000
1010
0000
1000
1000
,
0001
0000
0001
0000
0100
0010
0100
0010
0100
0010
0100
0010
1000
0000
1000
0000
,
0200
0310
0001
0001
0200
0310
1000
1000
,
0200
0310
0001
0001
0200
0310
1000
1000
,
0020
0130
0001
0001
0020
0130
1000
1000
,
0020
0130
0001
0001
0020
0130
0010
0010
,
0002
1003
0100
0100
2000
3001
0010
0010
,
0200
1300
0010
0010
0200
0301
0100
0100
,
0020
1030
0100
0100
0020
0031
1001
0000
,
0000
0000
0000
0000
1000
0000
1000
0000
0010
0000
0001
0000
0100
0000
1000
0002
,
2000
0000
0000
0000
,
0000
0000
0000
0000
,
3003
0000
0000
0000
,
0000
0000
0000
0000
,
2000
3200
0302
0023
,
2030
3200
0320
0032
,
1003
1000
0010
0010
0100
0100
0001
0001
,
1000
0001
1000
0001
1000
0001
1000
0001
1000
0000
0001
1000
0002
0000
0203
0000
,
0310
0010
2000
3100
0010
0010
0002
0103
,
0010
0010
2000
3100
0010
0010
0002
0103
,
0010
0010
2000
3001
0100
0100
0002
1003
,
0010
0010
2000
3001
0100
0100
0002
1003
,
0100
0100
0020
0031
0100
0100
0020
1030
,
0100
0100
0020
0031
0100
0100
0020
1030
,
0001
0001
0200
0310
1000
1000
0020
0130
,
0001
0000
0001
0000
1000
0010
1000
0010
2000
0000
3002
0000
0000
0000
0103
0010
,
1000
1000
0200
0301
1000
1000
0020
0031
,
1000
1000
0200
0301
1000
1000
0020
0130
,
0001
0001
0020
1030
0001
0001
0200
1300
,
0001
0001
0020
1030
0001
0001
0200
0310
,
0001
0000
1000
0000
1001
0000
0000
0000
1000
0010
1000
0010
1000
0010
1000
0010
,
1000
0000
0001
0000
1001
0000
0000
0000
0001
0010
0001
0010
0001
0010
0001
0010
,
0001
0001
0100
0100
1000
1000
0010
0010
,
0001
0100
0010
1000
0001
0010
0100
1000
0001
0200
0000
0000
,
0320
1000
0100
0001
,
1000
0001
0100
1030
,
1001
0000
0000
0000
,
0000
0000
0000
0000
,
0000
0000
0000
0000
,
0000
0000
0000
0000
,
2000
0000
3020
0000
,
0032
0000
0203
0000
,
2300
0000
3002
0000
,
0203
0000
0320
0000
,
2030
0100
0000
3100
,
0002
0100
0000
0103
,
2000
0010
0000
3010
,
0002
0010
0000
0013
,
0201
1000
0000
0310
,
1020
0001
0000
0130
,
0101
1010
0011
1100
,
1000
0000
0100
0000
0010
0000
0001
0000
0100
0010
0100
0010
0100
0010
0100
0010
,
1000
1000
0200
0301
1000
1000
0020
0031
,
1000
1000
0200
0301
1000
1000
0020
0130
,
0001
0001
0200
1300
0001
0001
0020
1030
,
0001
0001
0200
1300
0001
0001
0020
0130
,
0001
0001
0020
1030
0100
0100
0002
0013
,
1000
1000
0200
0301
0010
0010
2000
3100
,
0001
0001
0200
1300
0010
0010
0002
0103
,
1000
0000
1000
0000
0020
0000
0031
0000
0100
0000
0100
0000
0100
0000
0010
1000
,
0001
0000
0001
0000
0100
0010
0100
0000
1000
0000
1000
0000
0100
0010
0100
0000
,
0001
0000
0001
0000
0010
0100
0010
0000
1000
0000
1000
0000
0010
0100
0010
0000
,
0001
0000
0001
0000
0100
1000
0100
0000
0001
0000
0001
0000
0010
1000
0010
0000
,
0100
0000
0100
0000
1000
0100
0010
0000
0001
0000
0001
0000
0100
0010
1000
0000
,
0002
0000
0103
0000
0100
0010
1000
0000
0200
0000
0310
0000
0010
0001
0100
0000
,
0020
0000
1030
0000
1000
0001
0010
0000
0200
0000
1300
0000
1000
0010
0100
0000
,
0002
0000
1003
0000
1000
0100
0010
0000
0002
0000
0103
0000
0100
0010
1000
0000
,
1001
0000
0000
0000
0001
0001
0100
1000
,
0010
0000
0001
0200
0020
0000
0000
0000
0000
0000
0000
0000
0000
0000
0000
0000
,
0000
0000
0000
0330
;

//---------------dance-double - ----------------
#NOTES:
     dance-double:
     :
     Hard:
     15:
     0.605091,0.859397,0.132640,0.327179,0.198960,479.000000,464.000000,15.000000,37.000000,0.000000,0.000000,0.605091,0.859397,0.132640,0.327179,0.198960,479.000000,464.000000,15.000000,37.000000,0.000000,0.000000:
// measure 0
00000000
00000000
00000000
00000000
,  // measure 1
00000000
00000000
00000000
00000000
00000000
00000000
00001000
01000000
,  // measure 2
00001000
00000000
00010000
00000100
00010000
00000000
00001000
00100000
,  // measure 3
00001000
00000000
00010000
00000010
00010000
00000000
00001000
00010000
,  // measure 4
00000100
00000000
00010000
00001000
00000100
00000000
00001000
00010000
,  // measure 5
00100000
00000000
00010000
00001000
00100000
00000000
00101000
00001000
,  // measure 6
00010000
00000000
00001000
00010000
00000010
00000000
00010010
00010000
,  // measure 7
00001000
00000000
01000000
00001000
00010000
00000000
00010010
00000000
,  // measure 8
00101000
00000000
00010100
00000000
01001000
00000000
01000000
00001000
,  // measure 9
00010000
00000000
00000100
00000000
00000010
00000001
00000010
00000001
00000010
00000001
00000010
00000001
00000100
00000000
00000100
00000000
,  // measure 10
00001000
00010000
00000100
00000100
00001000
00010000
00000100
00000100
,  // measure 11
00001000
00000000
00010000
00000000
00000100
00000000
00000100
00000000
00000000
00000000
00010000
00001000
01000000
00000000
01000000
00000000
,  // measure 12
00001000
00010000
01000000
01000000
00001000
00010000
01000000
01000000
,  // measure 13
00001000
00000000
00010000
00000000
01000000
00000000
01000000
00000000
00000000
00000000
00001000
00010000
00000010
00000000
00000010
00000000
,  // measure 14
00010000
00001000
00000010
00000010
00010000
00001000
00000010
00000010
,  // measure 15
00010000
00000000
00001000
00000000
00000010
00000000
00000010
00000000
00000000
00000000
00010000
00001000
00100000
00000000
00100000
00000000
,  // measure 16
00001000
00010000
00100000
00100000
00001000
00010000
00100000
00000000
,  // measure 17
00000000
00000000
00000000
00000000
00100000
00000000
10000000
00000000
01000000
00000000
00100000
00000000
01000000
00000000
00010000
00002000
,  // measure 18
00020000
00000000
00000000
00000000
,  // measure 19
00000000
00000000
00000000
00000000
,  // measure 20
00033000
00000000
00000000
00000000
,  // measure 21
00000000
00000000
00000000
00000000
,  // measure 22
00000200
00000320
00000032
00000203
,  // measure 23
00002300
00023000
00230000
20300000
,  // measure 24
31000000
00010000
00001000
00000010
00000001
00000100
00001000
00010000
,  // measure 25
00100000
10000000
00100000
10000000
00100000
10000000
00100000
10000000
01000000
00000000
00100000
00010000
02000000
00000000
00000000
00000000
,  // measure 26
03001000
00001000
00010000
00100000
00001000
00001000
00010000
00100000
,  // measure 27
00001000
00000000
00001000
00000000
00010000
00000000
00100000
00000000
00001000
00000000
00001000
00000000
00000000
00000000
01000000
00001000
,  // measure 28
00010000
00010000
00001000
00000010
00010000
00010000
00001000
00000010
,  // measure 29
00010000
00000000
00010000
00000000
00001000
00000000
00000010
00000000
00010000
00000000
00010000
00000000
00000000
00000000
00000100
00010000
,  // measure 30
00001000
00001000
00010000
01000000
00001000
00001000
00010000
01000000
,  // measure 31
00001000
00000000
00001000
00000000
00010000
00000000
01000000
00000000
00001000
00000000
00001000
00000000
00000000
00000000
00100000
00001000
,  // measure 32
00010000
00010000
00001000
00000010
00010000
00010000
00001000
00000010
,  // measure 33
00010000
00000000
00010000
00000000
00001000
00100000
00001000
00100000
00020000
00000000
20030000
00000000
00000000
00000000
31000000
00000000
,  // measure 34
00010000
00010000
00001000
00000100
00010000
00010000
00001000
00000010
,  // measure 35
00010000
00000000
00010000
00000000
00001000
00000000
00000100
00000000
00010000
00000000
00010000
00000000
00000000
00000000
00000010
00010000
,  // measure 36
00001000
00001000
00010000
00100000
00001000
00001000
00010000
01000000
,  // measure 37
00001000
00001000
00010000
00100000
00001000
00001000
00000000
01000000
,  // measure 38
00001000
00000000
00010000
00000000
00011000
00000000
00000000
00000000
00000100
00001000
00000100
00001000
00000100
00001000
00000100
00001000
,  // measure 39
00000010
00000000
00010000
00000000
00011000
00000000
00000000
00000000
01000000
00010000
01000000
00010000
01000000
00010000
01000000
00010000
,  // measure 40
00100000
00001000
00010000
00000010
00001000
00000100
00010000
00001000
,  // measure 41
00100000
00010000
01000000
00100000
00010000
00001000
00000100
00000010
00001000
00000200
00000000
00000000
,  // measure 42
00000320
00000032
00000203
00002300
,  // measure 43
00023000
00230000
20300000
00000000
,  // measure 44
30010000
00000000
00000000
00000000
,  // measure 45
00000000
00000000
00000000
00000000
,  // measure 46
00000000
00000000
00000000
00000000
,  // measure 47
00000000
00000000
00000000
00000000
,  // measure 48
00001002
00000000
00000023
00000000
,  // measure 49
00002030
00000000
00023000
00000000
,  // measure 50
00230000
00000000
20300000
00000000
,  // measure 51
32000000
00000000
03200000
00000000
,  // measure 52
00320000
01000000
00000000
01030000
,  // measure 53
00002000
00000100
00000000
00003100
,  // measure 54
00020000
00100000
00000000
00130000
,  // measure 55
00002000
00000010
00000000
00003010
,  // measure 56
00012000
00100000
00000000
01003000
,  // measure 57
00021000
00000100
00000000
00030010
,  // measure 58
00010100
01001000
00010010
00101000
,  // measure 59
00001000
00000000
00010000
00000000
00100000
00000000
10000000
00000000
01000000
00100000
01000000
00100000
01000000
00100000
01000000
00100000
,  // measure 60
00010000
00010000
10000000
00100000
00010000
00010000
10000000
01000000
,  // measure 61
00010000
00000000
00010000
00000000
10000000
00000000
00100000
00000000
00010000
00000000
00010000
00000000
00000000
00000000
00010000
00000100
,  // measure 62
00001000
00001000
00000001
00000010
00001000
00001000
00000001
00000100
,  // measure 63
00001000
00000000
00001000
00000000
00000001
00000000
00000010
00000000
00001000
00000000
00001000
00000000
00000000
00000000
00001000
01000000
,  // measure 64
00010000
00010000
10000000
01000000
00010000
00010000
10000000
01000000
,  // measure 65
00010000
00000000
00010000
00000000
10000000
00000000
01000000
00000000
00010000
00000000
00010000
00000000
00000000
00000000
00010000
00000010
,  // measure 66
00001000
00001000
00000100
00000001
00001000
00001000
00000100
00000001
,  // measure 67
00001000
00000000
00001000
00000000
00000100
00000000
00000001
00000000
00000010
00000000
00000010
00000000
00000010
00000000
00001000
00000001
,  // measure 68
00001000
00001000
00000100
00000010
00001000
00001000
00000100
00000001
,  // measure 69
00001000
00000000
00001000
00000000
00000100
00000000
00000010
00000000
00001000
00000000
00001000
00000000
00010000
00000000
00001000
00100000
,  // measure 70
00010000
00010000
01000000
00100000
00010000
00010000
01000000
10000000
,  // measure 71
00010000
00000000
00010000
00000000
01000000
00000000
00100000
00000000
00010000
00000000
00010000
00000000
00001000
00000000
00010000
00000010
,  // measure 72
00001000
00001000
00000001
00000100
00010000
00010000
01000000
10000000
,  // measure 73
00010000
00000000
00010000
00000000
00100000
00000000
01000000
00000000
00001000
00000000
00001000
00000000
00010000
00000000
00001000
01000000
,  // measure 74
00010000
00010000
10000000
00100000
00001000
00001000
00000010
00000100
,  // measure 75
00000001
00000000
00000000
00000000
00000001
00000010
00001000
00010000
,  // measure 76
01000000
00000000
10000000
00200000
02000000
00000000
00000000
00000000
00000000
00000000
00000000
00000000
00000000
00000000
00000000
00000000
,  // measure 77
00000000
00000000
00000000
03300000
;

//---------------dance-single - ----------------
#NOTES:
     dance-single:
     :
     Medium:
     10:
     0.373919,0.515638,0.088427,0.389078,0.000000,296.000000,286.000000,10.000000,44.000000,0.000000,0.000000,0.373919,0.515638,0.088427,0.389078,0.000000,296.000000,286.000000,10.000000,44.000000,0.000000,0.000000:
0000
0000
0000
0000
,
0000
0000
0000
1000
,
0100
1000
0100
1000
,
0100
1000
0100
0001
,
0010
0001
0010
0001
,
0010
0001
0010
1001
,
0100
0001
0100
1001
,
0010
1000
0010
1001
,
0100
1001
0010
0100
,
0100
0000
0010
1000
0010
1000
0002
0000
,
0100
1000
0100
1000
,
0100
1000
0103
2000
,
0010
0001
0010
0001
,
0010
0001
3010
0002
,
0010
1000
0010
1000
,
0010
1000
0013
2000
,
0100
0001
0100
3001
,
0000
0000
0001
1000
0010
0000
0100
0000
,
0220
0000
0000
0000
,
0000
0000
0000
0000
,
0330
0000
0000
0000
,
0000
0000
0000
0000
,
0002
0000
2003
0000
,
3020
0000
0230
0000
,
0301
1000
0001
1000
0100
0010
0100
0010
,
0200
0000
0000
0000
1300
0001
1001
0000
,
2000
0100
0001
0010
,
0001
0100
0001
3010
,
0002
0100
1000
0010
,
1000
0100
1000
0013
,
2000
0100
0010
0001
,
0010
0100
0010
3001
,
0002
0100
0010
0100
,
1000
0000
0100
0000
0013
0010
0000
0001
,
0200
1000
0010
0001
,
0010
1000
0010
0301
,
0020
0001
0100
1000
,
0100
0001
0100
1030
,
0100
0100
0100
0000
0001
1000
0001
1000
,
0010
0010
0010
0000
1000
0001
1000
0001
,
0200
0320
2030
3002
,
0013
0100
1000
0100
0010
0001
0100
0000
,
0120
2030
3200
0302
,
0023
2030
3200
0000
,
0310
0000
0000
0000
,
0000
0000
0000
0000
,
0000
0000
0000
0000
,
0000
0000
0000
0000
,
0002
0000
0000
0000
,
2003
0000
0000
0000
,
3200
0000
0000
0000
,
0320
0000
0000
0000
,
0032
0100
0000
0103
,
2000
0010
0000
3010
,
0002
0010
0000
0013
,
2000
0100
0000
3100
,
0002
1000
0010
0103
,
2000
0001
0100
3010
,
1010
0001
0101
1000
,
0010
0100
0010
0100
0001
1000
0001
1000
,
0020
0001
0100
1000
,
0001
1000
0100
0031
,
0200
0001
0010
1000
,
0001
1000
0010
0301
,
0020
1000
0001
0100
,
1000
0001
0100
1030
,
0200
1000
0010
0001
,
1000
0000
0310
0000
0001
0001
1000
1000
,
0010
0100
0001
0000
0100
0010
1000
0000
,
0001
0010
0100
0000
1000
0100
0010
0000
,
0001
1000
0010
0000
1000
0001
0100
0000
,
0001
0100
0010
0000
1000
0010
0100
0000
,
0001
0010
1000
0000
1000
0100
0001
0000
,
1000
0010
0001
0000
0001
0100
1000
0000
,
0010
0100
0001
0100
0010
1000
0010
0100
,
0001
0000
0000
0000
0001
1000
0010
0000
,
0100
2002
0000
0000
,
0000
0000
0000
3003
;

//---------------dance-double - ----------------
#NOTES:
     dance-double:
     :
     Medium:
     12:
     0.400447,0.618766,0.141483,0.353707,0.000000,317.000000,301.000000,16.000000,40.000000,0.000000,0.000000,0.400447,0.618766,0.141483,0.353707,0.000000,317.000000,301.000000,16.000000,40.000000,0.000000,0.000000:
00000000
00000000
00000000
00000000
,
00000000
00000000
00000000
00001000
,
01000000
00001000
00010000
00001000
,
01000000
00001000
00011000
00010000
,
00000010
00010000
00001000
00010000
,
00000010
00010000
00001000
00011000
,
00001000
00100000
00001000
00011000
,
00010000
00000100
00010000
00011000
,
01000000
00011000
00000010
00010000
,
00001000
00000000
01000000
00010000
01000000
00010000
20000000
00000000
,
00100000
00010000
00100000
01000000
,
00100000
00010000
30100000
00002000
,
00010000
00100000
01000000
00100000
,
00010000
00100000
01003000
00020000
,
00001000
00000010
00000100
00000010
,
00001000
00000010
00030100
00000002
,
00000010
00000100
00001000
00000103
,
00000000
00000000
00000100
00000001
00000010
00000000
00001000
00000000
,
00022000
00000000
00000000
00000000
,
00000000
00000000
00000000
00000000
,
00033000
00000000
00000000
00000000
,
00000000
00000000
00000000
00000000
,
00020000
00000000
02030000
00000000
,
23000000
00000000
30200000
00000000
,
00310000
00001000
00010000
00001000
00000100
00000010
00000100
00000010
,
00000200
00000000
00000000
00000000
00000301
00001000
00001001
00000000
,
00000002
00000100
00001000
00000010
,
00000100
00001000
00000010
00000103
,
00020000
00000010
00000100
00001000
,
00000010
00000100
00001000
00030010
,
00002000
01000000
00100000
00010000
,
01000000
00100000
00010000
01003000
,
20000000
00100000
00010000
01000000
,
00100000
00000000
00010000
00000000
31000000
01000000
00000000
00010000
,
00002000
00100000
00010000
01000000
,
00000100
01000000
00010000
00103000
,
00020000
00000010
00001000
00000100
,
01000000
00000100
00001000
00030010
,
00010000
00001000
00011000
00000000
00000010
00010000
00001000
01000000
,
00001000
00010000
00011000
00000000
00100000
00001000
00010000
00000100
,
00001000
00000010
00001000
00000010
00001000
00000010
00001000
00000010
,
00000100
00000001
00000010
00001000
00010000
01000000
10000000
00000000
,
10200000
00320000
00032000
00003200
,
00000302
00000023
00002030
00000000
,
00013000
00000000
00000000
00000000
,
00000000
00000000
00000000
00000000
,
00000000
00000000
00000000
00000000
,
00000000
00000000
00000000
00000000
,
00200000
00000000
00000000
00000000
,
02300000
00000000
00000000
00000000
,
23000000
00000000
00000000
00000000
,
30200000
00000000
00000000
00000000
,
00320000
00000010
00000000
00030010
,
00002000
00100000
00000000
00103000
,
00020000
00000100
00000000
00030100
,
00002000
01000000
00000000
01003000
,
00020000
00000100
00000010
00031000
,
00002000
00100000
01000000
00013000
,
00010100
01001000
00010010
00101000
,
00001000
00010000
00100000
01000000
00001000
00100000
00010000
01000000
,
00002000
00010000
00100000
00010000
,
00000010
00010000
00100000
01003000
,
00020000
00001000
00000100
00001000
,
01000000
00001000
00000100
00030010
,
00002000
01000000
00010000
00000100
,
00000010
00000100
00010000
01003000
,
00020000
00000100
00001000
00100000
,
00001000
00000000
00030100
00000000
00010000
00010000
00001000
00001000
,
00010000
00001000
00010000
00001000
00010000
00001000
00010000
00001000
,
00010000
00001000
00010000
00001000
00010000
00001000
00010000
00001000
,
00010000
00001000
00010000
00001000
00010000
00001000
00010000
00001000
,
00010000
00001000
00010000
00001000
00010000
00001000
00010000
00001000
,
00010000
00001000
00010000
00001000
00010000
00001000
00010000
00001000
,
00010000
00001000
00010000
00001000
00010000
00001000
00010000
00001000
,
00010000
00001000
00010000
00001000
00010000
00001000
00010000
00001000
,
00011000
00000000
00010000
00001000
,
00000010
00002002
00000000
00000000
,
00000000
00000000
00000000
00003003
;

//---------------dance-single - ----------------
#NOTES:
     dance-single:
     :
     Beginner:
     4:
     0.180643,0.235989,0.017685,0.035371,0.000000,143.000000,141.000000,2.000000,4.000000,0.000000,0.000000,0.180643,0.235989,0.017685,0.035371,0.000000,143.000000,141.000000,2.000000,4.000000,0.000000,0.000000:
0000
0000
0000
0000
,
0000
0000
0000
0010
,
0000
0010
0000
0010
,
0000
0010
0000
0100
,
0000
0100
0000
0100
,
0000
0100
0000
0010
,
0000
0010
0000
0100
,
0000
0100
0000
0010
,
0000
0100
0000
0010
,
0010
0020
0030
0010
,
0000
1000
0000
0100
,
0000
0001
0000
0010
,
0000
1000
0000
0100
,
0000
0001
0000
0010
,
0000
1000
0000
0100
,
0000
0001
0000
0010
,
0000
1000
0000
0100
,
0000
0000
0100
0100
,
0200
0000
0000
0000
,
0000
0000
0000
0000
,
0300
0000
0000
0000
,
0000
0000
0000
0000
,
0100
0000
0000
0000
,
0010
0000
0000
0000
,
0100
0000
0010
0000
,
0100
0100
0020
0030
,
0010
0000
0001
0000
,
0100
0000
1000
0000
,
0010
0000
0001
0000
,
0100
0000
1000
0000
,
0010
0000
0001
0000
,
0100
0000
1000
0000
,
0010
0000
0001
0000
,
0100
0000
1000
0000
,
0010
0000
1000
0000
,
0100
0000
0001
0000
,
0010
0000
1000
0000
,
0100
0000
0001
0000
,
0010
0000
0010
0010
,
0010
0000
0010
0010
,
0010
0000
0100
0000
,
1000
0000
0001
0000
,
0100
0000
0010
0000
,
1000
0000
0001
0000
,
1001
0000
0000
0000
,
0000
0000
0000
0000
,
0000
0000
0000
0000
,
0000
0000
0000
0000
,
1000
0000
0000
0000
,
0100
0000
0000
0000
,
0010
0000
0000
0000
,
0001
0000
0000
0000
,
0100
0100
0000
0100
,
0000
0100
0000
0100
,
0010
0010
0000
0010
,
0000
0010
0000
0010
,
1000
1000
0000
1000
,
0001
0001
0000
0001
,
0100
0000
0100
0000
,
0100
0100
0200
0300
,
0100
0000
0001
0000
,
0010
0000
1000
0000
,
0100
0000
0001
0000
,
0010
0000
1000
0000
,
0100
0000
0001
0000
,
0010
0000
1000
0000
,
0100
0000
0001
0000
,
0010
0000
0010
0010
,
0100
0000
1000
0000
,
0010
0000
0001
0000
,
0100
0000
1000
0000
,
0010
0000
0001
0000
,
0100
0000
1000
0000
,
0010
0000
0001
0000
,
0100
0000
1000
0000
,
0010
0000
0000
0010
,
0010
0110
0000
0000
;

//---------------dance-single - ----------------
#NOTES:
     dance-single:
     :
     Easy:
     7:
     0.296861,0.378135,0.097269,0.106112,0.000000,235.000000,224.000000,11.000000,12.000000,0.000000,0.000000,0.296861,0.378135,0.097269,0.106112,0.000000,235.000000,224.000000,11.000000,12.000000,0.000000,0.000000:
0000
0000
0000
0000
,
0000
0000
0000
1000
,
0010
0000
0010
0000
,
0010
0000
0010
0001
,
0100
0000
0100
0000
,
0100
0000
0100
1000
,
0001
0000
0100
0001
,
1000
0000
0010
1000
,
0001
1000
0001
0100
,
0100
0010
0010
1000
,
0100
1000
0100
0001
,
0010
0001
0010
1000
,
0100
1000
0100
0001
,
0010
0001
0010
1000
,
0010
1000
0010
0001
,
0100
0001
0100
1000
,
0010
1000
0010
0001
,
0000
0001
0010
0100
,
2002
0000
0000
0000
,
0000
0000
0000
0000
,
3003
0000
0000
0000
,
0000
0000
0000
0000
,
1000
0000
0010
0000
,
0001
0000
0100
0000
,
1000
1000
0001
0001
,
1000
0001
2002
3003
,
1000
0010
1000
0010
,
0001
0100
0001
0100
,
1000
0010
1000
0010
,
0001
0100
0001
0100
,
1000
0100
1000
0100
,
0001
0010
0001
0010
,
1000
0100
1000
0100
,
0001
0010
0020
0030
,
1000
0100
0001
0010
,
1000
0100
0001
0010
,
1000
0010
0001
0100
,
1000
0010
0001
0100
,
1000
1000
0010
0110
,
0001
0001
0100
0110
,
1000
0010
0001
0100
,
1000
0010
0100
0001
,
2002
0000
0000
0000
,
0000
0000
0000
3003
,
1001
0000
0000
0000
,
0000
0000
0000
0000
,
0000
0000
0000
0000
,
0000
0000
0000
0000
,
0001
0000
0000
0000
,
0100
0000
0000
0000
,
0010
0000
0000
0000
,
1000
0000
0000
0000
,
0002
1000
0000
1000
,
0000
1000
0000
1000
,
0000
1000
0000
1000
,
0000
1000
0000
1003
,
1001
0100
0000
0100
,
1001
0100
0000
0100
,
1001
0100
0100
0100
,
0010
0100
0220
0330
,
0010
1000
0010
1000
,
0100
0001
0100
0001
,
0010
1000
0100
0001
,
0010
1000
0100
0001
,
0010
0001
0010
0001
,
0100
1000
0100
1000
,
0010
0001
0100
1000
,
0010
0001
0100
0100
,
1000
0010
0001
1000
,
0010
0001
1000
0010
,
0001
0100
1000
0001
,
0100
1000
0001
0100
,
1000
0010
0100
1000
,
0010
0100
1000
0010
,
0001
0100
0010
0001
,
0100
0000
0100
0010
,
0100
2002
0000
0000
,
0000
0000
0000
3003
;

//---------------dance-double - ----------------
#NOTES:
     dance-double:
     :
     Easy:
     8:
     0.295598,0.343759,0.079584,0.097269,0.000000,234.000000,225.000000,9.000000,11.000000,0.000000,0.000000,0.295598,0.343759,0.079584,0.097269,0.000000,234.000000,225.000000,9.000000,11.000000,0.000000,0.000000:
00000000
00000000
00000000
00000000
,
00000000
00000000
00000000
00010000
,
01000000
00000000
01000000
00000000
,
01000000
00000000
01000000
00001000
,
00010000
00000000
00010000
00000000
,
00010000
00000000
00010000
00000100
,
00001000
00000000
00000010
00010000
,
00001000
00000000
01000000
00001000
,
00010000
00001000
00010000
00100000
,
00100000
10000000
10000000
01000000
,
00010000
01000000
00010000
00100000
,
10000000
00100000
10000000
01000000
,
00010000
01000000
00010000
00100000
,
10000000
01000000
00010000
00001000
,
00000100
00001000
00000100
00000001
,
00000010
00000001
00000010
00001000
,
00000100
00001000
00000100
00000001
,
00000000
00000001
00000010
00001000
,
00022000
00000000
00000000
00000000
,
00000000
00000000
00000000
00000000
,
00033000
00000000
00000000
00000000
,
00000000
00000000
00000000
00000000
,
00001000
00000000
00010000
00000000
,
01000000
00000000
10000000
00000000
,
00100000
00100000
00010000
00010000
,
00001000
00010000
00022000
00033000
,
00001000
00000010
00001000
00000010
,
00000001
00000100
00000001
00000100
,
00001000
00000010
00001000
00000010
,
00000001
00000100
00001000
00010000
,
00010000
00100000
00010000
00100000
,
10000000
01000000
10000000
01000000
,
00010000
00100000
00010000
00100000
,
10000000
01000000
00010000
00010000
,
00001000
00000100
00000001
00000010
,
00001000
00000100
00000001
00000010
,
00001000
00001000
00010000
00100000
,
10000000
01000000
00010000
00100000
,
10000000
10000000
00010000
00001000
,
00000001
00000001
00001000
00010000
,
10000000
00100000
00010000
00001000
,
00000100
00000001
00000010
00001000
,
00022000
00000000
00000000
00000000
,
00000000
00000000
00000000
00033000
,
00011000
00000000
00000000
00000000
,
00000000
00000000
00000000
00000000
,
00000000
00000000
00000000
00000000
,
00000000
00000000
00000000
00000000
,
00010000
00000000
00000000
00000000
,
00001000
00000000
00000000
00000000
,
00010000
00000000
00000000
00000000
,
00001000
00000000
00000000
00000000
,
00020000
00001000
00000000
00001000
,
00000000
00001000
00000000
00001000
,
00000000
00001000
00000000
00001000
,
00000000
00001000
00000000
00031000
,
00011000
01000000
00000000
01000000
,
00011000
00000010
00000000
00000010
,
00011000
00100000
00100000
00010000
,
10000000
00010000
20020000
30030000
,
10000000
01000000
00010000
00100000
,
10000000
01000000
00010000
00100000
,
10000000
00100000
00010000
01000000
,
10000000
00100000
00010000
00001000
,
00001000
00000010
00000001
00000100
,
00001000
00000010
00000001
00000100
,
00001000
00000100
00000001
00000010
,
00001000
00000100
00000001
00000001
,
00000010
00000100
00001000
00000100
,
00010000
00001000
00100000
00010000
,
00100000
01000000
10000000
00100000
,
01000000
00010000
01000000
00001000
,
00010000
00000010
00001000
00000010
,
00000100
00000001
00000010
00000100
,
00001000
00010000
00100000
01000000
,
10000000
00000000
10000000
00100000
,
00010000
00022000
00000000
00000000
,
00000000
00000000
00000000
00033000
;
