#TITLE:Dyscontrolled Galaxy;
#SUBTITLE:;
#ARTIST:かめりあ;
#TITLETRANSLIT:;
#SUBTITLETRANSLIT:;
#ARTISTTRANSLIT:camellia;
#GENRE:VARIETY;
#CREDIT:MUINELIM;
#BANNER:Dyscontrolled Galaxy.png;
#BACKGROUND:Dyscontrolled Galaxy-bg.png;
#LYRICSPATH:;
#CDTITLE:;
#MUSIC:Dyscontrolled Galaxy.ogg;
#OFFSET:-0.094000;
#SAMPLESTART:71.646797;
#SAMPLELENGTH:10.394782;
#SELECTABLE:YES;
#BPMS:0.000000=161
;
#STOPS:34.500000=0.373,91.000000=0.186,222.500000=0.186
;
#BGCHANGES:;
#KEYSOUNDS:;
#ATTACKS:;

//---------------dance-single - ----------------
#NOTES:
     dance-single:
     :
     Hard:
     17:
     0.817215,1.033701,0.519285,0.644918,0.900373,683.000000,621.000000,62.000000,77.000000,0.000000,0.000000,0.817215,1.033701,0.519285,0.644918,0.900373,683.000000,621.000000,62.000000,77.000000,0.000000,0.000000:
0000
0000
0000
0000
,
0000
0000
0000
0000
,
0000
0000
0000
0000
,
0000
0000
0000
0000
,
0000
0000
0000
0000
,
1002
0000
0000
0000
0000
0000
0103
0000
0110
0000
0000
1010
0000
0000
0102
0000
,
0000
0000
0013
0100
0010
0100
1000
0000
1010
0000
0000
0101
0000
0000
0110
0000
,
2001
0000
0000
0000
0000
0000
3010
0000
0110
0000
0000
0101
0000
0000
2002
0000
,
3000
0023
0000
0130
1000
1001
1000
1000
,
0010
0000
0100
0001
0100
0000
0010
0000
1000
0000
0100
0010
0100
0000
1000
0000
,
0010
0000
0100
0001
0100
0001
0000
0001
0020
0000
0230
0000
1300
0000
0010
0000
,
0100
0000
0001
0010
0001
0000
0100
0000
0010
0000
1000
0100
1000
0100
0000
0010
,
0000
0100
1000
0010
1000
0010
0100
0001
0020
0000
0230
0000
1300
0000
1000
0000
,
0010
0000
0100
0010
0100
0000
0001
0000
0010
0000
0100
0010
0100
0000
1000
0010
,
0100
0000
0001
0010
0100
0000
1000
0010
0100
0000
0001
0010
0100
1000
0100
1000
,
0001
0100
0001
0100
0010
1000
0001
0010
0200
0000
0010
0000
0320
0000
0000
0000
,
0032
0000
2000
0000
3003
1000
0010
0210
,
0000
0301
0011
0000
1100
1000
0002
0000
,
0013
0001
0010
0000
0100
0010
0100
0000
1000
0100
1000
0000
0010
0000
0000
0000
,
0100
0001
0100
0000
0010
1000
0010
0000
0100
0000
0001
0000
0011
0000
0000
0000
,
0010
0100
0010
0000
0100
1000
0100
0000
0010
0001
0010
0000
0200
0000
0310
0000
,
0100
1000
0010
0100
0001
1000
0000
1000
0000
0000
1100
0000
0020
0000
0000
0000
,
0130
0001
0010
0000
0001
0100
0010
0000
1000
0100
0010
0002
0003
0000
0010
0100
,
1000
0000
0001
0010
0100
0000
0010
0000
0100
0000
0110
0000
0010
0100
0000
1000
,
0010
0000
0110
0000
0100
0001
0000
0010
0100
0000
0110
0000
0011
0000
0000
0101
,
0000
0000
1010
0000
1100
0000
0100
0010
0100
1000
0200
0000
0310
0001
0000
0001
,
0000
0000
0200
0000
0310
1000
0000
1000
0000
0000
0200
0000
0310
0001
0000
0001
,
0000
0000
0200
0000
0310
1000
0001
0000
0011
0000
0020
0000
0130
1000
0000
1000
,
0000
0000
0020
0000
0130
0001
0000
0001
0000
0000
0020
0000
0130
1000
0000
1000
,
0010
0100
0001
1000
0100
0010
0001
1000
0010
0100
0001
0000
0010
0000
0100
0000
,
1000
0100
0000
0001
0100
0000
2000
0000
0000
0000
0002
0000
0000
0000
0000
0000
,
0000
0000
0000
0000
,
0000
0000
0000
3000
0000
0200
0000
0000
,
0000
0000
0000
0000
,
0000
0000
0000
0003
0000
0020
0000
0300
,
0000
2000
0000
0030
0000
0200
0000
3000
,
0000
0002
0000
0300
0000
0020
0000
0003
,
0000
0200
0000
0030
0000
0002
0000
0300
,
0000
0000
1003
0010
1000
0010
1000
0010
1000
0010
0100
0000
0100
0000
0001
0000
,
0010
1000
0010
0000
0001
0000
0100
0000
0010
0001
0010
0000
1000
0000
0100
0000
,
0010
0100
0010
0100
0000
0100
2000
0000
3002
0000
0103
0000
0100
0000
1000
0000
,
0100
0001
0100
0000
0010
0000
1000
0000
0100
0010
0100
0010
0000
0100
0000
0100
,
1000
0010
0100
0001
0010
0100
2000
0000
3002
0000
0103
0000
0100
0000
0010
0000
,
0001
0010
0001
0000
0010
0000
1000
0000
0100
0010
0100
0000
0010
0001
0010
0000
,
0001
1000
0001
0000
1000
0100
1000
0000
0010
0100
0010
0100
0001
1000
0001
1000
,
0100
0010
0001
1000
0010
0100
0002
0000
1000
0000
1003
0000
0000
0000
1010
0000
,
0000
0202
0000
0303
0001
0010
2000
0000
,
3100
0000
0001
0000
0010
0000
0220
0000
0330
0000
0010
1000
0100
0000
1000
0000
,
0010
0000
0001
0000
0010
0000
1000
0000
0100
0000
0010
0001
0100
0000
0001
0000
,
0010
0000
1000
0000
0010
0000
0001
0000
0100
0000
0010
0100
1000
0000
0100
0000
,
0001
0000
0010
0000
0100
0000
1000
0000
0001
0000
0100
0010
0001
0000
0010
0000
,
1000
0000
0100
0010
0100
0010
0001
0100
0010
1000
0001
0010
0100
0000
0001
0000
,
0100
0000
0010
0000
0001
0000
0100
0000
0010
0000
1000
0100
0010
0000
1000
0000
,
0010
0100
1000
0010
0100
0101
1010
1100
,
0011
0000
2002
0000
3003
0000
0220
0000
0330
0000
1001
0000
0100
0010
0000
0010
,
0000
0000
1001
0000
0010
0100
0000
0100
0010
0000
2000
0000
3001
0000
0001
0010
,
0000
0100
0020
0000
0000
0031
0100
0010
0100
0001
0100
0010
0000
1010
0000
1100
,
0000
0100
0010
0001
0100
0010
0100
0010
1000
0001
0010
0100
0000
0110
0000
0011
,
0000
0001
0100
0010
0000
0001
0010
0100
0010
0100
0001
0010
0001
0010
0100
1000
,
0010
0100
0000
0102
0000
0000
1003
0000
0100
0010
0000
0110
0000
0000
0100
0000
,
1000
0010
0000
0100
0002
0000
0013
0100
0010
0001
0000
0101
0000
0000
0100
0000
,
0010
2000
0000
3100
0010
0100
1000
0100
0010
0001
0000
0011
0000
0010
0100
1000
,
0001
0100
0010
0100
0010
1000
0001
0010
0200
0000
2300
0000
3002
0000
0023
0000
,
0130
1000
0100
0010
0100
0010
0001
0010
0200
0000
0000
0000
1300
0000
0010
0000
,
0101
0000
0000
1010
0000
0000
2200
0000
3300
0000
1000
0100
0010
0001
0100
0000
,
0110
0000
0000
1010
0000
0000
0101
0000
0022
0000
0033
0000
0010
0000
0100
0000
,
1100
0000
0000
0101
0000
0000
2020
0000
3030
0000
0010
0100
0001
1000
0100
0010
,
0001
0100
0010
0000
2010
0000
3001
0000
0001
0010
0000
1000
0200
0000
0300
0000
,
0110
0000
0000
1001
0000
0000
1000
0010
0001
0000
0010
0000
0100
0000
0001
0000
,
0011
0000
0000
1010
0000
0000
1100
0000
0101
0000
0001
0010
0000
1000
0000
0010
,
0100
0000
1000
0100
0000
0001
0000
0100
0010
0001
0100
0001
0100
0010
1000
0010
,
1000
0100
0010
0001
0100
0010
1000
0001
0020
0000
1030
0010
0000
0001
0000
0000
,
0020
0000
0130
0010
0000
0001
0000
0000
0020
0000
0031
0010
0000
1000
0010
0000
,
0010
0001
0100
0010
1000
0001
0020
0000
0230
0000
1300
0100
0000
0001
0000
0000
,
0200
0000
0310
0100
0000
1000
0000
0000
0200
0000
1300
0010
0000
0001
0010
0100
,
0010
1000
0010
0100
1000
0100
0010
0100
0001
0000
2002
0000
0000
0000
0000
0000
,
0000
0000
0000
0000
,
0000
0000
0000
0000
,
0000
0000
0000
0000
,
0000
0000
0000
0000
0000
3003
0000
0000
;

//---------------dance-double - ----------------
#NOTES:
     dance-double:
     :
     Hard:
     17:
     0.802857,0.967011,0.577914,0.603040,0.829180,671.000000,602.000000,69.000000,72.000000,0.000000,0.000000,0.802857,0.967011,0.577914,0.603040,0.829180,671.000000,602.000000,69.000000,72.000000,0.000000,0.000000:
00000000
00000000
00000000
00000000
,
00000000
00000000
00000000
00000000
,
00000000
00000000
00000000
00000000
,
00000000
00000000
00000000
00000000
,
00000000
00000000
00000000
00000000
,
00022000
00000000
00000000
00000000
00030000
00000000
00013000
00000000
00011000
00000000
00000000
00101000
00000000
00000000
00020020
00000000
,
00030030
00000000
00010000
00001000
00010000
00001000
00010000
00000000
00011000
00000000
00000000
00010100
00000000
00000000
01001000
00000000
,
02200000
00000000
00000000
00000000
03000000
00000000
10300000
00000000
11000000
00000000
00000000
01010000
00000000
00000000
00012000
00000000
,
00000000
00003020
00000000
00000031
00001000
00001001
00000001
00000001
,
00001000
00000000
00000100
00010000
00000100
00000000
00001000
00000000
00000001
00000000
00000100
00000010
00000100
00000000
00000001
00000000
,
00001000
00000000
00000100
00010000
00000100
00010000
00000000
00001000
00020000
00000000
00032000
00000000
00103000
00000000
00100000
00000000
,
00010000
00000000
10000000
01000000
10000000
00000000
00010000
00000000
01000000
00000000
00001000
00010000
00001000
00010000
00000000
00010000
,
00000000
00001000
00010000
00000100
00000010
00000100
00000010
00000001
00000200
00000000
00000320
00000000
00001030
00000000
00001000
00000000
,
00000100
00000000
00010000
00001000
00010000
00000000
00000100
00000000
00001000
00000000
00000001
00000100
00000001
00000000
00001000
00000100
,
00001000
00000000
00000100
00010000
00000100
00000000
00010000
00001000
00010000
00000000
00001000
00100000
00010000
01000000
00010000
01000000
,
00100000
10000000
00100000
10000000
00010000
00100000
01000000
10000000
00100000
00000000
00100000
00000000
00200000
00000000
00000000
00000000
,
00320000
00000000
00002000
00000000
00033000
00001000
00000010
00000012
,
00000000
00001003
00001010
00000000
00000101
00000100
00000020
00000000
,
00001030
00000100
00010000
01000000
10000000
00100000
01100000
00000000
,
01000000
00010000
00100000
00001000
00000010
00000100
00001100
00000000
,
00001000
00000010
00010000
00100000
10000000
01000000
00200000
00301000
,
00001000
00010000
00001000
00010000
00001000
00000100
00000000
00000100
00000000
00000000
00000101
00000000
00000002
00000000
00000000
00000000
,
00001003
00000000
00000010
00000000
00010000
00000000
00100000
00000000
10000000
01000000
10000000
02000000
03000000
00000000
00100000
00000000
,
01000000
00000000
10000000
00000000
00100000
00000000
00010000
00001000
00000000
00001000
00010000
00000000
00001000
00000010
00000000
00000010
,
00001000
00000000
00011000
00000000
00010000
00100000
00000000
00100000
00010000
00000000
00011000
00000000
00101000
00000000
00000000
00010100
,
00000000
00000000
01001000
00000000
01010000
00000000
00010000
00100000
01000000
10000000
00200000
00000000
00310000
00001000
00000000
00011000
,
00000000
00000000
00000020
00000000
00001030
00010000
00000000
00011000
00000000
00000000
00200000
00000000
00310000
00001000
00000000
00011000
,
00000000
00000000
00000020
00000000
00001030
00010000
00001000
00000000
00011000
00000000
02000000
00000000
03010000
00001000
00000000
00011000
,
00000000
00000000
00000200
00000000
00001300
00010000
00000000
00011000
00000000
00000000
02000000
00000000
03010000
00001000
00000000
00001000
,
00100000
01000000
00100000
01000000
10000000
00010000
10000000
00010000
00100000
01000000
10000000
00000000
00100000
00000000
00010000
00000000
,
00001000
00000010
00000001
00000100
00001000
00022000
00000000
00000000
,
00000000
00000000
00000000
00000000
,
00000000
00000000
00000000
00003000
00000000
02000000
00000000
00000000
,
00000000
00000000
00000000
00000000
,
00000000
00000000
00000000
00030000
00000000
20000000
00000000
03000000
,
00000000
00200000
00000000
30000000
00000000
00020000
00000000
00300000
,
00000000
00002000
00000000
00030000
00000000
00000200
00000000
00003000
,
00000000
00000002
00000000
00000300
00000000
00002000
00000000
00000000
,
00003003
00000000
00001000
00000100
00010000
00001000
00010000
00001000
00100000
00010000
10000000
00000000
10000000
00000000
00010000
00000000
,
01000000
00001000
01000000
00000000
00010000
00000000
10000000
00000000
01000000
00100000
01000000
00000000
10000000
00000000
00010000
00000000
,
01000000
00001000
01000000
00001000
00000000
00010000
00002000
00000000
00023000
00000000
00030010
00000000
00000010
00000000
00001000
00000000
,
00000001
00000100
00000001
00000000
00001000
00000000
00000100
00000000
00010000
00001000
00010000
00001000
00000000
00001000
00000000
00010000
,
00001000
01000000
00100000
01000000
00100000
10000000
02000000
00000000
03200000
00000000
00310000
00000000
00010000
00000000
01000000
00000000
,
00001000
00010000
00001000
00000000
01000000
00000000
00010000
00000000
10000000
01000000
10000000
00000000
00010000
01000000
00010000
00000000
,
01000000
00001000
01000000
00000000
00001000
00010000
00001000
00000000
00010000
00000010
00001000
00000100
00001000
00000100
00000010
00000001
,
00000010
00000001
00001000
00000010
00000100
00000001
00000010
00000000
00000010
00000000
00000020
00000000
00000000
00000000
00002030
00000000
,
00000000
00020000
00000000
00033000
00010000
00100000
20100000
00000000
,
30010000
00110000
00000000
22000000
33000000
10000000
00100000
00010000
,
00100000
01000000
00010000
00100000
01000000
00010000
00001000
00000010
,
00000100
00001000
00000010
00000001
00000010
00000100
00001000
01000000
,
00010000
00100000
01000000
10000000
00100000
00010000
00000010
00001000
,
00000100
00000000
00000010
00000001
00000100
00000010
00001000
00000100
00010000
00001000
00100000
01000000
10000000
00000000
00100000
00000000
,
00010000
00000000
00001000
00000000
00100000
00000000
01000000
00000000
00010000
00000000
00001000
00000010
00000100
00000000
00001000
00000000
,
00000010
00000001
00000010
00000100
00001000
00011000
00011000
01001000
,
00010100
00000000
00202000
00000000
00303000
00000000
00020020
00000000
00030030
00000000
00011000
00000000
00100000
01000000
00000000
01000000
,
00000000
00000000
00011000
00000000
00000100
00000010
00000000
00000010
00000001
00000000
00002000
00000000
00003010
00000000
00000010
00010000
,
00000000
00001000
00200000
00000000
00000000
00310000
01000000
00010000
01000000
00100000
10000000
01000000
00000000
00100000
00000000
01000000
,
00000000
00010000
00001000
00010000
00001000
00000010
00000100
00000010
00000100
00001000
00000010
00000100
00000000
00000001
00000000
00001000
,
00000000
00000100
00010000
00001000
00000000
00010000
00100000
01000000
00100000
01000000
00100000
10000000
00100000
10000000
01000000
10000000
,
01000000
00100000
00000000
00120000
00000000
00000000
01030000
00000000
01000000
00001000
00000000
00011000
00000000
00000000
00000100
00000000
,
00010000
00001000
00000000
00001000
00000020
00000000
00000031
00000100
00000001
00000100
00000000
00001100
00000000
00000000
00001000
00000000
,
00010000
00100000
00000000
00100000
10000000
00100000
01000000
00100000
10000000
01000000
00000000
00100000
00000000
01000000
00010000
01000000
,
00010000
00001000
00010000
00001000
00000100
00001000
00000100
00001000
00000100
00000000
00000001
00000000
00000010
00000000
00001000
00000000
,
00010000
00000100
00010000
00001000
01000000
00001000
00010000
00000100
00000020
00000000
00000000
00000000
00000031
00000000
00000100
00000000
,
00000110
00000000
00000000
00010010
00000000
00000000
00022000
00000000
00033000
00000000
00001000
00010000
00100000
01000000
00100000
00000000
,
10100000
00000000
00000000
01010000
00000000
00000000
00110000
00000000
22000000
00000000
33000000
00000000
10000000
00000000
00100000
00000000
,
01100000
00000000
00000000
01001000
00000000
00000000
00022000
00000000
00033000
00000000
00010000
00001000
00010000
00001000
00000100
00000010
,
00000100
00000000
00000001
00000000
00001001
00000000
00000100
00000000
00010000
00001000
00000000
00100000
02000000
00000000
03000000
00000000
,
11000000
00000000
00000000
10100000
00000000
00000000
00100000
00010000
00001000
00000000
00010000
00000000
01000000
00000000
00100000
00000000
,
01100000
00000000
00000000
00101000
00000000
00000000
00011000
00000000
00010100
00000000
00000100
00000010
00000000
00000001
00000000
00000100
,
00001000
00000000
00010000
01000000
00000000
00100000
00000000
00010000
10000000
01000000
10000000
01000000
00100000
00001000
00100000
00001000
,
00010000
00000010
00010000
00000010
00000100
00000001
00000100
00000001
00000020
00000000
00000031
00000100
00000000
00001100
00000000
00000000
,
00000020
00000000
00000031
00000100
00000000
00001010
00000000
00000000
00000020
00000000
00000031
00000100
00000000
00001001
00000000
00000000
,
00001000
00000100
00001000
00000100
00010000
00001000
00200000
00000000
02300000
00000000
13000000
00100000
00000000
00110000
00000000
00000000
,
02000000
00000000
13000000
00100000
00000000
01010000
00000000
00000000
02000000
00000000
13000000
00100000
00000000
10010000
00000000
10000000
,
01000000
00100000
00010000
01000000
00100000
00010000
00001000
00000100
00000010
00000000
00002002
00000000
00000000
00000000
00000000
00000000
,
00000000
00000000
00000000
00000000
,
00000000
00000000
00000000
00000000
,
00000000
00000000
00000000
00000000
,
00000000
00000000
00000000
00000000
00000000
00003003
00000000
00000000
;

//---------------dance-single - ----------------
#NOTES:
     dance-single:
     :
     Beginner:
     4:
     0.162725,0.221324,0.025127,0.000000,0.000000,136.000000,133.000000,3.000000,0.000000,0.000000,0.000000,0.162725,0.221324,0.025127,0.000000,0.000000,136.000000,133.000000,3.000000,0.000000,0.000000,0.000000:
// measure 0
0000
0000
0000
0000
,  // measure 1
0000
0000
0000
0000
,  // measure 2
0000
0000
0000
0000
,  // measure 3
0000
0000
0000
0000
,  // measure 4
0000
0000
0000
0000
,  // measure 5
1000
0000
1000
0000
,  // measure 6
1000
0000
0000
0000
,  // measure 7
0001
0000
0001
0000
,  // measure 8
0001
0000
0000
0100
,  // measure 9
0000
0100
0000
0010
,  // measure 10
0000
0010
0000
1000
,  // measure 11
0000
0001
0000
0100
,  // measure 12
0000
0010
0000
0010
,  // measure 13
0000
1000
0000
0001
,  // measure 14
0000
0100
0000
0010
,  // measure 15
0010
0010
0000
0010
,  // measure 16
0000
0100
0000
0110
,  // measure 17
0000
0000
0000
0010
,  // measure 18
0000
1000
0000
0010
,  // measure 19
0000
1000
0000
0001
,  // measure 20
0000
0100
0000
0001
,  // measure 21
0000
0100
0000
0001
,  // measure 22
0000
1000
0000
0000
,  // measure 23
0000
0001
0000
0000
0000
1000
0000
0000
,  // measure 24
0000
0100
0000
0000
0000
0010
0000
0000
,  // measure 25
0000
0001
0000
0000
0000
1000
0000
0000
,  // measure 26
0000
1000
0000
0000
0000
1000
0000
0000
,  // measure 27
0000
1000
0000
0000
0000
0001
0000
0000
,  // measure 28
0000
0001
0000
0000
0000
0001
0000
0000
,  // measure 29
0000
0001
0000
0000
0000
0100
0000
0000
,  // measure 30
0000
0000
0000
0100
0000
0100
0000
0000
,  // measure 31
0000
0000
0000
0000
,  // measure 32
0000
0000
0000
0000
0000
0010
0000
0000
,  // measure 33
0000
0000
0000
0000
0000
1000
0000
0000
,  // measure 34
0000
0000
0000
0000
0000
0001
0000
0000
,  // measure 35
0000
0000
0000
0000
0000
0100
0000
0000
,  // measure 36
0000
0000
0000
0000
0000
0010
0000
0000
,  // measure 37
0000
1000
0000
0000
0000
0001
0000
0000
,  // measure 38
0000
0100
0000
0000
0000
0010
0000
0000
,  // measure 39
0000
0010
0000
0000
0000
1000
0000
0000
,  // measure 40
0000
1000
0000
0000
0000
0001
0000
0000
,  // measure 41
0000
0001
0000
0000
0000
0100
0000
0000
,  // measure 42
0000
0010
0000
0000
0000
1000
0000
0000
,  // measure 43
0000
0001
0000
0000
0000
0010
0000
0000
,  // measure 44
0000
0100
0000
0000
0000
1000
0000
1000
,  // measure 45
0000
1000
0000
0000
0000
1000
0000
0000
,  // measure 46
0000
0001
0000
0000
0000
1001
0000
0000
,  // measure 47
0000
0000
0000
0000
0000
0010
0000
0000
,  // measure 48
0000
0100
0000
0000
0000
0001
0000
0000
,  // measure 49
0000
0100
0000
0000
0000
0010
0000
0000
,  // measure 50
0000
0100
0000
0000
0000
0001
0000
0000
,  // measure 51
0000
0001
0000
0000
0000
1000
0000
0000
,  // measure 52
0000
0100
0000
0000
0000
0010
0000
0000
,  // measure 53
0000
0100
0000
0000
0000
1000
0000
0000
,  // measure 54
0000
1000
0000
0000
0000
0010
0000
0000
,  // measure 55
0000
0100
0000
0100
0000
0000
0000
0000
,  // measure 56
0010
0000
1000
0000
,  // measure 57
0001
0000
1000
0000
,  // measure 58
0010
0000
1000
0000
,  // measure 59
0001
0000
0100
0000
,  // measure 60
0001
0000
1000
0000
,  // measure 61
0001
0000
0100
0000
,  // measure 62
0001
0000
1000
0000
,  // measure 63
0010
0010
0010
0000
,  // measure 64
0000
0000
0001
0000
,  // measure 65
0100
0000
1000
0000
,  // measure 66
0000
0000
1000
0000
,  // measure 67
0010
0000
0001
0000
,  // measure 68
0000
0000
0001
0000
,  // measure 69
0100
0000
1000
0000
,  // measure 70
0010
0000
0001
0000
,  // measure 71
0100
0000
1000
0000
,  // measure 72
0001
0000
1000
0000
,  // measure 73
0001
0001
1000
0000
,  // measure 74
0010
0000
0100
0000
,  // measure 75
0001
0001
1001
0000
;

//---------------dance-single - ----------------
#NOTES:
     dance-single:
     :
     Easy:
     8:
     0.327843,0.380041,0.167511,0.108882,0.000000,274.000000,254.000000,20.000000,13.000000,0.000000,0.000000,0.327843,0.380041,0.167511,0.108882,0.000000,274.000000,254.000000,20.000000,13.000000,0.000000,0.000000:
0000
0000
0000
0000
,
0000
0000
0000
0000
,
0000
0000
0000
0000
,
0000
0000
0000
0000
,
0000
0000
0000
0000
,
1001
0000
1000
0001
,
1000
0000
0010
0100
,
0110
0000
0010
0100
,
0010
0010
0200
0310
,
0000
1000
0000
0001
,
0000
0100
0100
0010
,
0000
1000
0000
0001
,
0000
0100
0100
0010
,
1000
0001
0100
0010
,
1000
0001
0100
0010
,
0010
0010
0010
0000
,
1001
0000
0110
0000
0000
0000
0010
0010
,
0000
0100
0100
0000
0001
0000
1001
0000
,
1000
0100
0010
0001
,
1000
0000
0100
0000
0010
0010
0000
0000
,
0001
0010
0100
1000
,
0001
0010
0200
0300
,
1000
0010
0100
0100
,
0000
0001
0000
0001
0000
1000
0000
0100
,
0000
0001
0000
0100
0000
1000
0000
0100
,
0000
0010
0000
1001
0000
1000
0000
0010
,
0000
1000
0000
0010
0000
1000
0000
0010
,
0000
1000
0000
1000
0000
0001
0000
0010
,
0000
0001
0000
0010
0000
0001
0000
0010
,
0000
0001
0000
0001
0000
1000
0000
0000
,
0000
0010
0100
0010
0000
2002
0000
0000
,
0000
0000
0000
0000
,
0000
0000
0000
3003
0000
1000
0000
0000
,
0000
0100
0000
0000
0000
0010
0000
0000
,
0000
0001
0000
0000
0000
0100
0000
0000
,
0000
0010
0000
0000
0000
1000
0000
0000
,
0000
0001
0000
0000
0000
0010
0000
0000
,
0000
0100
0000
0000
0000
1000
0000
0000
,
0000
0020
0000
0230
0000
0310
0000
0010
,
0000
1000
0000
1000
0000
0001
0000
0001
,
0000
0100
0000
0100
0000
1000
0000
1000
,
0000
0010
0000
0010
0000
0001
0000
0001
,
0000
1000
0000
1001
0000
0010
0100
0000
,
0100
0010
0000
1000
0000
0001
0000
0010
,
0000
0100
0000
1000
0000
0010
0000
0010
,
0000
0010
0000
0010
0000
0000
0000
0110
,
0000
1001
0000
0000
0000
0100
0100
0000
,
0010
0010
0000
1000
0000
1001
0000
0001
,
0000
0100
0000
0001
0000
0010
0000
0001
,
0000
0100
0000
0100
0000
1000
0000
0010
,
0000
1000
0000
0100
0000
1000
0000
0010
,
0000
0010
0000
0001
0000
1000
0000
0010
,
0000
0100
0010
0100
0000
0010
0000
1000
,
0000
0001
0000
0010
0000
0100
0000
0100
,
0000
1100
0000
0011
0000
2000
0000
3000
,
0000
0002
0000
0003
0000
1001
0000
0000
,
0010
0010
1000
0100
,
0010
0001
0100
1000
,
0001
0010
1000
0100
,
0010
0100
0010
0000
0001
0000
0001
0000
,
0200
1300
1000
1000
,
0020
0031
0001
1000
,
0001
0000
1000
0000
0010
0100
0010
0000
,
0220
0330
0100
0001
,
1000
0001
0100
0000
,
1000
1001
0010
1000
,
0001
1000
0010
0000
,
0001
1001
0010
0110
,
1000
0100
0010
0001
,
1000
0000
0010
0000
0100
0001
0100
0000
,
0010
1000
0010
0000
0001
0000
0100
0000
,
2000
3001
0001
0100
,
0001
0010
0001
0100
,
0001
0011
1000
0100
,
1000
0010
1000
0100
,
1000
0000
1010
0000
0001
0001
0000
0000
;

//---------------dance-single - ----------------
#NOTES:
     dance-single:
     :
     Medium:
     12:
     0.512106,0.566868,0.217765,0.134009,0.146572,428.000000,402.000000,26.000000,16.000000,0.000000,0.000000,0.512106,0.566868,0.217765,0.134009,0.146572,428.000000,402.000000,26.000000,16.000000,0.000000,0.000000:
0000
0000
0000
0000
,
0000
0000
0000
0000
,
0000
0000
0000
0000
,
0000
0000
0000
0000
,
0000
0000
0000
0000
,
2002
0000
0000
0000
3003
0000
0000
0000
0001
0000
0000
1000
0000
0000
0001
0000
,
0000
0000
0001
0000
0100
0000
0010
0000
1000
0000
0000
1000
0000
0000
1000
0000
,
2002
0000
0000
0000
3003
0000
0000
0000
1000
0000
0000
0001
0000
0000
1000
0000
,
0000
0110
0000
0001
1000
0001
0100
0100
,
0000
1000
0010
0000
0110
0000
0100
0100
,
0000
0001
0010
0100
1000
0000
0010
0010
,
0000
0001
0100
0000
0110
0000
0010
0010
,
0000
1000
0100
0010
0002
0000
1003
0010
,
1000
0000
0010
0001
0010
0000
0001
0100
,
0001
0000
0100
1000
0100
0000
1000
0010
,
0100
0010
0001
0010
0100
0010
0000
0000
,
1010
0000
0102
0000
0000
0000
1003
1000
,
0000
0100
0010
0001
0100
0010
0110
0000
,
0100
0001
1000
0010
0100
0001
0001
0000
,
1000
0100
0010
0001
1000
0000
1001
0000
,
0001
0100
0010
1000
0001
0100
0100
0000
,
0010
0000
1000
0000
0001
0000
0000
0100
0000
0000
0010
0000
1010
0000
0000
0000
,
1000
0100
0010
0001
1000
0200
0300
0001
,
0100
0000
1000
0000
0010
0000
0100
0000
0100
0000
0010
0000
0000
0010
0000
0000
,
0010
0000
1000
0000
0000
1000
0000
0000
1000
0000
0001
0000
0100
0000
0000
0010
,
0000
0000
1000
0000
0100
0000
0020
0000
0000
0000
0031
0000
0000
0100
0000
0100
,
0000
0000
1000
0000
0000
0100
0000
0100
0000
0000
0001
0000
0000
0100
0000
0100
,
0000
0000
1000
0000
0100
0000
0001
0000
0001
0000
1000
0000
0000
0010
0000
0010
,
0000
0000
0001
0000
0000
0010
0000
0010
0000
0000
1000
0000
0000
0010
0000
0010
,
0000
0001
0010
1000
0001
0100
0010
1000
,
0001
1000
0001
1000
0000
2002
0000
0000
,
0000
0000
0000
0000
,
0000
0000
0000
3003
0000
0001
0000
0000
,
0000
0100
0000
0000
0000
1000
0000
0000
,
0000
0010
0000
0000
0000
0001
0000
0000
,
0000
1000
0000
0000
0000
0100
0000
0000
,
0000
0001
0000
0000
0000
0010
0000
0000
,
0000
1000
0000
0000
0000
0001
0000
0000
,
0000
0200
0000
0320
0000
1030
1000
0000
,
0001
0100
0000
0110
0000
1000
1000
0000
,
0001
0100
1000
0010
0000
0001
0001
0000
,
1000
0100
0000
0110
0000
0001
0001
0000
,
1000
0100
0001
0010
0000
1000
1000
0100
,
0010
0001
1000
0100
0000
0001
0001
0010
,
0100
1000
0001
0010
0000
1000
0001
0100
,
0010
0001
1000
0100
0010
1000
0000
1100
,
0000
0012
0000
0000
0000
0103
0100
0000
,
0010
1000
0001
1001
0000
1000
0100
0010
,
0100
1000
0100
0010
0000
0001
0010
0100
,
0010
0001
0010
0100
0000
1000
0010
1000
,
0100
1000
0010
1000
0000
0001
0010
0001
,
0100
0001
0010
0001
0000
0001
1000
0100
,
0010
0001
0100
0100
0000
0010
1000
0001
,
0010
0100
1000
1000
0000
0010
0100
0001
,
0100
0000
0110
0000
0000
0000
1001
0000
0000
0000
0010
0000
0000
1000
0000
0001
,
0000
0100
1000
0010
0100
0010
0000
0000
,
1000
0100
0010
0000
0001
0010
0100
0000
,
1000
0010
0100
0001
0100
0010
1000
0001
,
0010
0100
1000
0100
0001
0100
1000
0100
,
0010
0001
1000
0100
0010
0010
0001
0100
,
1000
0100
0001
0000
0100
0100
1000
0010
,
0001
0010
1000
0000
0010
0100
0001
1000
,
0100
0010
0001
0100
0010
1000
0001
0010
,
0200
0000
1300
1000
,
0010
0100
0001
1000
,
1100
0000
0000
0101
0000
0000
1100
0000
1000
0000
0000
0000
0001
0000
0000
0000
,
0100
0000
0010
0000
1000
0100
0010
0001
,
1000
0100
0010
0001
0100
0100
0110
0000
,
0010
1000
0100
0010
,
0011
0000
0000
1010
0000
0000
0011
0000
0001
0000
1000
0000
0100
0000
0000
0000
,
1000
0001
0100
0000
0001
1000
0100
0001
,
0100
0000
1000
0000
0010
0000
0100
0000
0010
0000
0000
1000
0000
1000
0000
0000
,
0010
0000
0000
0001
0000
0001
0000
0000
0010
0000
0000
1000
0000
1000
0000
0000
,
0010
0000
0001
0000
0010
0000
1000
0000
0100
0000
0000
0001
0000
0001
0000
0000
,
0100
0000
0000
1000
0000
1000
0000
0000
0100
0000
0000
0001
0000
0001
0000
0000
,
0100
1000
0010
0100
0001
2002
0000
0000
,
0000
0000
0000
0000
,
0000
0000
0000
0000
,
0000
0000
0000
0000
,
0000
0000
0000
0000
0000
3003
0000
0000
;

//---------------dance-double - ----------------
#NOTES:
     dance-double:
     :
     Easy:
     8:
     0.312289,0.380041,0.159136,0.083756,0.000000,261.000000,242.000000,19.000000,10.000000,0.000000,0.000000,0.312289,0.380041,0.159136,0.083756,0.000000,261.000000,242.000000,19.000000,10.000000,0.000000,0.000000:
00000000
00000000
00000000
00000000
,
00000000
00000000
00000000
00000000
,
00000000
00000000
00000000
00000000
,
00000000
00000000
00000000
00000000
,
00000000
00000000
00000000
00000000
,
00011000
00000000
00001000
00010000
,
00001000
00000000
00010000
00001000
,
00011000
00000000
00010000
00001000
,
00010000
00010000
00002000
00013000
,
00000000
01000000
00000000
10000000
,
00000000
00100000
00100000
00010000
,
00000000
00001000
00000000
00000010
,
00000000
00000001
00000001
00000100
,
00001000
00010000
01000000
00010000
,
00001000
00000100
00001000
00010000
,
00001000
00010000
00011000
00000000
,
00101000
00000000
00010010
00000000
00000000
00000000
00010000
00001000
,
00000000
00001000
00010000
00000000
00001000
00000000
00011000
00000000
,
00010000
00100000
10000000
01000000
,
00010000
00001000
00000010
00000000
,
00000001
00000100
00001000
00010000
,
00100000
10000000
02000000
03000000
,
10000000
00100000
00010000
00011000
,
00000000
00001000
00000000
00001000
00000000
00010000
00000000
00000100
,
00000000
00010000
00000000
00001000
00000000
00010000
00000000
00000010
,
00000000
00010000
00000000
00011000
00000000
00000100
00000000
00001000
,
00000000
00000100
00000000
00001000
00000000
00000100
00000000
00000010
,
00000000
00001000
00000000
00010000
00000000
00100000
00000000
10000000
,
00000000
00100000
00000000
10000000
00000000
00100000
00000000
10000000
,
00000000
00100000
00000000
00010000
00000000
00011000
00000000
00000000
,
00000000
00001000
00000000
00010000
00000000
00022000
00000000
00000000
,
00000000
00000000
00000000
00000000
,
00000000
00000000
00000000
00033000
00000000
00001000
00000000
00000000
,
00000000
00000100
00000000
00000000
00000000
00000010
00000000
00000000
,
00000000
00000001
00000000
00000000
00000000
00000010
00000000
00000000
,
00000000
00000100
00000000
00000000
00000000
00001000
00000000
00000000
,
00000000
00010000
00000000
00000000
00000000
00100000
00000000
00000000
,
00000000
01000000
00000000
00000000
00000000
10000000
00000000
00000000
,
00000000
01000000
00000000
00100000
00000000
00010000
00000000
00010000
,
00000000
00001000
00000000
00001000
00000000
00000010
00000000
00000010
,
00000000
00000001
00000000
00000001
00000000
00000100
00000000
00000100
,
00000000
00001000
00000000
00001000
00000000
00010000
00000000
00010000
,
00000000
00100000
00000000
10100000
00000000
10000000
01000000
00000000
,
01000000
10000000
00000000
00100000
00000000
00010000
00000000
00001000
,
00000000
00000010
00000000
00000001
00000000
00000100
00000000
00001000
,
00000000
00010000
00000000
00011000
00000000
00000000
00000000
01001000
,
00000000
00010100
00000000
00000000
00000000
00010000
00001000
00000000
,
00001000
00010000
00000000
00001000
00000000
00011000
00000000
00010000
,
00000000
00000100
00000000
00010000
00000000
00001000
00000000
00010000
,
00000000
00000010
00000000
00010000
00000000
00001000
00000000
00100000
,
00000000
00001000
00000000
00010000
00000000
00001000
00000000
01000000
,
00000000
00001000
00000000
00010000
00000000
00100000
00000000
10000000
,
00000000
01000000
00000000
00100000
00000000
00010000
00000000
00001000
,
00000000
00000010
00000000
00000100
00000000
00000001
00000000
00001000
,
00000000
00001001
00000000
00000110
00000000
00000100
00000000
00001000
,
00000000
00010000
00000000
00100000
00000000
10000000
00000000
00000000
,
01000000
00100000
01000000
00010000
,
00001000
00010000
00000010
00000100
,
00000010
00001000
00000100
00000010
,
00000001
00000100
00001000
00010000
,
00200000
10300000
00100000
00010000
,
00002000
00003010
00001000
00010000
,
00000100
00000010
00000001
00000100
,
00000220
00000330
00000010
00000000
,
00010000
00000000
00100000
00000000
,
10000000
01000000
00100000
00000000
,
00010000
00000000
00000010
00000000
,
00000001
00000100
00000010
00000000
,
00010000
00000000
00100000
00000000
,
10000000
01000000
00100000
00010000
,
00001000
00000100
00000010
00000001
,
00000200
00000320
00001030
00000100
,
00000001
00000100
00010000
00001000
,
00010000
00011000
00010000
01000000
,
10000000
01000000
00001000
00010000
,
00000010
00000000
00000001
00000000
00000100
00000100
00000000
00000000
;

//---------------dance-double - ----------------
#NOTES:
     dance-double:
     :
     Medium:
     12:
     0.480996,0.566868,0.209389,0.159136,0.146572,402.000000,377.000000,25.000000,19.000000,0.000000,0.000000,0.480996,0.566868,0.209389,0.159136,0.146572,402.000000,377.000000,25.000000,19.000000,0.000000,0.000000:
00000000
00000000
00000000
00000000
,
00000000
00000000
00000000
00000000
,
00000000
00000000
00000000
00000000
,
00000000
00000000
00000000
00000000
,
00000000
00000000
00000000
00000000
,
00022000
00000000
00000000
00000000
00033000
00000000
00000000
00000000
00001000
00000000
00000000
00001000
00000000
00000000
00001000
00000000
,
00000000
00000000
00010000
00000000
01000000
00000000
10000000
00000000
00100000
00000000
00000000
00010000
00000000
00000000
00001000
00000000
,
00022000
00000000
00000000
00000000
00033000
00000000
00000000
00000000
00010000
00000000
00000000
00010000
00000000
00000000
00010000
00000000
,
00000000
00011000
00000000
00000100
00000010
00000001
00000100
00000100
,
00000000
00000010
00001000
00000000
00011000
00000000
00100000
00100000
,
00000000
00010000
01000000
00100000
10000000
00000000
01000000
01000000
,
00000000
00100000
00010000
00000000
00011000
00000000
00000100
00000100
,
00000000
00001000
00000100
00000010
00000002
00000000
00000103
00000000
,
00001000
00010000
00100000
10000000
,
01000000
00000000
00010000
00000000
00001000
00000000
00000010
00000001
,
00000010
00000100
00000010
00001000
00000010
00000100
00000000
00000000
,
00010100
00000000
00201000
00000000
00000000
00000000
01300000
01000000
,
00000000
10000000
01000000
00100000
00001000
00010000
00011000
00000000
,
00001000
00010000
00100000
01000000
00010000
00100000
00100000
00000000
,
00001000
00010000
00100000
01000000
00010000
00000000
10010000
00000000
,
10000000
01000000
00100000
00010000
01000000
00001000
00001000
00000000
,
00100000
00000000
00010000
00000000
01000000
00000000
00000000
00001000
00000000
00000000
00010000
00000000
00010100
00000000
00000000
00000000
,
00000100
00000010
00000001
00001000
00000100
00000020
00000030
00000001
,
00000100
00000000
00001000
00000000
00010000
00000000
00100000
00000000
10000000
00000000
01000000
00000000
00000000
01000000
00000000
00000000
,
01000000
00000000
00100000
00000000
00000000
00100000
00000000
00000000
00100000
00000000
00001000
00000000
00010000
00000000
00000000
00010000
,
00000000
00000000
00010000
00000000
00001000
00000000
00000020
00000000
00000000
00000000
00000031
00000000
00000000
00000100
00000000
00000001
,
00000000
00000000
00001000
00000000
00000000
00000100
00000000
00010000
00000000
00000000
00001000
00000000
00000000
01000000
00000000
00010000
,
00000000
00000000
10000000
00000000
00100000
00000000
01100000
00000000
00000000
00000000
10000000
00000000
00000000
00100000
00000000
10000000
,
00000000
00000000
00010000
00000000
00000000
00100000
00000000
00001000
00000000
00000000
00010000
00000000
00000000
00000100
00000000
00001000
,
00000000
00000001
00000010
00000100
00000010
00000001
00000000
00000100
,
00000000
00001000
00000000
00010000
00000000
00022000
00000000
00000000
,
00000000
00000000
00000000
00000000
,
00000000
00000000
00000000
00033000
00000000
00010000
00000000
00000000
,
00000000
00001000
00000000
00000000
00000000
00000100
00000000
00000000
,
00000000
00010000
00000000
00000000
00000000
01000000
00000000
00000000
,
00000000
00001000
00000000
00000000
00000000
00010000
00000000
00000000
,
00000000
00100000
00000000
00000000
00000000
00001000
00000000
00000000
,
00000000
00000010
00000000
00000000
00000000
00010000
00000000
00000000
,
00000000
00002000
00000000
00023000
00000000
00130000
00100000
00000000
,
01000000
00010000
00000000
00011000
00000000
00000100
00000100
00000000
,
00001000
00000010
00000100
00000001
00000000
00000010
00000010
00000000
,
00000100
00001000
00000000
00011000
00000000
00100000
00100000
00000000
,
00010000
00100000
01000000
20000000
00000000
30100000
00000000
00010000
,
00000000
00001000
00000000
00000100
00000000
00000001
00000000
00000010
,
00000000
00001000
00000000
00010000
00000000
01000000
10000000
01000000
,
00100000
01000000
00010000
01000000
00100000
00000000
00000000
00101000
,
00000000
00010200
00000000
00000000
00000000
00000310
00000010
00000000
,
00000001
00000010
00000100
00020000
00000000
00031000
00100000
01000000
,
00000000
10000000
00100000
01000000
00000000
10000000
01000000
00100000
,
00000000
00010000
00001000
00000100
00000000
00001000
00010000
00000010
,
00000000
00001000
00000100
00000010
00000000
00000001
00000100
00001000
,
00000000
00000100
00001000
00010000
00000000
00001000
00100000
01000000
,
00000000
10000000
00100000
00010000
00000000
00100000
01000000
00010000
,
00000000
00100000
01000000
00010000
00001000
00000010
00000100
00001000
,
00000001
00000000
00000100
00000000
00000000
00000000
00000110
00000000
00000000
00000000
00000010
00000000
00000000
00010000
00000000
00001000
,
00000000
01000000
00010000
00100000
01000000
10000000
00000000
00000000
,
10000000
00100000
00010000
00000000
00100000
01000000
00010000
00000000
,
00100000
01000000
10000000
00000000
00100000
00010000
00001000
00000000
,
00000010
00000001
00000100
00000000
00001000
00000100
00000001
00000010
,
00000100
00010000
00001000
00100000
01000000
01000000
10000000
00100000
,
00010000
00001000
00000100
00000000
00000100
00000100
00000001
00000010
,
00001000
00010000
00100000
00000000
00100000
10000000
01000000
00100000
,
00010000
01000000
00001000
00010000
00000100
00000010
00000001
00001000
,
00000020
00000000
00000130
00000100
,
00000001
00000010
00001000
00010000
,
00011000
00000000
00000000
01010000
00000000
00000000
11000000
00000000
10000000
00000000
00000000
00000000
00100000
00000000
00000000
00000000
,
00010000
00000000
00001000
00000000
00100000
01000000
00010000
00001000
,
00100000
01000000
00010000
00001000
00000020
00000000
00000031
00000000
,
00000001
00000100
00001000
00010000
,
00011000
00000000
00000000
00001010
00000000
00000000
00000011
00000000
00000001
00000000
00000100
00000000
00001000
00000000
00000000
00000000
,
00010000
00100000
10000000
00000000
01000000
00100000
00010000
01000000
,
00100000
00000000
00010000
00000000
00001000
00000000
00000100
00000000
00000010
00000000
00000000
00001000
00000000
00000010
00000000
00000000
,
00010000
00000000
00000000
00001000
00000000
00010000
00000000
00000000
01000000
00000000
00000000
10000000
00000000
01000000
00000000
00000000
,
00100000
00000000
00010000
00000000
01010000
00000000
00000000
00000000
01000000
00000000
00000000
00010000
00000000
01000000
00000000
00000000
,
00001000
00000000
00000000
00010000
00000000
00001000
00000000
00000000
00000100
00000000
00000000
00000001
00000000
00000100
00000000
00000000
,
00000010
00001000
00000100
00000010
00000001
00002002
00000000
00000000
,
00000000
00000000
00000000
00000000
,
00000000
00000000
00000000
00000000
,
00000000
00000000
00000000
00000000
,
00000000
00000000
00000000
00000000
00000000
00003003
00000000
00000000
;
