#VERSION:0.83;
#TITLE:Dutch Courage!;
#SUBTITLE:;
#ARTIST:梅干茶漬け;
#TITLETRANSLIT:;
#SUBTITLETRANSLIT:;
#ARTISTTRANSLIT:Umeboshi Chazuke;
#GENRE:WORLD MUSIC;
#ORIGIN:;
#CREDIT:MUINELIM;
#BANNER:Dutch Courage!.png;
#BACKGROUND:Dutch Courage!-bg.png;
#PREVIEWVID:;
#JACKET:Dutch Courage!-jacket.png;
#CDIMAGE:;
#DISCIMAGE:;
#LYRICSPATH:;
#CDTITLE:;
#MUSIC:Dutch Courage!.mp3;
#OFFSET:0.000000;
#SAMPLESTART:20.454546;
#SAMPLELENGTH:12.121214;
#SELECTABLE:YES;
#BPMS:0.000=198.000,
237.000=130.000,
301.000=198.000;
#STOPS:;
#DELAYS:;
#WARPS:;
#TIMESIGNATURES:0.000=4=4;
#TICKCOUNTS:0.000=4;
#COMBOS:0.000=1;
#SPEEDS:0.000=1.000=0.000=0;
#SCROLLS:0.000=1.000;
#FAKES:;
#LABELS:0.000=Song Start;
#BGCHANGES:;
#KEYSOUNDS:;
#ATTACKS:
;

//---------------dance-single - ----------------
#NOTEDATA:;
#CHARTNAME:;
#STEPSTYPE:dance-single;
#DESCRIPTION:;
#CHARTSTYLE:;
#DIFFICULTY:Hard;
#METER:14;
#RADARVALUES:0.698515,0.975196,0.392331,0.094450,0.138042,673.000000,619.000000,54.000000,13.000000,0.000000,0.000000,0.000000,0.000000,0.000000,0.698515,0.975196,0.392331,0.094450,0.138042,673.000000,619.000000,54.000000,13.000000,0.000000,0.000000,0.000000,0.000000,0.000000;
#CREDIT:MILEN;
#NOTES:
0000
0000
0000
0000
,
0000
0000
0000
0000
,
0000
0000
0000
0000
,
0000
0000
0000
0000
,
0000
1000
0000
1000
,
0000
0010
0000
0010
,
0000
0001
0000
0001
,
0000
0100
0000
0100
,
1000
1000
0001
0100
0001
0000
1000
0100
,
1000
0000
0001
0100
0001
1000
0100
0000
,
0100
0000
1000
0010
1000
0000
0001
0010
,
0001
0000
1000
0010
1000
0001
0010
0000
,
0010
0000
0001
0100
0010
0000
1000
0010
,
0100
0000
0001
0010
0100
1000
0001
0000
,
0001
0000
1000
0100
0010
0000
0001
0010
,
0100
0000
1000
0010
0100
0001
0100
0010
,
1000
0001
0100
0000
0100
0000
0100
0010
,
1001
0001
0100
0000
1000
0000
0100
0001
,
0000
1000
0000
0010
0001
0010
0000
1000
,
0100
0010
0100
0000
0001
0000
1000
0010
,
0000
0001
0000
0010
1000
0010
0000
0001
,
0100
0010
1000
0000
0100
0001
0000
0100
,
0000
0010
0000
0001
0100
1000
0100
0010
,
0100
0001
1000
0000
0100
0000
0010
0001
,
0000
0110
0000
1000
0010
0100
1000
0100
,
0001
0010
0100
0000
1000
0000
0010
0001
,
0000
0010
0000
0100
0001
0100
0000
0010
,
1000
0001
1000
0000
0010
0000
0100
1000
,
0000
0001
0000
0010
0100
0001
0000
1000
,
0100
0010
0100
0000
1000
0010
0000
0001
,
0000
0100
0000
1000
0010
0100
0110
0000
,
0101
0000
0000
0000
1010
0000
0000
1000
0000
0000
0001
0000
0000
0000
0011
0000
,
0000
1100
0000
1000
0010
0100
0001
1000
,
0100
0010
0110
0000
1000
0000
1001
0000
,
0010
0000
0000
0000
0100
0000
0010
0000
0001
0000
0100
0000
0010
1000
0010
1000
,
0020
0000
0130
0001
0010
0001
0100
0010
,
0010
1000
0100
0010
0010
0001
0100
0010
,
1000
0010
0100
0001
0001
0010
0100
0100
,
0010
1000
1000
0010
0001
1000
2002
0000
,
3003
0000
0000
0000
0001
0100
0001
0000
0010
0000
0000
0000
0100
0000
0010
0000
,
1000
0000
0010
0001
0100
1000
0100
0010
,
1000
0000
0000
0000
0100
1000
0100
0000
0010
0000
0000
0000
0001
0000
0100
0000
,
1000
0000
0100
0001
0010
0100
0010
0001
,
1001
1000
0010
0100
1000
1000
0100
0001
,
0100
0010
0010
1000
0100
0010
0010
0001
,
0100
0000
0010
1000
0010
0000
0100
0000
0000
0000
0001
0000
0010
0000
1000
0000
,
0000
0001
0100
1000
0000
0010
0100
0001
,
1000
0000
0100
0000
0110
0000
0000
0000
1001
0000
0000
0000
0001
0100
0001
0000
,
0010
0000
0000
0100
1000
0000
0000
0001
0010
0000
0000
0000
1000
0000
0100
0000
,
0010
0001
0100
1000
0100
0001
0010
1000
,
0010
0001
0101
0000
1100
1000
0000
0110
,
0010
1000
0001
0001
0101
0000
1000
1000
,
1100
0000
0001
0001
0010
0100
0001
0100
,
1000
0010
0100
0100
0101
0000
0010
0010
,
1010
0000
0001
0001
0010
0100
0001
0100
,
1000
0000
0001
0000
0010
0000
0000
0001
0000
0000
0010
0000
0100
0000
0000
1000
,
0000
0000
0100
0000
1000
0000
0000
0010
0000
0000
1000
0000
0001
0000
0000
0100
,
0000
0001
0010
1000
0010
0100
0001
0100
,
1000
0010
0110
0000
0101
0000
1010
0000
,
1001
0000
0000
0000
0110
0000
0010
0100
0010
0000
1000
0000
0100
0000
0010
0000
,
0001
0000
0000
0000
0100
0000
0010
1000
0010
0000
0100
0000
0001
0000
0010
0000
,
0100
0000
0000
0000
1000
0000
0001
0010
0001
0000
0100
0000
0010
0000
1000
0000
,
0001
0000
0000
0000
0010
0000
0100
1000
0100
0000
0010
0000
0001
0000
0101
0000
,
1000
0000
1100
0000
0010
0000
0000
0010
0100
0000
0001
0000
1000
0010
1000
0000
,
0100
0000
0000
0000
0010
0000
0000
0010
0001
0000
0100
0000
0010
1000
0010
0000
,
0100
0000
0000
0000
0001
0000
0000
0001
0010
0000
0100
0000
1000
0001
1000
0000
,
0010
0000
0000
0000
0100
0000
0000
0100
0001
0000
1000
0000
0100
0010
0100
0000
,
0020
0000
0000
0000
0031
0000
0001
0010
0100
0000
1000
0000
0010
0000
0100
0000
,
1000
0000
0100
0000
0001
0000
0010
0100
1000
0000
0010
0000
0001
0000
0010
0000
,
0200
0000
0302
0000
2003
0000
0000
3010
0100
0000
0001
0000
0010
0000
1000
0000
,
0001
0000
0100
0000
1000
0000
0010
0100
0001
0000
0100
0000
0010
0000
1000
0000
,
0100
0000
0010
0000
0011
0000
0001
0100
0010
0000
1000
0000
0100
0000
0001
0000
,
0100
0000
1000
0000
1010
0000
0010
0100
0001
0000
0010
0000
1000
0000
0010
0000
,
0001
0000
0100
0000
0110
0000
0010
1000
0100
0000
0010
0000
0110
0000
0100
1000
,
0010
0100
0101
0001
0011
0100
1100
1000
,
1010
0001
2002
0000
0000
0000
0000
0000
,
0003
0000
0001
0000
0001
0000
3001
0001
,
0100
1000
0110
0000
0100
0000
0001
0010
,
0000
1000
0000
0010
0100
1000
0000
0001
,
0010
0100
0001
0000
0100
0000
1000
0010
,
0000
0001
0000
0010
0100
1000
0000
0001
,
0010
0100
0001
0000
1000
0100
0000
0001
,
0000
0010
0000
1000
0001
0010
0100
0001
,
0100
1000
0010
0000
0101
0000
1000
0100
,
0000
1001
0000
0010
0001
0100
1000
0001
,
0010
0000
0100
0000
0110
0000
0000
0010
0000
0000
1000
0000
1001
0000
0000
0000
,
0001
0010
0000
0001
0100
1000
0100
0010
,
0100
0000
0001
0000
0011
0000
0000
0000
1100
0000
0000
0000
1001
0000
0000
0001
,
0000
0000
0200
0000
0000
0000
0310
1000
0010
0000
1000
0000
0100
0000
0000
0000
,
0001
0100
1100
1000
0010
0100
0001
1000
,
0100
0010
0011
0100
0010
1000
1001
0000
,
0110
0000
1010
1000
0100
0001
0100
0010
,
1000
0010
0001
0100
1000
0100
0010
0001
,
0010
0100
0101
0000
0011
0000
1100
0000
,
1010
0000
0000
0000
0010
0000
0100
0000
0001
0000
1000
0000
0100
0010
0100
0010
,
0200
0000
1300
0010
0001
0000
1000
0100
,
0001
0000
1000
0010
0001
0100
1000
0000
,
0010
0000
0001
0010
1000
0000
0001
0100
,
1000
0000
0001
0010
1000
0100
0001
0000
,
0010
2002
0000
0000
,
0000
0000
0000
0000
,
0000
0000
0000
0000
,
0000
0000
0000
0000
,
0000
3003
0000
0000
;

//---------------dance-double - ----------------
#NOTEDATA:;
#CHARTNAME:;
#STEPSTYPE:dance-double;
#DESCRIPTION:;
#CHARTSTYLE:;
#DIFFICULTY:Hard;
#METER:14;
#RADARVALUES:0.691249,0.825166,0.370534,0.087185,0.130777,666.000000,615.000000,51.000000,12.000000,0.000000,0.000000,0.000000,0.000000,0.000000,0.691249,0.825166,0.370534,0.087185,0.130777,666.000000,615.000000,51.000000,12.000000,0.000000,0.000000,0.000000,0.000000,0.000000;
#CREDIT:MILEN;
#NOTES:
00000000
00000000
00000000
00000000
,
00000000
00000000
00000000
00000000
,
00000000
00000000
00000000
00000000
,
00000000
00000000
00000000
00000000
,
00000000
01000000
00000000
01000000
,
00000000
00010000
00000000
00010000
,
00000000
00001000
00000000
00001000
,
00000000
00000010
00000000
00000010
,
00000001
00000001
00001000
00000010
00001000
00000000
00000001
00000010
,
00000001
00000000
00001000
00000010
00010000
00001000
00100000
00000000
,
00100000
00000000
00010000
01000000
00010000
00000000
10000000
01000000
,
10000000
00000000
00010000
01000000
00001000
00010000
00000100
00000000
,
00000100
00000000
00000010
00000001
00000100
00000000
00000010
00001000
,
00000100
00000000
00000010
00000001
00000100
00001000
00010000
00000000
,
00010000
00000000
00100000
10000000
01000000
00000000
00100000
00010000
,
01000000
00000000
00100000
10000000
01000000
00010000
00001000
00010000
,
00001000
00000010
00000001
00000000
00000001
00000000
00000001
00000100
,
00000110
00000010
00001000
00000000
00000100
00000000
00010000
00001000
,
00000000
00100000
00000000
01000000
10000000
00100000
00000000
01000000
,
00010000
00100000
01000000
00000000
00010000
00000000
00001000
00000010
,
00000000
00000001
00000000
00001000
00000100
00000010
00000000
00000001
,
00000100
00001000
00010000
00000000
00100000
01000000
00000000
00100000
,
00000000
10000000
00000000
01000000
00010000
00001000
00010000
01000000
,
00010000
00001000
00000100
00000000
00000001
00000000
00000010
00000100
,
00000000
00001001
00000000
00001000
00000100
00000010
00000001
00001000
,
00000010
00000100
00000001
00000000
00000010
00000000
00001000
00010000
,
00000000
00100000
00000000
10000000
01000000
00100000
00000000
01000000
,
00010000
00001000
00100000
00000000
01000000
00000000
00010000
00001000
,
00000000
00000010
00000000
00000001
00000010
00000100
00000000
00010000
,
00001000
00100000
01000000
00000000
10000000
00100000
00000000
00010000
,
00000000
00001000
00000000
00000100
00000001
00001000
00001001
00000000
,
00000101
00000000
00000000
00000000
00001100
00000000
00000000
00001000
00000000
00000000
00000010
00000000
00000000
00000000
00000110
00000000
,
00000000
00000101
00000000
00000001
00000010
00000100
00010000
00001000
,
00100000
01000000
11000000
00000000
00100000
00000000
00110000
00000000
,
00001000
00000000
00000000
00000000
00010000
00000000
00001000
00000000
00000100
00000000
00000001
00000000
00000010
00000100
00000010
00000000
,
00000200
00000000
00001300
00000010
00010000
00001000
00100000
00010000
,
00010000
01000000
00100000
10000000
10000000
00010000
00100000
01000000
,
10000000
00100000
00010000
00001000
00001000
00000100
00000001
00000001
,
00000010
00001000
00001000
00010000
00100000
10000000
20020000
00000000
,
30030000
00000000
00000000
00000000
00010000
01000000
00010000
00000000
00100000
00000000
00000000
00000000
01000000
00000000
10000000
00000000
,
00100000
00000000
00010000
00001000
00100000
01000000
00010000
00001000
,
00000010
00000000
00000000
00000000
00000100
00001000
00000100
00000000
00000001
00000000
00000000
00000000
00000100
00000000
00000010
00000000
,
00000001
00000000
00000100
00001000
00010000
00001000
00000100
00001000
,
00011000
00010000
00100000
01000000
00100000
00100000
10000000
01000000
,
00010000
00001000
00001000
00100000
00010000
01000000
01000000
00001000
,
00010000
00000000
00000100
00001000
00000100
00000000
00000010
00000000
00000000
00000000
00000001
00000000
00000100
00000000
00001000
00000000
,
00000000
00010000
00100000
10000000
00000000
01000000
00010000
00001000
,
00010000
00000000
00001000
00000000
00000100
00000000
00000000
00000000
00000110
00000000
00000000
00000000
00000010
00001000
00000010
00000000
,
00000100
00000000
00000000
00000001
00000010
00000000
00000000
00000100
00001000
00000000
00000000
00000000
00010000
00000000
01000000
00000000
,
00100000
10000000
01000000
00010000
01000000
10000000
00100000
00010000
,
00001000
00100000
00101000
00000000
00001000
00010000
00000000
00010010
,
00000010
00001000
00000100
00000010
00000011
00000000
00000010
00000100
,
00001100
00000000
00000100
00000010
00000001
00000100
00001000
00010000
,
00100000
10000000
01000000
00100000
00110000
00000000
00100000
01000000
,
11000000
00000000
10000000
00100000
00010000
00001000
00000100
00000001
,
00000010
00000000
00000100
00000000
00001000
00000000
00000000
00000010
00000000
00000000
00010000
00000000
00001000
00000000
00000000
00100000
,
00000000
00000000
00010000
00000000
01000000
00000000
00000000
00001000
00000000
00000000
00010000
00000000
00000100
00000000
00000000
00001000
,
00000000
00000010
00010000
00001000
00100000
01000000
10000000
00100000
,
00010000
00001000
00101000
00000000
00010010
00000000
01001000
00000000
,
00010100
00000000
00000000
00000000
00011000
00000000
00001000
00010000
00001000
00000000
00100000
00000000
00010000
00000000
01000000
00000000
,
10000000
00000000
00000000
00000000
01000000
00000000
00100000
01000000
00100000
00000000
00010000
00000000
00001000
00000000
00000100
00000000
,
00000010
00000000
00000000
00000000
00001000
00000000
00000100
00000001
00000100
00000000
00000010
00000000
00000001
00000000
00000100
00000000
,
00001000
00000000
00000000
00000000
00010000
00000000
00100000
01000000
00100000
00000000
10000000
00000000
01000000
00000000
00010000
00000000
,
00001000
00000000
00011000
00000000
00000010
00000000
00000000
00000010
00000100
00000000
00000001
00000000
00000010
00000100
00000010
00000000
,
00001000
00000000
00000000
00000000
00010000
00000000
00000000
00010000
00001000
00000000
00100000
00000000
01000000
10000000
01000000
00000000
,
00010000
00000000
00000000
00000000
00001000
00000000
00000000
00001000
00100000
00000000
01000000
00000000
00010000
00001000
00010000
00000000
,
00000100
00000000
00000000
00000000
00000010
00000000
00000000
00000010
00000001
00000000
00000100
00000000
00001000
00010000
00001000
00000000
,
00020000
00000000
00000000
00000000
00130000
00000000
00100000
10000000
00100000
00000000
10000000
00000000
01000000
00000000
00100000
00000000
,
00010000
00000000
01000000
00000000
00100000
00000000
00010000
00001000
00010000
00000000
00001000
00000000
00000100
00000000
00000010
00000000
,
00002000
00000000
00000001
00000000
00003002
00000000
00000000
00001003
00000100
00000000
00000010
00000000
00000001
00000000
00000100
00000000
,
00001000
00000000
00010000
00000000
00100000
00000000
10000000
01000000
10000000
00000000
00100000
00000000
00010000
00000000
00001000
00000000
,
00000100
00000000
00000010
00000000
00000110
00000000
00001000
00000001
00001000
00000000
00000001
00000000
00000100
00000000
00001000
00000000
,
00010000
00000000
00100000
00000000
01100000
00000000
00010000
10000000
00010000
00000000
10000000
00000000
01000000
00000000
00010000
00000000
,
00001000
00000000
00000100
00000000
00000110
00000000
00000001
00000010
00001000
00000000
00000000
00000000
00011000
00000000
00001000
00010000
,
01000000
11000000
00101000
00010010
,
00000101
00002002
00000000
00000000
,
00003000
00000000
00001000
00000000
00001000
00000000
00001003
00001000
,
00000100
00000010
00000011
00000000
00001000
00000000
00010000
00100000
,
00000000
10000000
00000000
01000000
00010000
00001000
00000000
00010000
,
00001000
00000100
00000010
00000000
00001000
00000000
00000001
00000100
,
00000000
00001000
00000000
00010000
00100000
10000000
00000000
01000000
,
00100000
00010000
01000000
00000000
10000000
01000000
00000000
00100000
,
00000000
00010000
00000000
00001000
00000010
00000001
00001000
00000100
,
00000010
00000001
00000100
00000000
00001100
00000000
00010000
00001000
,
00000000
01010000
00000000
10000000
01000000
00100000
00010000
01000000
,
00001000
00000000
00010000
00000000
00011000
00000000
00000000
00000100
00000000
00000000
00001000
00000000
00001001
00000000
00000000
00000000
,
00000001
00000010
00000000
00001000
00010000
01000000
00010000
00001000
,
00010000
00000000
01000000
00000000
11000000
00000000
00000000
00000000
00110000
00000000
00000000
00000000
01001000
00000000
00000000
00001000
,
00000000
00000000
00020000
00000000
00000000
00000000
00030100
00001000
00000100
00000000
00000010
00000000
00000001
00000000
00000000
00000000
,
00000100
00001000
00011000
00010000
00001000
00000100
00000001
00000010
,
00001000
00010000
00011000
00100000
00010000
10000000
10010000
00000000
,
01100000
00000000
10100000
10000000
01000000
00010000
00001000
00100000
,
00001000
00010000
00000010
00010000
00001000
00000100
00000001
00000010
,
00000100
00001000
00001010
00000000
00010100
00000000
01001000
00000000
,
00110000
00000000
00000000
00000000
00010000
00000000
00100000
00000000
01000000
00000000
10000000
00000000
00100000
01000000
00100000
00000000
,
02000000
00000000
13000000
01000000
00010000
00000000
10000000
00100000
,
00010000
00000000
10000000
01000000
00010000
00100000
01000000
00010000
,
00001000
00000010
00000001
00000100
00001000
00000000
00000001
00000010
,
00001000
00000000
00000001
00000100
00001000
00000001
00000010
00000100
,
00001000
00010000
00022000
00000000
00000000
00000000
00000000
00000000
,
00000000
00000000
00000000
00000000
,
00000000
00000000
00000000
00000000
,
00000000
00000000
00000000
00000000
,
00000000
00033000
00000000
00000000
;

//---------------dance-single - ----------------
#NOTEDATA:;
#CHARTNAME:;
#STEPSTYPE:dance-single;
#DESCRIPTION:;
#CHARTSTYLE:;
#DIFFICULTY:Beginner;
#METER:3;
#RADARVALUES:0.125587,0.216327,0.058123,0.007265,0.000000,121.000000,113.000000,8.000000,1.000000,0.000000,0.000000,0.000000,0.000000,0.000000,0.125587,0.216327,0.058123,0.007265,0.000000,121.000000,113.000000,8.000000,1.000000,0.000000,0.000000,0.000000,0.000000,0.000000;
#CREDIT:MILEN;
#NOTES:
0000
0000
0000
0000
,
0000
0000
0000
0000
,
0000
0000
0000
0000
,
0000
0000
0000
0000
,
0000
1000
0000
0000
,
0000
1000
0000
0000
,
0000
0001
0000
0000
,
0000
0001
0000
0000
,
0000
1000
0000
0000
,
0000
0100
0000
0000
,
0000
0010
0000
0000
,
0000
0001
0000
0000
,
0000
0001
0000
0000
,
0000
0010
0000
0000
,
0000
0100
0000
0000
,
0000
1000
0000
0000
,
0000
1001
0000
0000
,
0000
0100
0000
0000
,
0000
0100
0000
0000
,
0000
0010
0000
0000
,
0000
0010
0000
0000
,
0000
1000
0000
0000
,
0000
1000
0000
0000
,
0000
0001
0000
0000
,
0000
0001
0000
0000
,
0000
0100
0000
0000
,
0000
0100
0000
0000
,
0000
0010
0000
0000
,
0000
0010
0000
0000
,
0000
1000
0000
0000
,
0000
1000
0000
0000
,
0000
0001
0000
0000
,
0000
0001
0000
0000
,
0000
1001
0000
0000
,
0000
0000
0000
0000
,
0000
0001
0000
0000
,
0000
0100
0000
0000
,
0000
0010
0000
0000
,
0000
1000
0000
0000
,
0000
1000
0000
0000
,
0000
0010
0000
0000
,
0000
0100
0000
0000
,
0000
0001
0000
0000
,
0000
1000
0000
0000
,
0000
0010
0000
0000
,
0000
0100
0000
0000
,
0000
0001
0000
0000
,
0000
0001
0000
0000
,
0000
0100
0000
0000
,
0000
0010
0000
0000
,
0000
1000
0000
0000
,
0000
1001
0000
0000
,
0000
0000
0000
0000
,
0000
1001
0000
0000
,
0000
0000
0000
0000
,
0000
1001
0000
0000
,
0000
1001
0000
0000
,
0000
1000
0000
0001
,
0000
0100
0000
0010
,
0000
1000
1000
0000
,
0000
0100
0100
0000
,
0000
0001
0001
0000
,
0000
0010
0010
0000
,
0000
1000
0000
0001
,
0000
1000
0000
0001
,
0000
0010
0000
0100
,
0000
0010
0000
0100
,
0100
0100
0000
0000
,
0000
1000
0000
0000
,
0000
0010
0000
0000
,
0000
0001
0000
0000
,
0000
0100
0000
0000
,
0000
1000
0000
0000
,
0000
0010
0000
0001
,
0000
0100
0000
0100
,
0100
0200
0000
0000
,
0000
0000
0000
0300
,
0000
0100
0000
0000
,
0000
1000
0000
0000
,
0000
0001
0000
0000
,
0000
0010
0000
0000
,
0000
0100
0000
0000
,
0000
1000
0000
0000
,
0000
0001
0000
0000
,
0000
0010
0000
0010
,
0010
0010
0000
0000
,
0000
0001
0000
0000
,
0000
0100
0000
0000
,
0000
1000
0000
0000
,
0000
0010
0000
0010
,
0000
0001
0000
0001
,
0000
0100
0000
0100
,
0000
1000
0000
0010
,
0000
0001
0000
1000
,
0000
1001
0000
0000
,
0000
0001
0000
0000
,
0000
0100
0000
0000
,
0000
0010
0000
0000
,
0000
1000
0000
0000
,
0000
1001
0000
0000
;

//---------------dance-single - ----------------
#NOTEDATA:;
#CHARTNAME:;
#STEPSTYPE:dance-single;
#DESCRIPTION:;
#CHARTSTYLE:;
#DIFFICULTY:Easy;
#METER:8;
#RADARVALUES:0.339397,0.600121,0.196165,0.029062,0.000000,327.000000,300.000000,27.000000,4.000000,0.000000,0.000000,0.000000,0.000000,0.000000,0.339397,0.600121,0.196165,0.029062,0.000000,327.000000,300.000000,27.000000,4.000000,0.000000,0.000000,0.000000,0.000000,0.000000;
#CREDIT:MILEN;
#NOTES:
0000
0000
0000
0000
,
0000
0000
0000
0000
,
0000
0000
0000
0000
,
0000
0000
0000
0000
,
0000
1000
0000
1000
,
0000
1000
0000
1000
,
0000
0001
0000
0001
,
0000
0001
0000
0001
,
0000
0010
0001
0010
,
0000
0100
1000
0100
,
0000
0010
0001
0010
,
0000
0100
1000
0100
,
0000
1000
0010
1000
,
0000
0001
0100
0001
,
0000
1000
0010
1000
,
0000
0001
0100
0001
,
0000
1001
0000
0000
,
1000
0001
0000
1000
,
0000
0100
0010
0001
,
0000
1000
0000
0001
,
0000
0010
0100
1000
,
0000
0001
0000
1000
,
0000
0010
0000
0100
,
0000
0001
1000
0001
,
1000
0010
0100
0010
,
0010
1000
0000
0001
,
0000
1000
0010
0100
,
0000
0001
0000
1000
,
0000
0001
0100
0010
,
0000
1000
0000
1000
,
0000
0001
0000
0001
,
0000
1000
0010
0100
,
0001
0100
0010
1000
,
0010
0100
0000
0100
,
0000
0100
0100
0100
,
0110
1000
0000
0001
,
0000
1000
0010
0001
,
0000
1000
0000
0001
,
0000
1000
0100
0001
,
0000
0001
0000
1000
,
0000
0001
0010
1000
,
0000
0001
0000
1000
,
0000
0001
0100
1000
,
0000
0001
0001
0100
,
0000
1000
1000
0010
,
0000
0001
0001
0100
,
0000
1000
1000
0010
,
0000
0001
0001
0010
,
0000
1000
1000
0100
,
0000
0001
0001
0010
,
0010
1000
1000
0100
,
0100
0001
0000
1000
,
0000
0001
0000
1001
,
1001
0010
0000
0100
,
0000
0010
0000
0110
,
0110
1000
0000
0010
,
0000
0001
0000
0100
,
0000
1000
1000
0010
,
0010
0001
0100
1000
,
0010
0110
1000
0100
,
0100
0110
0001
0100
,
0100
0110
1000
0010
,
0010
0110
0001
0010
,
0010
0000
0001
0100
0001
0000
1000
0000
,
0001
0000
1000
0010
1000
0000
0001
0000
,
1000
0000
0001
0010
0001
0000
1000
0100
,
1000
0001
1000
0010
,
0110
0000
1000
0000
1000
0000
0100
0010
,
0001
0000
1000
0000
1000
0000
0010
0100
,
0001
0000
0001
0000
0001
0000
0010
0100
,
1000
0000
0001
0000
0001
0000
0100
0010
,
1000
0000
1001
0000
0000
0000
0010
0100
,
0010
0000
1001
0000
0000
0000
0100
0010
,
0100
1001
0010
1001
,
0100
1001
1010
0011
,
1100
0102
0000
0000
,
0000
2000
0000
3003
,
1000
0001
0100
1000
,
0000
0001
0100
1000
,
0000
1000
0010
0001
,
0000
1000
0010
0001
,
0000
1000
0100
0010
,
0000
0001
0010
0100
,
0000
1000
0100
0010
,
0001
0010
0100
1000
,
0010
0100
0001
0100
,
0010
0100
0001
0100
,
0100
0010
1000
0010
,
0100
0010
1000
0010
,
0010
0100
0001
1000
,
0010
0100
0001
1001
,
1001
0010
0001
0100
,
0100
1000
0010
0010
,
0001
1000
0000
0001
,
0000
1001
1001
0110
,
1001
0100
0000
0100
,
0000
0010
0000
0010
,
0000
1000
0000
1000
,
0000
0001
0000
0001
,
0000
2002
0000
0000
,
0000
0000
0000
0000
,
0000
0000
0000
0000
,
0000
0000
0000
0000
,
0000
3003
0000
0000
;

//---------------dance-double - ----------------
#NOTEDATA:;
#CHARTNAME:;
#STEPSTYPE:dance-double;
#DESCRIPTION:;
#CHARTSTYLE:;
#DIFFICULTY:Easy;
#METER:8;
#RADARVALUES:0.332132,0.600121,0.181635,0.029062,0.000000,320.000000,295.000000,25.000000,4.000000,0.000000,0.000000,0.000000,0.000000,0.000000,0.332132,0.600121,0.181635,0.029062,0.000000,320.000000,295.000000,25.000000,4.000000,0.000000,0.000000,0.000000,0.000000,0.000000;
#CREDIT:MILEN;
#NOTES:
00000000
00000000
00000000
00000000
,
00000000
00000000
00000000
00000000
,
00000000
00000000
00000000
00000000
,
00000000
00000000
00000000
00000000
,
00000000
00010000
00000000
00010000
,
00000000
00010000
00000000
00010000
,
00000000
00001000
00000000
00001000
,
00000000
00001000
00000000
00001000
,
00000000
01000000
00010000
01000000
,
00000000
00001000
00010000
00001000
,
00000000
00100000
00010000
00100000
,
00000000
00001000
00010000
00001000
,
00000000
00010000
00001000
00010000
,
00000000
00000100
00001000
00000100
,
00000000
00010000
00001000
00010000
,
00000000
00000010
00001000
00000010
,
00000000
00000110
00000000
00000000
,
00000001
00000001
00000000
00000100
,
00000000
00001000
00010000
00001000
,
00000000
00000100
00000000
00000001
,
00000000
00000010
00000100
00000010
,
00000000
00000001
00000000
00000100
,
00000000
00001000
00000000
00010000
,
00000000
00100000
10000000
00100000
,
10000000
00010000
01000000
00010000
,
00000000
10000000
00000000
01000000
,
00000000
00010000
00001000
00010000
,
00000000
01000000
00000000
10000000
,
00000000
00100000
01000000
00100000
,
00000000
10000000
00000000
01000000
,
00000000
00010000
00000000
00001000
,
00000000
00000010
00000001
00000010
,
00000001
00001000
00000100
00001000
,
00000000
00000001
00000000
00001000
,
00000000
00000001
00001000
00000001
,
00001001
00000010
00000000
00001000
,
00000000
00010000
00100000
00010000
,
00000000
00001000
00000000
00000010
,
00000000
00000001
00001000
00000001
,
00000000
00000100
00000000
00001000
,
00000000
00010000
01000000
00010000
,
00000000
00001000
00000000
00000100
,
00000000
00000001
00001000
00000001
,
00000000
00000010
00000010
00001000
,
00000000
00001000
00001000
00010000
,
00000000
00010000
00010000
00100000
,
00000000
00100000
00100000
10000000
,
00000000
10000000
10000000
01000000
,
00000000
01000000
01000000
00010000
,
00000000
00010000
00010000
00001000
,
00001000
00010000
00001000
00010000
,
00001000
00000010
00000000
00000001
,
00000000
00000100
00000000
00001000
,
00011000
01000000
00000000
10000000
,
00000000
00100000
00000000
00010000
,
00011000
00000010
00000000
00000001
,
00000000
00000100
00000000
00001000
,
00000000
00010000
00010000
00100000
,
00100000
10000000
01000000
00010000
,
00001000
00011000
00100000
00010000
,
01000000
00011000
00000100
00001000
,
00000010
00011000
01000000
00010000
,
00100000
00011000
00000100
00001000
,
00000010
00000000
00000100
00000001
00000100
00000000
00001000
00000000
,
00010000
00000000
00100000
10000000
00100000
00000000
00010000
00000000
,
00001000
00000000
00010000
00000010
00010000
00000000
00001000
01000000
,
00001000
00010000
00001000
00010000
,
00011000
00001000
00010000
00100000
,
01000000
10000000
01000000
00100000
,
00010000
00001000
00000010
00000100
,
00000001
00000100
00000010
00001000
,
00010000
00000000
00011000
00000000
00000000
00000000
01000000
00010000
,
00001000
00000000
00011000
00000000
00000000
00000000
00000100
00001000
,
00010000
00011000
00100000
00011000
,
00000010
00011000
00101000
00011000
,
00010010
00012000
00000000
00000000
,
00000000
00020000
00000000
00033000
,
00001000
00010000
01000000
10000000
,
00000000
10000000
00100000
00010000
,
00000000
00001000
00000100
00000001
,
00000000
00000001
00000010
00001000
,
00000000
00010000
01000000
00010000
,
00000000
00001000
00000100
00001000
,
00000000
00010000
00100000
00010000
,
00001000
00000010
00001000
00010000
,
00011000
00100000
00010000
01000000
,
00100000
01000000
00010000
00100000
,
00000000
00000010
00001000
00000100
,
00000010
00000100
00001000
00000010
,
00000000
00100000
00010000
01000000
,
00000000
00000100
00001000
00000010
,
00001010
00000001
00000010
00000100
,
00010000
00001000
00100000
01000000
,
10000000
01010000
00000000
00011000
,
00000000
00001100
00000100
00000001
,
00001001
00001000
00000100
00000010
,
00000000
00000001
00000100
00001000
,
00000000
00010000
00100000
10000000
,
00000000
01000000
00100000
00010000
,
00000000
00022000
00000000
00000000
,
00000000
00000000
00000000
00000000
,
00000000
00000000
00000000
00000000
,
00000000
00000000
00000000
00000000
,
00000000
00033000
00000000
00000000
;

//---------------dance-single - ----------------
#NOTEDATA:;
#CHARTNAME:;
#STEPSTYPE:dance-single;
#DESCRIPTION:;
#CHARTSTYLE:;
#DIFFICULTY:Medium;
#METER:12;
#RADARVALUES:0.567738,0.750151,0.276085,0.050858,0.069021,547.000000,509.000000,38.000000,7.000000,0.000000,0.000000,0.000000,0.000000,0.000000,0.567738,0.750151,0.276085,0.050858,0.069021,547.000000,509.000000,38.000000,7.000000,0.000000,0.000000,0.000000,0.000000,0.000000;
#CREDIT:MILEN;
#NOTES:
0000
0000
0000
0000
,
0000
0000
0000
0000
,
0000
0000
0000
0000
,
0000
0000
0000
0000
,
0000
1000
0000
1000
,
0000
0010
0000
0010
,
0000
0100
0000
0100
,
0000
0001
0000
0001
,
1000
0000
1001
0000
0001
0100
0001
0000
,
0010
0000
0100
0000
1000
0010
1000
0000
,
0100
0000
0010
0000
0001
0010
0001
0000
,
0010
0000
0100
0000
1000
0100
1000
0000
,
0100
0000
0010
0000
0001
0100
0010
0000
,
0100
0000
0010
0000
1000
0010
0100
0000
,
0010
0000
0100
0000
0001
0010
0100
0000
,
0010
0000
0100
0000
1000
0100
0010
0000
,
0100
0220
0000
0330
,
0001
1000
0001
0000
1000
0000
0010
0100
,
0000
0100
0000
0010
1000
0010
0000
0100
,
0001
0100
0010
0000
1000
0000
0001
0010
,
0000
0010
0000
0100
1000
0100
0000
0010
,
0001
0010
0100
0000
1000
0010
0000
0010
,
0000
0100
0000
0001
1000
0000
0100
0000
,
0010
0000
0001
0000
0100
0000
0010
1000
,
0000
1000
0000
0001
0010
0100
1000
0000
,
1001
0000
0001
0000
0100
0000
0010
1000
,
0000
1000
0000
0100
0010
0001
0000
0010
,
0100
1000
0100
0000
1000
0000
0010
0100
,
0000
0001
0000
1000
0010
0100
0000
0001
,
0100
0010
0100
0000
0001
0000
0010
0000
,
0100
1100
0010
0011
,
1001
0100
0110
0010
,
1001
1000
0010
0001
,
0100
1000
1000
0001
,
0001
0000
0100
0010
1000
0001
0100
0010
,
2000
0000
3001
0010
0001
0000
1000
0010
,
1000
0000
0001
0100
0001
0000
1000
0100
,
1000
0000
0010
0100
0001
0000
0100
0010
,
1000
0000
0001
0010
0100
0000
1000
0100
,
0010
0001
0100
1010
,
1010
1000
0100
0011
,
0011
0001
0100
0110
,
0110
0000
0010
1000
0010
0100
0001
0100
,
0010
0000
1000
0001
0010
0000
0001
1000
,
0010
0000
1000
0001
0100
0000
0001
1000
,
0100
0000
1000
0010
0100
0000
0010
1000
,
0100
0000
0010
0001
0100
0000
0010
0100
,
0001
1000
0100
0011
,
0011
0001
0100
1010
,
1010
0000
1000
0100
0010
0000
0001
0010
,
0100
0000
1000
0100
0010
0001
0010
0100
,
1000
0010
0100
0100
0100
0000
0010
0010
,
0010
0000
0100
0100
0100
0000
0001
0000
,
1001
0000
1000
1000
1000
0000
0001
0001
,
0001
0000
1000
1000
1000
0000
0010
0000
,
0110
0000
1000
0100
0001
0000
0001
0100
,
1000
0000
1000
0010
0001
0000
0001
0010
,
1000
0010
0001
0000
0010
0000
1000
0000
,
0100
0110
0001
0110
,
1000
0000
0000
0000
1001
0000
0000
0001
0100
0000
0010
0000
0100
0000
0001
0000
,
0100
0000
0000
0000
0010
0000
0000
0010
1000
0000
0100
0000
1000
0000
0010
0000
,
1000
0000
0000
0000
0100
0000
0000
0100
0010
0000
0001
0000
0010
0000
0100
0000
,
0010
0000
0000
0000
0001
0000
0000
0001
0100
0000
0010
0000
1000
0000
1000
0000
,
0001
0000
0001
0000
0010
0000
0000
0010
0100
0000
0000
0100
1000
0000
0000
1000
,
0010
0000
0000
0000
0100
0000
0000
0100
0001
0000
0000
0001
0010
0000
0000
0010
,
0100
0000
0000
0000
1000
0000
0000
1000
0010
0000
0000
0010
0100
0000
0000
0100
,
0001
0000
0000
0000
1000
0000
0000
1000
0100
0000
0000
0100
0010
0000
0100
0000
,
0110
0000
0001
0100
1000
0100
0001
0100
,
0010
0000
1000
0010
0001
0010
1000
0010
,
0100
0000
0001
0010
1000
0100
1000
0010
,
0001
0000
1000
0100
0001
0010
0001
0100
,
1000
0000
0000
0000
1100
0000
0100
0010
0100
0000
0010
0000
0001
0000
1000
0000
,
0010
0000
0000
0000
0101
0000
0100
0010
0100
0000
0010
0000
1000
0000
0001
0000
,
0100
0000
0110
0000
0010
0100
0101
0000
,
0100
0010
1010
0000
1001
0000
0001
0100
,
1000
0010
0220
0000
0000
0000
0000
0000
,
0300
0100
0100
0130
,
1000
0001
1000
0000
0001
0000
0100
0010
,
0000
0010
0000
1000
0100
0010
0000
0001
,
1000
0010
0100
0000
0001
0000
0010
0100
,
0000
0100
0000
1000
0010
0100
0000
0001
,
0010
0100
1000
0000
0010
0100
0000
0100
,
0000
0001
0000
1000
0100
1000
0001
0100
,
0001
0100
0010
0000
1000
0000
0001
0010
,
0000
0100
0000
1000
0010
0100
0001
0000
,
1001
0000
0000
0000
1000
0000
0000
1000
0000
0000
0010
0000
0100
0000
0000
0000
,
0001
0010
0000
0010
0100
0000
1000
0010
,
0100
0000
0001
0000
0100
0000
0000
0000
0110
0000
0000
0000
0010
0000
0000
0010
,
0000
1000
0000
0100
0010
0001
0100
0000
,
0010
1010
1000
0001
,
0100
0101
0001
0110
,
1000
0000
0001
0010
1000
0000
1000
0100
,
0001
0000
1000
0010
0001
0010
1000
0100
,
0001
0100
1000
0000
1000
0000
0001
0000
,
0001
0000
0100
0010
1000
0001
0100
0010
,
1001
1000
0010
0001
,
0100
1000
0010
0001
,
0100
0001
0010
1000
,
0100
0001
0010
1000
,
0100
2002
0000
0000
,
0000
0000
0000
0000
,
0000
0000
0000
0000
,
0000
0000
0000
0000
,
0000
3003
0000
0000
;

//---------------dance-double - ----------------
#NOTEDATA:;
#CHARTNAME:;
#STEPSTYPE:dance-double;
#DESCRIPTION:;
#CHARTSTYLE:;
#DIFFICULTY:Medium;
#METER:12;
#RADARVALUES:0.550093,0.675136,0.210696,0.050858,0.043592,530.000000,501.000000,29.000000,7.000000,0.000000,0.000000,0.000000,0.000000,0.000000,0.550093,0.675136,0.210696,0.050858,0.043592,530.000000,501.000000,29.000000,7.000000,0.000000,0.000000,0.000000,0.000000,0.000000;
#CREDIT:MILEN;
#NOTES:
// measure 0
00000000
00000000
00000000
00000000
,  // measure 1
00000000
00000000
00000000
00000000
,  // measure 2
00000000
00000000
00000000
00000000
,  // measure 3
00000000
00000000
00000000
00000000
,  // measure 4
00000000
01000000
00000000
01000000
,  // measure 5
00000000
00010000
00000000
00010000
,  // measure 6
00000000
00001000
00000000
00001000
,  // measure 7
00000000
00000010
00000000
00000010
,  // measure 8
00000001
00001001
00001000
00000001
,  // measure 9
00000100
00001000
00010000
00001000
,  // measure 10
00010000
00100000
10000000
00010000
,  // measure 11
10000000
01000000
00010000
00001000
,  // measure 12
00010000
00001000
00000010
00000001
,  // measure 13
00001000
00000001
00000100
00001000
,  // measure 14
00010000
00001000
00010000
00100000
,  // measure 15
10000000
00010000
10000000
01000000
,  // measure 16
00010000
00022000
00000000
00033000
,  // measure 17
00001000
00010000
00001000
00000000
01000000
00000000
00010000
00100000
,  // measure 18
00000000
00100000
00000000
00010000
10000000
01000000
00000000
10000000
,  // measure 19
00010000
01000000
00010000
00000000
00100000
00000000
00001000
00010000
,  // measure 20
00000000
00010000
00000000
00000100
00001000
00000001
00000000
00000100
,  // measure 21
00000001
00001000
00000001
00000000
00000100
00000010
00000000
00000010
,  // measure 22
00000000
00010000
00000000
00001000
00100000
00000000
00010000
00000000
,  // measure 23
01000000
00000000
00100000
00000000
10000000
00000000
00010000
01000000
,  // measure 24
00000000
01000000
00000000
00001000
00010000
00000100
00010000
00000000
,  // measure 25
00011000
00000000
00001000
00000000
00100000
00000000
00010000
01000000
,  // measure 26
00000000
01000000
00000000
00001000
00010000
00000100
00000000
00001000
,  // measure 27
00000100
00001000
00000001
00000000
00000100
00000000
00000010
00010000
,  // measure 28
00000000
00001000
00000000
00100000
00010000
01000000
00000000
00100000
,  // measure 29
10000000
00100000
01000000
00000000
00010000
00000000
00100000
00000000
,  // measure 30
01000000
11000000
00100000
00110000
,  // measure 31
01001000
00001000
00010100
00010000
,  // measure 32
00001010
00000001
00000010
00000100
,  // measure 33
00010000
00001000
00001000
00100000
,  // measure 34
00100000
00000000
00010000
00100000
01000000
00100000
01000000
10000000
,  // measure 35
00020000
00000000
01030000
00001000
00010000
00000000
00001000
01000000
,  // measure 36
00010000
00000000
01000000
00001000
00010000
00000000
00001000
01000000
,  // measure 37
00010000
00000000
00100000
00001000
00010000
00000000
00001000
00100000
,  // measure 38
00010000
00000000
00100000
00001000
00010000
00000000
00001000
00100000
,  // measure 39
00010000
01000000
00100000
10000000
,  // measure 40
10100000
00100000
01000000
00010000
,  // measure 41
01010000
01000000
00100000
01000000
,  // measure 42
01100000
00000000
00100000
10000000
00100000
10000000
00010000
01000000
,  // measure 43
00001000
00000000
00010000
00000100
00001000
00000000
00000100
00010000
,  // measure 44
00001000
00000000
00010000
00000100
00001000
00000000
00000100
00010000
,  // measure 45
00001000
00000000
00010000
00000010
00001000
00000000
00000010
00010000
,  // measure 46
00001000
00000000
00010000
00000010
00001000
00000000
00000010
00010000
,  // measure 47
00001000
00000100
00000001
00000010
,  // measure 48
00000011
00000001
00000010
00001000
,  // measure 49
00011000
00000000
00010000
00000100
00000010
00000000
00001000
00100000
,  // measure 50
01000000
00000000
00010000
00001000
01000000
00001000
00010000
00000100
,  // measure 51
00010000
00001000
00000010
00000010
00000010
00000000
00000100
00000100
,  // measure 52
00000100
00000000
00000010
00000010
00000010
00000000
00001000
00000000
,  // measure 53
00011000
00000000
01000000
01000000
01000000
00000000
00100000
00100000
,  // measure 54
00100000
00000000
01000000
01000000
01000000
00000000
00001000
00000000
,  // measure 55
00011000
00000000
00010000
01000000
10000000
00000000
10000000
01000000
,  // measure 56
00010000
00000000
00001000
00000010
00000001
00000000
00000001
00000010
,  // measure 57
00001000
00010000
00001000
00000000
00100000
00000000
01000000
00000000
,  // measure 58
10000000
10100000
00010000
00011000
,  // measure 59
00000100
00000000
00000101
00000000
00000001
00000010
00001000
00010000
,  // measure 60
00100000
00000000
10000000
00000000
01000000
00100000
00010000
01000000
,  // measure 61
00100000
00000000
00010000
00000000
00001000
00000000
00000100
00000001
,  // measure 62
00000010
00000100
00000001
00000000
00000100
00000000
00010000
00010000
,  // measure 63
00001000
00000000
00001000
00000000
00100000
00000000
00000000
00100000
00010000
00000000
00000000
00000000
01000000
00000000
00000000
01000000
,  // measure 64
00100000
00000000
00000000
00000000
10000000
00000000
00000000
10000000
01000000
00000000
00000000
00000000
00010000
00000000
00000000
00010000
,  // measure 65
00001000
00000000
00000000
00000000
00000010
00000000
00000000
00000010
00000001
00000000
00000000
00000000
00001000
00000000
00000000
00001000
,  // measure 66
00000010
00000000
00000000
00000000
00010000
00000000
00000000
00010000
00001000
00000000
00000000
00001000
01000000
00000000
00100000
00000000
,  // measure 67
01100000
00000000
10000000
01000000
00010000
00001000
00010000
00001000
,  // measure 68
00000010
00000000
00000001
00000100
00001000
00010000
00001000
00010000
,  // measure 69
00100000
00000000
10000000
01000000
00010000
00001000
00000010
00000001
,  // measure 70
00000100
00000000
00000001
00000010
00001000
00010000
01000000
10000000
,  // measure 71
00100000
00000000
00000000
00000000
01000000
00000000
00001000
00010000
00001000
00000000
00100000
00000000
00010000
00000000
01000000
00000000
,  // measure 72
00001000
00000000
00000000
00000000
00010000
00000000
00000100
00001000
00000100
00000000
00000010
00000000
00000001
00000000
00001000
00000000
,  // measure 73
00000010
00000000
00000110
00000000
00000001
00000100
00001000
00000000
,  // measure 74
00010000
00100000
10000000
00000000
11000000
00000000
01000000
00100000
,  // measure 75
00001000
00010000
00022000
00000000
00000000
00000000
00000000
00000000
,  // measure 76
00030000
00010000
00010000
00013000
,  // measure 77
00001000
00010000
00001000
00000000
00000100
00000000
00000001
00000010
,  // measure 78
00000000
00000010
00000000
00000001
00000100
00000010
00000000
00001000
,  // measure 79
00000100
00000010
00001000
00000000
00010000
00000000
00100000
10000000
,  // measure 80
00000000
10000000
00000000
01000000
00100000
00010000
00000000
10000000
,  // measure 81
01000000
00100000
00010000
00000000
01000000
00001000
00000000
00001000
,  // measure 82
00000000
00010000
00000000
00000100
00001000
00000100
00000010
00000001
,  // measure 83
00000010
00000001
00000100
00000000
00001000
00000000
00010000
01000000
,  // measure 84
00000000
01000000
00000000
10000000
00100000
01000000
00100000
00000000
,  // measure 85
01100000
00000000
00000000
00000000
10000000
00000000
00000000
10000000
00000000
00000000
01000000
00000000
00010000
00000000
00000000
00000000
,  // measure 86
00001000
00100000
00000000
00100000
00010000
00000000
01000000
00001000
,  // measure 87
00010000
00000000
00000100
00000000
00001000
00000000
00000000
00000000
00001010
00000000
00000000
00000000
00000010
00000000
00000000
00000010
,  // measure 88
00000000
00000100
00000000
00000001
00001000
00000100
00000010
00000000
,  // measure 89
00000100
00000110
00000001
00000100
,  // measure 90
00001000
00011000
00010000
01100000
,  // measure 91
01000000
00000000
00100000
10000000
01000000
00000000
01000000
00010000
,  // measure 92
00001000
00000000
00001000
00010000
00001000
00010000
00000100
00000010
,  // measure 93
00000100
00000010
00000001
00000000
00000001
00000000
00000100
00000000
,  // measure 94
00000100
00000000
00001000
00010000
00001000
01000000
00100000
10000000
,  // measure 95
10010000
00000000
00010000
01000000
00001000
00000000
00010000
00001000
,  // measure 96
01000000
00000000
00010000
01000000
00001000
00010000
00000100
00000000
,  // measure 97
00000100
00000000
00000010
00001000
00010000
00000000
00100000
00010000
,  // measure 98
00001000
00000000
00000010
00001000
00010000
00001000
00000010
00000000
,  // measure 99
00001000
00022000
00000000
00000000
,  // measure 100
00000000
00000000
00000000
00000000
,  // measure 101
00000000
00000000
00000000
00000000
,  // measure 102
00000000
00000000
00000000
00000000
,  // measure 103
00000000
00033000
00000000
00000000
;
