#TITLE:Dun Dun Dance;
#SUBTITLE:;
#ARTIST:Oh My Girl!;
#TITLETRANSLIT:;
#SUBTITLETRANSLIT:;
#ARTISTTRANSLIT:;
#GENRE:XROSS;
#CREDIT:MUINELIM;
#BANNER:Dun Dun Dance.png;
#BACKGROUND:Dun Dun Dance-bg.png;
#LYRICSPATH:;
#CDTITLE:;
#MUSIC:Dun Dun Dance.ogg;
#OFFSET:0.000000;
#SAMPLESTART:58.435001;
#SAMPLELENGTH:11.000000;
#SELECTABLE:YES;
#DISPLAYBPM:115;
#BPMS:0.000000=115;
#STOPS:
;
#BGCHANGES:0.000=Dun Dun Dance.avi=1.000=0=0=1=Centered====,
99999=-nosongbg-=1.000=0=0=0 // don't automatically add -songbackground-
;
#KEYSOUNDS:;
#ATTACKS:;

//---------------dance-single - ----------------
#NOTES:
     dance-single:
     :
     Beginner:
     2:
     0.090614,0.117638,0.048262,0.048262,0.000000,92.000000,85.000000,7.000000,7.000000,0.000000,0.000000,0.090614,0.117638,0.048262,0.048262,0.000000,92.000000,85.000000,7.000000,7.000000,0.000000,0.000000:
0000
0000
0000
0000
,
0000
0000
0000
0000
,
0000
0000
0000
0000
,
0000
0000
0000
0000
,
0000
0000
0100
0000
,
0100
0000
0100
0000
,
0000
0010
0010
0000
,
0000
0010
0020
0000
,
0030
0000
0010
0000
,
0000
0000
1000
0000
,
0000
0000
0010
0000
,
0000
0000
1000
0000
,
0000
0000
0001
0000
,
0000
0000
0100
0000
,
0000
0000
0001
0000
,
0000
0000
0100
0000
,
0000
0000
0001
0000
,
0000
0000
0010
0000
,
0000
0000
0100
0000
,
0000
0000
1000
0000
,
0000
0000
1001
0000
,
0000
0000
0100
0000
,
0000
0000
1001
0000
,
0000
0000
0010
0000
,
0000
0000
1000
0000
,
0000
0000
0001
0000
,
0000
0000
0100
0000
,
0000
0000
0020
0000
,
0030
0000
0010
0000
,
1000
0000
0100
0000
,
0010
0000
0001
0000
,
0001
0000
0001
0000
,
0000
0000
0010
0000
,
0001
0000
0010
0000
,
0100
0000
1000
0000
,
1000
0000
1000
0000
,
0000
0000
0001
0000
,
1000
0000
0001
0000
,
0000
0000
1001
0000
,
0000
0000
1001
0000
,
0000
0000
1000
0000
,
0001
0000
1000
0000
,
0000
0000
0020
0000
,
0030
0000
0200
0000
,
0300
0000
0110
0000
,
0000
0000
0000
0000
,
0000
0000
1000
0000
,
0000
0000
0001
0000
,
0000
0000
1000
0000
,
0100
0000
0010
0000
,
0001
0000
0100
0000
,
0010
0000
0200
0000
,
0300
0000
0100
0000
,
0001
0000
0010
0000
,
0100
0000
1000
0000
,
1000
0000
1000
0000
,
0000
0000
0100
0000
,
1000
0000
0100
0000
,
0010
0000
0001
0000
,
0001
0000
0001
0000
,
0000
0000
1000
0000
,
0001
0000
1000
0000
,
0000
0000
1001
0000
,
0000
0000
1001
0000
,
0000
0000
0001
0000
,
1000
0000
0001
0000
,
0000
0000
0200
0000
,
0300
0000
0020
0000
,
0000
0030
0000
0000
;

//---------------dance-single - ----------------
#NOTES:
     dance-single:
     :
     Easy:
     4:
     0.147739,0.188220,0.062051,0.124101,0.000000,150.000000,141.000000,9.000000,18.000000,0.000000,0.000000,0.147739,0.188220,0.062051,0.124101,0.000000,150.000000,141.000000,9.000000,18.000000,0.000000,0.000000:
0000
0000
0000
0000
,
0000
0000
0000
0000
,
0000
0000
0000
0000
,
0000
0000
0000
0000
,
0000
0000
1000
0000
,
0001
0000
1000
0000
,
0001
0000
2000
0000
,
3000
0000
0002
0000
,
0003
0000
1001
0000
,
0100
0000
0010
0000
,
0100
0000
0001
0000
,
0010
0000
0100
0000
,
1000
0000
0010
0000
,
0100
0000
0010
0000
,
1000
0000
0001
0000
,
0100
0000
0010
0000
,
0100
0000
0001
0001
,
1000
1000
0002
0003
,
1000
0000
1000
1000
,
0001
0001
2000
3000
,
0001
0000
1001
0000
,
0100
0100
1001
0000
,
0000
0010
0020
0000
,
0030
0000
0200
0000
,
0300
0000
0010
0000
,
1000
0000
0100
0000
,
0010
0000
0001
0000
,
1000
0000
2002
0000
,
3003
0000
0001
0010
,
0000
0010
0001
0010
,
0100
0100
1000
0000
,
0010
0000
0001
0000
,
0100
0000
1000
0010
,
0000
0010
1000
0010
,
0200
0300
0001
0000
,
1000
0000
1001
0000
,
0000
0110
0010
0000
,
1000
0000
0100
0000
,
0001
0000
0010
0100
,
0010
0010
0100
0010
,
0200
0300
0001
0000
,
0010
0000
1000
0000
,
0100
0000
0002
0000
,
0003
0000
2000
0000
,
3000
0000
1001
0000
,
0000
0010
0001
0010
,
0100
1000
0100
0000
,
0000
0000
1000
0001
,
0100
0010
1000
0000
,
0100
0000
0001
0000
,
0010
0000
2000
0000
,
0000
0000
0002
0000
,
3003
0000
1000
0010
,
0000
0010
1000
0010
,
0100
0100
0001
0000
,
0010
0000
1000
0000
,
0100
0000
0001
0010
,
0000
0010
0001
0010
,
0200
0300
1000
0000
,
0001
0000
1001
0000
,
0000
0110
0010
0000
,
0001
0000
0100
0000
,
1000
0000
0010
0100
,
0010
0010
0100
0010
,
0200
0300
1000
0000
,
0010
0000
0001
0000
,
0100
0000
2000
0000
,
3000
0000
0002
0000
,
0000
0003
0000
0000
;

//---------------dance-double - ----------------
#NOTES:
     dance-double:
     :
     Easy:
     4:
     0.147739,0.188220,0.062051,0.110312,0.000000,150.000000,141.000000,9.000000,16.000000,0.000000,0.000000,0.147739,0.188220,0.062051,0.110312,0.000000,150.000000,141.000000,9.000000,16.000000,0.000000,0.000000:
00000000
00000000
00000000
00000000
,
00000000
00000000
00000000
00000000
,
00000000
00000000
00000000
00000000
,
00000000
00000000
00000000
00000000
,
00000000
00000000
00001000
00000000
,
00010000
00000000
00001000
00000000
,
00010000
00000000
00002000
00000000
,
00003000
00000000
00020000
00000000
,
00030000
00000000
00011000
00000000
,
00001000
00000000
00100000
00000000
,
00001000
00000000
00010000
00000000
,
00000010
00000000
00010000
00000000
,
00001000
00000000
01000000
00000000
,
00001000
00000000
00010000
00000000
,
00000100
00000000
00010000
00000000
,
00001000
00000000
00010000
00000000
,
00001000
00000000
00100000
00010000
,
00100000
00010000
01000000
00000000
,
00001000
00000000
00010000
00000100
,
00010000
00000100
00001000
00000000
,
00000010
00000000
00001001
00000000
,
00000100
00000100
00001001
00000000
,
00000000
00000001
00000020
00000000
,
00000030
00000000
00002000
00000000
,
00003000
00000000
00010000
00000000
,
00100000
00000000
10000000
00000000
,
01000000
00000000
00100000
00000000
,
00001000
00000000
00022000
00000000
,
00033000
00000000
00010000
00000100
,
00000000
00000100
00001000
00000100
,
00000010
00000010
00000001
00000000
,
00000100
00000000
00001000
00000000
,
00010000
00000000
00100000
10000000
,
00000000
10000000
01000000
00100000
,
02000000
03000000
00010000
00000000
,
00001000
00000000
00011000
00000000
,
00000000
00011000
00000010
00000000
,
00000001
00000000
00000100
00000000
,
00001000
00000000
00010000
00001000
,
00010000
00010000
00001000
00010000
,
00002000
00003000
00010000
00000000
,
00100000
00000000
10000000
00000000
,
01000000
00000000
00020000
00000000
,
00030000
00000000
00002000
00000000
,
00003000
00000000
00011000
00000000
,
00000000
00010000
00000010
00010000
,
00001000
00100000
00001000
00000000
,
00000000
00000000
00010000
00001000
,
00100000
00010000
01000000
00000000
,
00001000
00000000
00010000
00000000
,
00000010
00000000
00002000
00000000
,
00000000
00000000
00000002
00000000
,
00003003
00000000
00000001
00000100
,
00000000
00000100
00001000
00000100
,
00000010
00000010
00010000
00000000
,
00001000
00000000
00100000
00000000
,
01000000
00000000
10000000
00100000
,
00000000
00100000
00010000
00100000
,
02000000
03000000
00001000
00000000
,
00010000
00000000
00011000
00000000
,
00000000
00011000
00000100
00000000
,
00000001
00000000
00000010
00000000
,
00001000
00000000
00010000
00000100
,
00010000
00010000
00001000
01000000
,
00002000
00003000
00010000
00000000
,
00100000
00000000
10000000
00000000
,
01000000
00000000
00020000
00000000
,
00030000
00000000
00002000
00000000
,
00000000
00003000
00000000
00000000
;

//---------------dance-single - ----------------
#NOTES:
     dance-single:
     :
     Medium:
     7:
     0.286615,0.352913,0.186152,0.296464,0.000000,291.000000,264.000000,27.000000,43.000000,0.000000,0.000000,0.286615,0.352913,0.186152,0.296464,0.000000,291.000000,264.000000,27.000000,43.000000,0.000000,0.000000:
0000
0000
0000
0000
,
0000
0000
0000
0000
,
0000
0000
0000
0000
,
0000
0000
0000
0000
,
0000
0000
1000
1000
,
0001
0001
0100
0020
,
0030
0100
2000
0000
,
3000
0100
0002
0000
,
1000
1003
1001
0010
,
1000
0000
0100
0010
0100
0000
0010
0000
,
0001
0000
0100
0010
0100
0000
0010
0000
,
1000
0000
0001
0000
0100
0010
1000
0000
,
0010
0100
0001
0000
1000
0000
1000
0000
,
0001
0001
1000
0200
,
0320
0230
0300
0010
,
0010
0001
0100
0010
,
1000
0001
1000
0001
1000
0000
1100
0000
,
0001
0000
0101
0000
1000
0100
0000
0000
,
0100
0010
0001
0011
,
1000
1010
0001
0010
,
0200
0310
1001
0000
,
1000
0100
0010
0000
1001
0000
0000
0001
,
0100
0020
2030
3002
,
0003
0000
1000
0100
0020
0000
0032
0000
,
2003
3100
1100
0010
,
0101
0010
1100
0101
,
1100
0000
2002
0000
3003
0000
0010
0200
,
0000
0302
2000
0000
,
3003
0000
0000
0000
1000
0010
0100
0000
,
0010
0000
1000
0000
0001
0100
0010
0000
,
0100
0001
1000
0010
,
0001
0000
0100
0000
1000
0001
1000
0010
,
0200
0000
0300
0000
0001
0010
0100
0000
,
1100
0000
0001
0000
1000
0000
0010
0100
,
0002
0000
0003
0000
1000
0100
0010
0000
,
0010
0001
0100
0000
2020
0000
0000
0000
,
3030
0000
1001
0000
0001
0100
0001
0000
,
1000
0100
1000
0000
0001
0100
0001
0000
,
0010
0011
0001
0100
,
1000
0000
0010
0000
0001
0100
0010
0100
,
0002
0000
0003
0000
1000
0010
1000
0000
,
0001
0010
0001
0000
1000
0010
1000
0000
,
0100
1100
2000
0000
,
3000
0101
0002
0000
,
0000
0000
1003
0000
1001
0000
0000
0010
,
1000
0000
0100
0000
0020
0000
0030
0001
,
0100
0000
0001
0010
0100
0000
0000
0100
,
1000
0010
0200
0301
,
0200
1300
0100
0001
,
1000
0010
0001
0100
,
2002
0000
3003
0000
0020
0000
0000
0230
,
0000
0320
0000
0000
2030
0000
0000
0002
,
0000
0000
3003
0000
0001
0010
0100
0000
,
0010
0000
0001
0000
1000
0100
0010
0000
,
0100
1000
0001
0010
,
1000
0000
0100
0000
0001
1000
0001
0010
,
0200
0000
0300
0000
1000
0010
0100
0000
,
0101
0000
1000
0000
0001
0000
0010
0100
,
2000
0000
3000
0000
0001
0100
0010
0000
,
0010
1000
0100
0000
0022
0000
0000
0000
,
0033
0000
1001
0000
1000
0100
0001
0000
,
0001
0100
1000
0000
1000
0010
0100
0000
,
0010
1010
1000
0100
,
0001
0000
0010
0000
1000
0100
0010
0100
,
2000
0000
3000
0000
0001
0010
1000
0000
,
1000
0010
0001
0000
0001
0100
0010
0000
,
0100
0101
0002
0000
,
0003
0000
1100
0000
2000
0000
0000
0002
,
0000
3003
0000
0000
;

//---------------dance-single - ----------------
#NOTES:
     dance-single:
     :
     Hard:
     11:
     0.407761,0.447023,0.317147,0.434354,0.137890,414.000000,368.000000,46.000000,63.000000,0.000000,0.000000,0.407761,0.447023,0.317147,0.434354,0.137890,414.000000,368.000000,46.000000,63.000000,0.000000,0.000000:
0000
0000
0000
0000
,
0000
0000
0000
0000
,
0000
0000
0000
0000
,
0000
0000
0000
0000
,
0000
0000
2000
3010
,
0002
0103
2000
0002
,
3003
1010
0202
0000
,
0303
0011
2200
0300
,
0001
0000
3001
0000
0001
0100
0010
0000
,
0010
1000
0010
0100
0001
0010
0100
0000
,
1100
0000
1000
0010
0100
0000
0101
0000
,
0001
0010
0100
1000
0100
0000
2000
0000
,
3002
0000
0103
0001
0010
0100
0010
0000
,
0001
0100
0010
1000
0010
0100
0002
0000
,
2003
0000
3020
0000
0000
0130
0001
0100
,
0010
1000
1100
0000
0100
0010
0001
0100
,
0010
1000
0000
0010
0100
0000
0001
0000
0011
0000
0000
0000
1010
0000
0000
0000
,
1000
0100
0010
0001
1000
0200
0000
0300
,
0001
0100
0010
1000
1100
0000
0101
0000
,
0001
0010
0100
1000
0001
0010
2000
0000
,
3002
0000
0203
0000
1300
0010
0100
0001
,
1000
1000
1000
0000
0001
0100
0010
1000
,
1001
0000
0000
0000
0001
0100
0001
0000
1000
0000
0000
0100
0000
0000
0010
0000
,
0110
0000
0000
0000
0100
1000
0100
0000
1000
0000
0000
0010
0000
0000
0100
0000
,
0101
0000
0000
0000
1001
0000
0000
0000
1000
0000
0000
0010
0100
0000
0000
0100
,
0001
0000
0000
0001
0010
0000
0000
0000
0001
0000
0000
0100
0010
0000
0000
0010
,
1000
0000
0000
1000
0200
0000
0000
0000
0300
0000
0000
0000
0110
0000
0020
0000
,
0000
0032
2000
0000
,
3003
0000
0000
0000
1000
0010
0110
0000
,
0100
0001
0010
0100
0010
0001
0100
0010
,
1000
0000
0000
0100
0000
0000
0001
0000
2000
0000
3010
0000
0002
0000
0013
0000
,
2000
3100
0002
0100
0103
0001
0010
0100
,
1000
0000
0110
0000
0100
0001
0011
0000
,
0010
0100
1000
0001
0010
0100
0001
0100
,
2000
0000
0000
3000
0020
0130
0002
1003
,
0200
0000
0310
0000
0002
0000
1000
0000
1003
0000
0000
0010
0000
0000
0001
0100
,
0000
0100
0000
0000
0110
0000
0000
0000
1000
0000
1000
0000
2000
0000
0000
0001
,
0000
0001
0000
3002
0000
0000
0000
0000
1000
0000
1000
0000
1003
0000
0001
0000
,
0101
0000
1010
0000
1000
0100
0001
0100
,
0010
0001
0100
0000
1000
0100
0010
0100
,
0101
0000
0000
0000
0001
0000
0010
0000
0100
0000
0100
0000
0200
0000
0000
0010
,
0000
0010
0000
0320
0000
0000
0000
0000
0100
0000
0100
0000
0130
0000
1000
0000
,
1100
0011
2020
0000
,
3030
1100
0202
0000
,
0000
0000
0303
0000
1001
0000
0000
1000
,
0010
0000
0100
0000
0001
0000
1000
0000
0010
0000
0000
0001
0000
0000
0100
0000
,
1100
0000
1000
0010
0200
0000
0000
1300
,
0100
0000
0010
0000
1000
0000
0100
0000
0010
0000
0000
0001
0000
0000
0100
0000
,
1000
0000
0000
0010
0000
0000
0001
0000
0100
0010
0000
0100
0001
0000
0010
0000
,
0100
0010
0000
0100
1000
0000
0010
0000
0100
0000
0001
0000
1000
0000
0100
0020
,
0000
0000
0031
0100
2000
0000
0000
3002
,
0000
0023
0000
0000
2030
0000
0000
0002
,
0000
0000
3003
0000
0001
0100
1010
0000
,
0010
1000
0100
0001
0100
0010
0001
0100
,
1000
0000
0000
0001
0000
0000
0010
0000
0200
0000
0301
0000
0020
0000
1030
0000
,
0200
1300
0020
0001
0031
0010
0001
1000
,
0100
0000
1001
0000
0010
1000
0101
0000
,
0100
0010
0001
1000
0100
0001
0010
0100
,
0002
0000
0000
0003
0200
1300
0020
0031
,
0200
0000
0301
0000
0020
0000
1000
0000
1030
0000
0000
0100
0000
0000
0001
0010
,
0000
0010
0000
0000
0110
0000
0000
0000
1000
0000
0010
0000
2010
0000
0000
3001
,
0000
0010
0000
0012
0000
0000
0000
0000
0100
0000
0100
0000
0103
0000
0010
0000
,
1010
0000
0101
0000
0001
0010
1000
0001
,
0100
1000
0010
0000
0001
0010
1000
0100
,
0011
0000
0000
0000
0001
0000
0100
0000
0010
0000
1000
0000
1020
0000
0000
0130
,
0000
0001
0000
0021
0000
0000
0000
0000
0100
0000
0100
0000
0130
0000
1000
0000
,
1010
0101
0022
0000
,
0033
0000
1010
0000
2200
0000
0300
0002
,
0000
3003
0000
0000
;

//---------------dance-double - ----------------
#NOTES:
     dance-double:
     :
     Medium:
     7:
     0.284645,0.329385,0.172363,0.310253,0.000000,289.000000,264.000000,25.000000,45.000000,0.000000,0.000000,0.284645,0.329385,0.172363,0.310253,0.000000,289.000000,264.000000,25.000000,45.000000,0.000000,0.000000:
00000000
00000000
00000000
00000000
,
00000000
00000000
00000000
00000000
,
00000000
00000000
00000000
00000000
,
00000000
00000000
00000000
00000000
,
00000000
00000000
00001000
00001000
,
00010000
00010000
00001000
02000000
,
03000000
00001000
00000200
00000000
,
00000300
00001000
00020000
00000000
,
00001000
00031000
00011000
00010000
,
00000100
00000000
00001000
00000010
00001000
00000000
00000100
00000000
,
00000010
00000000
00000001
00000100
00000001
00000000
00000010
00000000
,
00001000
00000000
00010000
00000000
00100000
10000000
00100000
00000000
,
01000000
00010000
01000000
00000000
00001000
00000000
00001000
00000000
,
00010000
00010000
00000100
00002000
,
00003002
00002003
00003000
00000001
,
00000001
00000100
00001000
00010000
,
00100000
10000000
01000000
10000000
00100000
00000000
00010000
00000000
,
00001000
00000000
00011000
00000000
00000100
00000010
00000000
00000000
,
00000001
00001000
00000010
00000100
,
00001000
00011000
00010000
00100000
,
02000000
03100000
10010000
00000000
,
00010000
01000000
00001000
00000000
00011000
00000000
00000000
00010000
,
00000100
00002000
00003002
00000203
,
00000300
00000000
00000010
00010000
00002000
00000000
00203000
00000000
,
00320000
10030000
00100000
00010000
,
00001000
00000100
00000001
00000010
,
00001000
00000000
00022000
00000000
00033000
00000000
01000000
00002000
,
00000000
00023000
00000020
00000000
,
00030030
00000000
00000000
00000000
00000010
00001000
00000100
00000000
,
00000010
00000000
00000100
00000000
00000010
00000001
00000100
00000000
,
00001000
00010000
00100000
10000000
,
01000000
00000000
00010000
00000000
00001000
00010000
00000100
00010000
,
00002000
00000000
00003000
00000000
00000010
00000001
00000100
00000000
,
00000110
00000000
00001001
00000000
00000001
00000000
00000100
00001000
,
00020000
00000000
00030000
00000000
00001000
00010000
00100000
00000000
,
00010000
00100000
10000000
00000000
22000000
00000000
00000000
00000000
,
33000000
00000000
01100000
00000000
00100000
00001000
00010000
00000000
,
00001000
00100000
00010000
00000000
00100000
00001000
00010000
00000000
,
00000100
00001100
00000010
00000001
,
00000100
00000000
00001000
00000000
00010000
00001000
01000000
00001000
,
00020000
00000000
00030000
00000000
00000010
00010000
00001000
00000000
,
00010000
00000010
00001000
00000000
00000010
00010000
00001000
00000000
,
00100000
00110000
02000000
00000000
,
03000000
00011000
00000200
00000000
,
00000000
00000000
00000310
00000000
00000011
00000000
00000000
00000001
,
00000100
00000000
00001000
00000000
00020000
00000000
00000000
00001000
,
00031000
00000000
00001000
00100000
00010000
00000000
00000000
00010000
,
01000000
10000000
02000000
03020000
,
00230000
02300000
03010000
00011000
,
00010000
00010100
00010000
00010010
,
00002020
00000000
00003030
00000000
00000002
00000000
00000000
00000203
,
00000000
00000320
00000000
00000000
00020030
00000000
00000000
00002000
,
00000000
00000000
00033000
00000000
00100000
00010000
01000000
00000000
,
00100000
00000000
01000000
00000000
00100000
10000000
01000000
00000000
,
00010000
00001000
00000010
00000001
,
00000100
00000000
00001000
00000000
00010000
00001000
01000000
00001000
,
00020000
00000000
00030000
00000000
00100000
10000000
01000000
00000000
,
01100000
00000000
10010000
00000000
10000000
00000000
01000000
00010000
,
00002000
00000000
00003000
00000000
00010000
00001000
00000010
00000000
,
00001000
00000010
00000001
00000000
00000202
00000000
00000000
00000000
,
00000303
00000000
00000110
00000000
00000100
00001000
00010000
00000000
,
00010000
00001000
00000100
00000000
00000100
00001000
00010000
00000000
,
00100000
10100000
00010000
10000000
,
01000000
00000000
00010000
00000000
00001000
00010000
00100000
01000000
,
00200000
00000000
00300000
00000000
00100000
00010000
00001000
00000000
,
00001000
00010000
00100000
00000000
00100000
00010000
00001000
00000000
,
00000010
00000011
00002000
00000000
,
00003000
00000000
00011000
00000000
00200000
00000000
00000000
20000000
,
00000000
30300000
00000000
00000000
;

//---------------dance-double - ----------------
#NOTES:
     dance-double:
     :
     Hard:
     11:
     0.399881,0.447023,0.289569,0.303358,0.130996,406.000000,364.000000,42.000000,44.000000,0.000000,0.000000,0.399881,0.447023,0.289569,0.303358,0.130996,406.000000,364.000000,42.000000,44.000000,0.000000,0.000000:
// measure 0
00000000
00000000
00000000
00000000
,  // measure 1
00000000
00000000
00000000
00000000
,  // measure 2
00000000
00000000
00000000
00000000
,  // measure 3
00000000
00000000
00000000
00000000
,  // measure 4
00000000
00000000
00002000
01003000
,  // measure 5
00020000
00030100
00002000
00020000
,  // measure 6
00033000
00101000
00020020
00000000
,  // measure 7
00030030
00010100
02002000
00003000
,  // measure 8
00010000
00000000
03010000
00000000
00010000
10000000
00100000
00000000
,  // measure 9
00100000
00010000
00001000
00010000
00100000
00010000
00001000
00000000
,  // measure 10
00011000
00000000
00000100
00001000
00000010
00000000
00000110
00000000
,  // measure 11
00000100
00000001
00000010
00000100
00001000
00000000
00000200
00000000
,  // measure 12
00020300
00000000
00031000
00010000
00100000
01000000
00100000
00000000
,  // measure 13
10000000
01000000
00010000
01000000
00010000
00001000
00000020
00000000
,  // measure 14
00000032
00000000
00002003
00000000
00000000
00003010
00010000
00001000
,  // measure 15
00010000
00100000
10100000
00000000
10000000
01000000
00100000
00001000
,  // measure 16
00010000
00001000
00000000
00010000
00001000
00000000
00000010
00000000
00000011
00000000
00000000
00000000
00001100
00000000
00000000
00000000
,  // measure 17
00000100
00010000
00001000
00100000
00010000
02000000
00000000
03000000
,  // measure 18
10000000
01000000
00010000
00100000
00110000
00000000
11000000
00000000
,  // measure 19
10000000
00100000
01000000
00010000
00100000
00001000
00020000
00000000
,  // measure 20
00030200
00000000
00000320
00000000
00000031
00000100
00001000
00010000
,  // measure 21
00100000
00100000
00100000
00000000
10000000
01000000
00010000
00001000
,  // measure 22
00011000
00000000
00000000
00000000
00010000
00000000
00001000
00000000
00000100
00000000
00000000
00000001
00000000
00000000
00000010
00000000
,  // measure 23
00000110
00000000
00000000
00000000
00001000
00000000
00010000
00000000
01000000
00000000
00000000
10000000
00000000
00000000
00100000
00000000
,  // measure 24
01100000
00000000
00000000
00000000
10010000
00000000
00000000
00000000
10000000
00000000
00000000
00100000
00010000
00000000
00000000
00010000
,  // measure 25
00001000
00000000
00000000
00001000
00000010
00000000
00000000
00000000
00000001
00000000
00000000
00000100
00001000
00000000
00000000
00001000
,  // measure 26
00010000
00000000
00000000
00010000
02000000
00000000
00000000
00000000
03000000
00000000
00000000
00000000
11000000
00000000
00200000
00000000
,  // measure 27
00000000
00302000
00020000
00000000
,  // measure 28
00033000
00000000
00000000
00000000
00010000
00001000
00000020
00000000
,  // measure 29
00000130
00000010
00000001
00000100
00001000
00000100
00000001
00000010
,  // measure 30
00000100
00000000
00000000
00010000
00000000
00000000
00001000
00000000
00100000
00000000
00100000
00000000
01000000
00000000
01000000
00000000
,  // measure 31
00010000
00010000
00001000
00100000
01100000
00000000
10000000
00100000
,  // measure 32
00010000
00000000
00011000
00000000
00001000
00100000
01100000
00000000
,  // measure 33
10000000
00100000
01000000
10000000
01000000
00010000
00100000
01000000
,  // measure 34
00020000
00000000
00000000
00000000
00031000
00001000
00000010
00000010
,  // measure 35
00000001
00000000
00000001
00000000
00000100
00000000
00001000
00000000
00001000
00000000
00000000
00010000
00000000
00000000
01000000
10000000
,  // measure 36
00000000
10000000
00000000
00000000
10100000
00000000
00000000
00000000
00100000
00000000
00010000
00000000
00001000
00000000
00000000
00000010
,  // measure 37
00000000
00001000
00000000
00010000
00000000
00000000
00000000
00000000
00100000
00000000
00010000
00000000
00001000
00000000
00010000
00000000
,  // measure 38
00010010
00000000
01001000
00000000
00001000
00010000
00000100
00001000
,  // measure 39
00000100
00000010
00000001
00000000
00000100
00001000
00010000
00001000
,  // measure 40
00011000
00000000
00000000
00000000
00001000
00000000
00010000
00000000
01000000
00000000
00010000
00000000
00001000
00000000
00000000
00000100
,  // measure 41
00000000
00001000
00000000
00010000
00000000
00000000
00000000
00000000
01000000
00000000
00010000
00000000
00001000
00000000
00010000
00000000
,  // measure 42
00010100
00101000
00020020
00000000
,  // measure 43
00030030
00010100
02002000
00000000
,  // measure 44
00000000
00000000
03003000
00000000
00011000
00000000
00000000
00010000
,  // measure 45
01000000
00000000
10000000
00000000
00100000
00000000
00010000
00000000
00001000
00000000
00000000
00000100
00000000
00000000
00000001
00000000
,  // measure 46
00001001
00000000
00001000
00000010
00000200
00000000
00000000
00000301
,  // measure 47
00000010
00000000
00000100
00000000
00001000
00000000
00010000
00000000
01000000
00000000
00000000
00100000
00000000
00000000
10000000
00000000
,  // measure 48
01000000
00000000
00000000
00010000
00000000
00000000
00001000
00000000
00000010
00000001
00000000
00000010
00000001
00000000
00000100
00000000
,  // measure 49
00000010
00001000
00000000
00000010
00001000
00000000
00000100
00000000
00010000
00000000
00001000
00000000
00100000
00000000
01000000
20000000
,  // measure 50
00000000
00000000
30100000
00010000
00002000
00000000
00000000
00003020
,  // measure 51
00000000
00000230
00000000
00000000
00020300
00000000
00000000
00002000
,  // measure 52
00000000
00000000
00033000
00000000
00001000
00010000
00200000
00000000
,  // measure 53
01300000
00100000
10000000
01000000
00010000
01000000
10000000
00100000
,  // measure 54
01000000
00000000
00000000
00001000
00000000
00000000
00010000
00000000
00000010
00000000
00000010
00000000
00000100
00000000
00000100
00000000
,  // measure 55
00001000
00001000
00010000
00000010
00000110
00000000
00000001
00000010
,  // measure 56
00001000
00000000
00011000
00000000
00010000
00000010
00000110
00000000
,  // measure 57
00000001
00000010
00000100
00000001
00000100
00001000
00000010
00000100
,  // measure 58
00002000
00000000
00000000
00000000
00013000
00010000
00100000
00100000
,  // measure 59
10000000
00000000
10000000
00000000
01000000
00000000
00010000
00000000
00010000
00000000
00000000
00001000
00000000
00000000
00000100
00000001
,  // measure 60
00000000
00000001
00000000
00000000
00000011
00000000
00000000
00000000
00000010
00000000
00001000
00000000
00020000
00000000
00000000
00130000
,  // measure 61
00000000
00010000
00000000
00002000
00000000
00000000
00000000
00000000
00003010
00000000
00001000
00000000
00010000
00000000
00001000
00000000
,  // measure 62
00101000
00000000
00010100
00000000
00010000
00001000
01000000
00010000
,  // measure 63
01000000
00100000
10000000
00000000
01000000
00010000
00001000
00010000
,  // measure 64
00011000
00000000
00000000
00000000
00010000
00000000
00001000
00000000
00000100
00000000
00001000
00000000
00020000
00000000
00000000
01030000
,  // measure 65
00000000
00010000
00000000
00002000
00000000
00000000
00000000
00000000
00003100
00000000
00001000
00000000
00010000
00000000
00001000
00000000
,  // measure 66
01001000
00010010
00202000
00000000
,  // measure 67
00303000
00000000
01001000
00000000
00010200
00000000
00000000
00000020
,  // measure 68
00000000
00000330
00000000
00000000
;
