#TITLE:夢色パティシエール (Korean ver.);
#SUBTITLE:;
#ARTIST:Lee Ji Eun;
#TITLETRANSLIT:Dreamlight Patissiere (Korean ver.);
#SUBTITLETRANSLIT:;
#ARTISTTRANSLIT:;
#GENRE:K-POP;
#CREDIT:MUINELIM;
#BANNER:Dreamlight Patissiere (Korean ver.).png;
#BACKGROUND:Dreamlight Patissiere (Korean ver.)-bg.png;
#LYRICSPATH:;
#CDTITLE:;
#MUSIC:Dreamlight Patissiere (Korean ver.).ogg;
#OFFSET:0.043000;
#SAMPLESTART:56.468632;
#SAMPLELENGTH:15.308834;
#SELECTABLE:YES;
#DISPLAYBPM:172;
#BPMS:0.000000=172;
#STOPS:
;
#BGCHANGES:0.000=Dreamlight Patissiere.avi=1.000=1=0=0=StretchNoLoop==CrossFade==,
99999=-nosongbg-=1.000=0=0=0 // don't automatically add -songbackground-
;
#KEYSOUNDS:;
#ATTACKS:;

//---------------dance-single - ----------------
#NOTES:
     dance-single:
     :
     Beginner:
     4:
     0.174749,0.208507,0.011120,0.000000,0.000000,110.000000,109.000000,1.000000,0.000000,0.000000,0.000000,0.174749,0.208507,0.011120,0.000000,0.000000,110.000000,109.000000,1.000000,0.000000,0.000000,0.000000:
// measure 0
0000
0000
0000
0000
,  // measure 1
0000
0000
0000
0000
,  // measure 2
0000
0000
0100
0000
,  // measure 3
0100
0000
0100
0000
,  // measure 4
0100
0000
0010
0000
,  // measure 5
0010
0000
0010
0000
,  // measure 6
0010
0010
0010
0000
,  // measure 7
1000
0000
0001
0000
,  // measure 8
0100
0000
0010
0000
,  // measure 9
1000
0000
0001
0000
,  // measure 10
0100
0100
0100
0000
,  // measure 11
0000
0000
1000
0000
,  // measure 12
0000
0000
0010
0000
,  // measure 13
0000
0000
0001
0000
,  // measure 14
0000
0000
0100
0000
,  // measure 15
0100
0000
0010
0000
,  // measure 16
0010
0000
1000
0000
,  // measure 17
1000
0000
0001
0000
,  // measure 18
0001
0000
0010
0000
,  // measure 19
0010
0000
0100
0000
,  // measure 20
0100
0000
1000
0000
,  // measure 21
1000
0000
0000
0000
,  // measure 22
0000
0000
0010
0000
,  // measure 23
0010
0000
0100
0000
,  // measure 24
0100
0000
0001
0000
,  // measure 25
0001
0000
1000
0000
,  // measure 26
1000
0000
0100
0000
,  // measure 27
0100
0000
0010
0000
,  // measure 28
0010
0000
0001
0000
,  // measure 29
0001
0000
1000
0000
,  // measure 30
1000
0000
0001
0000
,  // measure 31
0000
0000
0100
0000
,  // measure 32
0000
0000
1000
0000
,  // measure 33
0000
0000
0010
0000
,  // measure 34
0000
0000
0001
0000
,  // measure 35
0000
0000
1000
0000
,  // measure 36
0000
0000
0010
0000
,  // measure 37
0100
0000
0010
0000
,  // measure 38
0100
0000
0010
0010
,  // measure 39
0010
0000
0100
0000
,  // measure 40
0010
0000
1000
0000
,  // measure 41
0100
0000
0010
0000
,  // measure 42
0001
0000
1000
0000
,  // measure 43
0100
0000
0010
0000
,  // measure 44
0001
0000
0100
0000
,  // measure 45
0010
0010
0000
0000
,  // measure 46
0100
0100
0000
0000
,  // measure 47
0010
0010
0000
0100
,  // measure 48
0100
0000
0001
0000
,  // measure 49
1000
0000
0010
0000
,  // measure 50
0100
0000
0001
0000
,  // measure 51
0010
0000
0100
0000
,  // measure 52
1000
0000
0010
0000
,  // measure 53
0100
0000
0001
0000
,  // measure 54
1000
0000
0100
0000
,  // measure 55
0010
0000
0001
0000
,  // measure 56
0100
0100
0100
0000
,  // measure 57
0000
0000
0001
0000
,  // measure 58
0000
0000
0010
0000
,  // measure 59
0000
0000
1000
0000
,  // measure 60
0100
0100
0100
0000
,  // measure 61
0000
0000
0000
0000
,  // measure 62
0000
0000
1001
0000
;

//---------------dance-single - ----------------
#NOTES:
     dance-single:
     :
     Easy:
     5:
     0.247826,0.347512,0.077843,0.055602,0.000000,156.000000,149.000000,7.000000,5.000000,0.000000,0.000000,0.247826,0.347512,0.077843,0.055602,0.000000,156.000000,149.000000,7.000000,5.000000,0.000000,0.000000:
0000
0000
0000
0000
,
0000
0000
0000
0000
,
0000
0000
1000
0000
,
0001
0000
1000
1000
,
1000
0000
0001
0000
,
1000
0000
0001
0000
,
0100
0100
0100
0000
,
0010
0000
1000
0000
,
0100
0000
0010
0000
,
0001
0000
0100
0100
,
0010
0100
0010
0000
,
1000
0000
0001
0000
,
1000
0000
0010
0100
,
0001
0100
0010
0010
,
0010
1001
1000
0000
,
1000
0000
0010
0000
,
0010
0000
0001
0000
,
0001
0000
0100
0000
,
0100
0000
1000
0010
,
1000
0000
0001
0010
,
0001
0000
1000
0010
,
1000
0001
0001
0000
,
0010
0000
0100
0000
,
1000
0000
0010
0000
,
0100
0000
0001
0000
,
0010
0000
0100
0000
,
1000
0000
0010
0000
,
0100
0000
0010
0100
,
0010
0100
0020
0000
,
0030
0000
0200
0000
,
0300
0010
0110
0000
,
0001
0000
0100
0000
,
1000
0000
0100
0000
,
0001
0000
0100
0000
,
0010
0000
1000
0000
,
0010
0000
0001
0000
,
0010
0000
1000
0000
,
1000
0000
1000
1000
,
1000
0000
1000
0100
,
0010
0000
0010
0001
,
0100
1001
1000
0000
,
0100
0000
0001
0010
,
1000
0000
0001
0000
,
0100
0000
1000
0000
,
0010
0100
0020
0030
,
1000
0100
0010
0000
,
1000
0100
0010
0000
,
1000
0100
0010
0001
,
0010
0110
0001
0000
,
0100
0000
1000
0010
,
0001
0000
1000
0000
,
0100
0000
0001
0000
,
0010
0100
0020
0030
,
0001
0100
0010
0000
,
0001
0100
0010
0000
,
0001
0100
0020
0030
,
1000
1001
0001
0000
,
0001
0000
0010
0000
,
0010
0000
1000
0000
,
1000
0000
0100
0000
,
0100
0010
0110
0000
,
0000
0000
0000
0000
,
0000
0000
1001
0000
;

//---------------dance-single - ----------------
#NOTES:
     dance-single:
     :
     Medium:
     8:
     0.413043,0.498193,0.222408,0.155685,0.000000,260.000000,240.000000,20.000000,14.000000,0.000000,0.000000,0.413043,0.498193,0.222408,0.155685,0.000000,260.000000,240.000000,20.000000,14.000000,0.000000,0.000000:
0000
0000
0000
0000
,
0000
0000
0000
0000
,
0000
0000
1000
0100
,
1000
0000
0100
0000
1000
0000
0000
0001
,
0000
1001
0001
0100
,
0001
0100
0202
0303
,
1000
0000
0001
1000
0000
1000
0001
0000
,
0100
0010
1000
0100
,
0010
0001
0100
0010
,
0100
0001
2000
3000
,
0010
0110
0100
0001
,
0100
0010
0100
0001
,
0100
0010
1000
1000
,
0001
0000
0001
0000
1000
0001
1000
0000
,
0001
1001
1000
0010
,
0100
0010
1000
0010
,
0100
0100
0001
0010
,
0100
0000
1000
0000
0010
0100
0010
0000
,
1000
0000
0000
0100
0010
0000
0000
0010
,
0001
0000
0000
0001
0100
0000
0000
0100
,
0010
0000
0000
0010
1000
0000
0000
1000
,
0100
1000
0002
0000
,
1003
0001
0101
0100
,
0010
1000
1100
1000
,
0001
0010
0011
0001
,
0100
0010
1010
0010
,
1000
0000
0001
0200
0000
0000
0000
0000
,
0310
0000
0010
1000
0000
0000
1000
0100
,
0000
0100
0010
0010
0001
0000
0000
0101
,
0000
0000
0001
0000
1000
0000
0000
1100
,
0000
1000
0001
0100
,
0020
0030
0100
0001
,
0020
0030
0001
0100
,
0010
1000
0100
0010
,
1001
0000
1000
0010
,
0200
0300
0010
1000
,
0200
0300
1000
0010
,
1000
0010
1000
0001
,
0011
0001
0100
0001
,
0101
0000
1000
0000
0100
1000
0010
0000
,
0100
0110
0001
0010
,
0100
0000
1000
0000
0010
0000
0100
0010
,
0000
0010
1000
0000
0100
0000
0010
0000
,
0001
0000
0100
0000
0010
0000
1000
0001
,
0010
0000
0001
1000
0000
0001
0100
0000
,
0010
1000
1100
0000
,
0010
0001
0101
0000
,
0010
1000
1100
0010
,
0001
0100
0001
0000
1000
0000
0100
0000
,
0010
0000
0100
0000
1000
0000
0010
0100
,
0000
0100
0010
0000
1000
0000
0001
0000
,
0010
0000
0100
0000
1000
0010
0100
0000
,
0010
0100
0000
0001
0100
0000
0110
0000
,
0010
1000
0100
0010
,
0001
0000
1000
0010
0000
0010
1000
0000
,
0001
0000
0010
0100
0000
0100
0020
0000
,
0030
1001
1000
1000
,
0010
0010
0001
0001
,
0100
0000
0100
0000
1000
0010
1000
0000
,
0001
0010
0001
0000
0100
0010
0100
0000
,
0001
0010
0100
0000
2100
0000
0000
0000
,
0000
0000
0000
0000
3020
0000
0000
0230
,
0000
0000
0000
0002
0000
0000
0000
0000
,
0000
0000
0000
0000
,
0303
0000
0000
0000
;

//---------------dance-single - ----------------
#NOTES:
     dance-single:
     :
     Hard:
     12:
     0.621153,0.640534,0.444815,0.200167,0.022241,391.000000,351.000000,40.000000,18.000000,0.000000,0.000000,0.621153,0.640534,0.444815,0.200167,0.022241,391.000000,351.000000,40.000000,18.000000,0.000000,0.000000:
0000
0000
0000
0000
,
0000
0000
0000
0000
,
0000
0000
1000
0010
,
1000
0000
0100
0000
1000
0000
0010
0110
,
0000
1001
0001
0010
,
0001
0000
0100
0000
0001
0000
0010
0001
,
0100
0000
0010
0110
0000
1000
0001
0000
,
0001
1000
0100
0010
0000
0011
0000
0210
,
0000
0000
1300
1010
0000
0100
0001
0010
,
0100
1000
0010
0100
0000
0100
0100
0010
,
1000
0001
1001
0000
1000
0100
0010
0001
,
1000
0100
0010
0000
0012
0000
0000
0100
,
0103
0000
0101
0000
0001
0010
0100
1000
,
0001
0010
0100
0000
0100
1000
0010
0000
,
1010
0000
0101
0000
0001
0010
0001
0000
,
0100
0010
0100
0000
0001
0010
0100
1000
,
0000
0010
0100
0000
0010
1000
0100
0000
,
0010
0001
0100
0000
0010
1000
0001
0010
,
0000
0100
1000
0000
0010
0100
0001
0100
,
0020
0000
1030
0000
1000
0100
0010
0001
,
0200
0000
0310
0000
0010
1000
0001
0010
,
0001
1000
0100
0100
0020
0000
0000
0130
,
1000
0010
0100
0001
0011
0000
0001
0100
,
1000
0000
0100
0001
0010
0000
0100
1000
,
0010
0000
0100
0000
0110
0000
1000
0100
,
0001
0000
0100
1000
0010
0000
0100
0001
,
0010
0100
1000
0020
0000
0000
0000
0000
,
0130
0000
0100
0001
0000
0001
1000
0100
,
0000
0100
1000
0001
0101
0000
1000
1100
,
0000
0001
0100
0010
1010
0000
0100
0101
,
0000
0000
0001
0000
1000
0000
0010
0100
0020
0000
0000
0000
1000
0000
0000
0000
,
0001
1030
0200
0001
,
1000
0000
0301
0000
0001
0010
0100
0000
,
1000
0010
0100
0000
0001
0010
0100
1000
,
0010
0110
2000
0010
,
0100
3010
0002
0100
,
0010
0000
0103
0000
0001
1000
0100
0000
,
1000
0001
0100
0000
0001
1000
0100
1000
,
0001
1000
0100
1000
0001
0001
0100
0100
,
0010
0000
0110
0000
0100
0001
1000
0010
,
0100
0001
1000
0010
0110
0000
0101
0000
,
0011
0000
1010
0000
1200
0000
0010
0310
,
0000
0011
0101
1100
,
1010
0000
0011
0000
2001
0000
3100
0010
,
0001
0000
0000
0000
0001
0000
0100
0000
0000
0000
0100
0000
0010
0000
1000
0100
,
1000
0000
0001
0000
0010
0000
0100
0000
0000
0000
0100
0000
1000
0000
0010
1000
,
0010
0000
0100
0000
0001
0000
0010
0000
0000
0000
0010
0000
0001
0000
0100
0001
,
0100
0010
1000
0100
0000
0100
1000
0100
,
0011
0000
1100
0000
1000
0010
1000
0001
,
0010
0001
1000
0100
1000
0001
0100
0001
,
1000
0100
0010
0000
0010
0001
0100
0010
,
1000
0001
0010
0100
1000
0010
0100
0001
,
1000
0100
0010
0010
0000
0010
0001
0100
,
0010
1000
0001
0011
0000
1010
0000
1100
,
0000
0101
0001
2000
0000
3100
0010
0001
,
0100
0010
1000
1000
0000
0001
0010
0100
,
1000
0010
0110
0000
0100
0001
0100
1000
,
0100
0001
0100
1000
0100
0001
0010
0100
,
2000
0000
3010
0000
0010
0100
0001
0100
,
0010
0010
0010
0000
1010
0000
0101
0001
,
0010
0100
1000
0010
0210
0000
0000
0000
,
0000
0000
0000
0000
0302
0000
0000
0023
,
0000
0000
0000
2000
0000
0000
0000
0000
,
0000
0000
0000
0000
,
3030
0000
0000
0000
;

//---------------dance-double - ----------------
#NOTES:
     dance-double:
     :
     Easy:
     5:
     0.235117,0.347512,0.100083,0.055602,0.000000,148.000000,139.000000,9.000000,5.000000,0.000000,0.000000,0.235117,0.347512,0.100083,0.055602,0.000000,148.000000,139.000000,9.000000,5.000000,0.000000,0.000000:
00000000
00000000
00000000
00000000
,
00000000
00000000
00000000
00000000
,
00000000
00000000
00001000
00000000
,
00010000
00000000
00000100
00000000
,
00000100
00000000
00010000
00000000
,
00001000
00000000
01000000
00000000
,
01000000
00000000
00001000
00000000
,
00010000
00000000
00000010
00000000
,
00010000
00000000
00001000
00000000
,
00100000
00000000
00001000
00000000
,
00010000
00001000
00011000
00000000
,
00010000
00000000
00000100
00000000
,
00001000
00000000
00000010
00000100
,
00000001
00000100
00000010
00000010
,
00000010
00001001
00001000
00000000
,
00000100
00000000
00010000
00000000
,
00001000
00000000
00100000
00000000
,
00010000
00000000
01000000
00000000
,
00100000
00000000
10000000
10000000
,
10000000
00000000
00010000
00010000
,
00010000
00000000
01000000
00001000
,
00010000
00000000
00011000
00000000
,
00001000
00000000
00100000
00000000
,
00010000
00000000
01000000
00000000
,
00001000
00000000
00010000
00000000
,
00000100
00000000
00001000
00000000
,
00000010
00000000
00000100
00000000
,
00000001
00000000
00001000
00000100
,
00010000
00001000
00200000
00000000
,
00300000
00000000
00020000
00000000
,
00030000
10000000
10100000
00000000
,
00100000
00000000
00010000
00000000
,
00001000
00000000
00010000
00000000
,
00100000
00000000
00010000
00000000
,
00001000
00000000
00000010
00000000
,
00001000
00000000
00010000
00000000
,
00001000
00000000
00000010
00000000
,
00000001
00000000
00000100
00000000
,
00001000
00000000
00010000
00000000
,
00100000
00000000
10000000
01000000
,
00100000
00110000
00001000
00000000
,
00010000
00000000
00001000
00000000
,
00100000
00000000
00010000
00000000
,
01000000
00000000
00001000
00000000
,
00010000
00000000
00000200
00000300
,
00001000
00000010
00001000
00000000
,
00000001
00000010
00000001
00000000
,
00001000
00000010
00001000
00000010
,
00010000
00011000
01000000
00000000
,
00010000
00000000
00100000
00000000
,
00001000
00000000
00010000
00000000
,
00000100
00000000
00001000
00000000
,
00000010
00000000
00020000
00030000
,
00001000
00010000
00100000
00000000
,
00010000
00100000
01000000
00000000
,
00100000
10000000
02000000
03000000
,
00100000
01100000
00010000
00000000
,
10000000
00000000
00100000
00000000
,
00010000
00000000
00001000
00000000
,
00000100
00000000
00000001
00000000
,
00000010
00000100
00000110
00000000
,
00000000
00000000
00000000
00000000
,
00000000
00000000
00001001
00000000
;

//---------------dance-double - ----------------
#NOTES:
     dance-double:
     :
     Medium:
     8:
     0.392390,0.391437,0.222408,0.177926,0.000000,247.000000,227.000000,20.000000,16.000000,0.000000,0.000000,0.392390,0.391437,0.222408,0.177926,0.000000,247.000000,227.000000,20.000000,16.000000,0.000000,0.000000:
00000000
00000000
00000000
00000000
,
00000000
00000000
00000000
00000000
,
00000000
00000000
00001000
00010000
,
00001000
00000000
00010000
00000000
00001000
00000000
00000000
00000100
,
00000000
00000101
00001000
00000100
,
00001000
00000100
00020000
00030000
,
00001000
00000000
00011000
01000000
00000000
00000000
01000000
00000000
,
00100000
10000000
01000000
00100000
,
00010000
01000000
00001000
00010000
,
00000100
00001000
00000002
00000003
,
00000100
00000110
00000010
00010000
,
00000010
00001000
00000010
00010000
,
00000010
00001000
00000100
00000100
,
00010000
00000000
00010000
00000000
00001000
00010000
00001000
00000000
,
01000000
01100000
00100000
10000000
,
01000000
00100000
00010000
01000000
,
00200000
00300000
10000000
00010000
,
01000000
00000000
00001000
00000000
00010000
00000100
00010000
00000000
,
00000010
00000000
00000100
00000001
00000100
00000000
00000000
00000001
,
00001000
00000000
00000000
00000010
00010000
00000000
00000000
00001000
,
00100000
00000000
00000000
00010000
10000000
00000000
00000000
00100000
,
01000000
00100000
20000000
00000000
,
31000000
00100000
00010000
01000000
,
00001000
00010000
00000100
00000010
,
00000001
00000100
00001000
00010000
,
01000000
10000000
00100000
01000000
,
00010000
00000000
00100000
00002000
00000000
00000000
00000000
00000000
,
00013000
00000000
00010000
00000100
00000000
00000000
00010000
00001000
,
00000000
00010000
00000100
00000000
00001100
00000000
00000000
00001001
,
00000000
00000000
00001000
00000000
00000100
00000000
00000000
00010100
,
00000000
00011000
00010000
01000000
,
20000000
30000000
10000000
01000000
,
00020000
00030000
00010000
01000000
,
10000000
00100000
01000000
00010000
,
10010000
00000000
10000000
01000000
,
00020000
00030000
00001000
00000010
,
00000002
00000003
00000100
00000010
,
00001000
00000100
00010000
00001000
,
00011000
00000000
00010000
00000100
,
00001100
00000000
00001000
00000001
,
00000100
00000110
00000010
00010000
,
00001000
00000000
00100000
00000000
01000000
00000000
11000000
00010000
,
00000000
00010000
01000000
00001000
,
00010000
00000000
00000100
00000000
00000010
00000000
00000001
00000100
,
00000001
00000000
00001100
00000010
00000000
00000000
00000100
00000000
,
00000001
00000010
00002000
00003000
,
00010000
01000000
20000000
30000000
,
00100000
01000000
01010000
00010000
,
00100000
00001000
00010000
00000000
00001000
00000000
00000010
00000000
,
00000001
00000000
00000010
00000000
00001000
00000000
00011000
00000100
,
00000000
00000010
00000001
00000100
,
00001000
00000000
00010000
00000000
00100000
10000000
01000000
00000000
,
00100000
00000000
00110000
01000000
00000000
00000000
00100000
00000000
,
10000000
00010000
01000000
00001000
,
00010000
00000000
00011000
00000100
00000000
00000000
00001000
00000000
,
00000010
00000000
00000100
00000001
00000000
00000100
00000020
00000000
,
00000030
00001010
00001000
00000100
,
00010000
00001000
00100000
01000000
,
10000000
00100000
00010000
00001000
,
00000010
00001000
00010000
00100000
,
00010000
00001000
00000100
00000000
00000120
00000000
00000000
00000000
,
00000000
00000000
00000000
00000000
00020030
00000000
00000000
00032000
,
00000000
00000000
00000000
02000000
00000000
00000000
00000000
00000000
,
00000000
00000000
00000000
00000000
,
03003000
00000000
00000000
00000000
;

//---------------dance-double - ----------------
#NOTES:
     dance-double:
     :
     Hard:
     12:
     0.597323,0.640534,0.389213,0.322491,0.000000,376.000000,341.000000,35.000000,29.000000,0.000000,0.000000,0.597323,0.640534,0.389213,0.322491,0.000000,376.000000,341.000000,35.000000,29.000000,0.000000,0.000000:
00000000
00000000
00000000
00000000
,
00000000
00000000
00000000
00000000
,
00000000
00000000
00001000
01000000
,
00001000
00000000
00010000
00000000
00000100
00000000
00010000
00011000
,
00000000
00011000
00001000
00100000
,
00001000
00000000
00010000
00000000
00000010
00000000
00010000
00001000
,
01000000
00000000
00100000
01000000
00000000
00100000
10000000
00000000
,
01000000
00100000
00001000
00010000
00000000
00010100
00000000
01002000
,
00000000
00000000
00013000
00011000
00000000
00010000
00000100
00001000
,
00000100
00000010
00000001
00000100
00000000
00000010
00000010
00010000
,
00001000
00010000
00011000
00000000
00001000
00010000
00100000
01000000
,
00001000
00010000
00100000
00000000
20100000
00000000
00000000
01000000
,
31000000
00000000
01010000
00000000
00010000
00100000
01000000
10000000
,
00100000
00010000
00001000
00000000
00010000
00000100
00001000
00000000
,
00001100
00000000
00000011
00000000
00000001
00001000
00000100
00000000
,
00001000
00000001
00000100
00000000
00000001
00001000
00000100
00010000
,
00001000
00000000
01000000
00000000
00100000
10000000
01000000
00000000
,
00100000
00010000
01000000
00000000
00100000
10000000
01000000
00100000
,
00010000
00000000
01000000
00000000
00001000
00010000
00100000
00010000
,
00002000
00000000
00003010
00000000
00001000
00010000
01000000
00010000
,
00002000
00000000
00003100
00000000
00000100
00000001
00000010
00000100
,
00001000
00000010
00010000
00001000
00011000
00000000
00000000
00010000
,
01000000
10000000
00100000
01000000
01100000
00000000
00100000
10000000
,
01000000
00000000
00100000
00010000
01000000
00000000
00001000
00010000
,
00000100
00000000
00000010
00000000
00000110
00000000
00000100
00001000
,
00000010
00000000
00000100
00000001
00000010
00000000
00001000
00010000
,
00001000
00100000
01000000
20000000
00000000
00000000
00000000
00000000
,
30100000
00000000
00100000
00010000
00000000
00100000
01000000
10000000
,
00000000
01000000
00010000
00100000
00110000
00000000
00000000
00101000
,
00000000
00001000
00010000
00000100
00001100
00000000
00000000
00001010
,
00000000
00000010
00000100
00000100
00000002
00000000
00002003
00000000
,
00003020
00020030
00032000
00203000
,
02300000
00000000
13000000
00000000
10000000
00100000
01000000
00000000
,
10000000
01000000
00100000
00000000
10000000
00100000
01000000
10000000
,
01000000
01010000
00020000
00230000
,
00302000
00023000
00030200
00002300
,
00003002
00000000
00000103
00000000
00000100
00000010
00000001
00000000
,
00000010
00000100
00001000
00000000
00010000
00001000
00010000
01000000
,
10000000
00000000
10100000
00000000
00100000
00010000
00001000
00000010
,
00000001
00000000
00000101
00000000
00001000
00000100
00000010
00000001
,
00001000
00000100
00000010
00000001
00000101
00000000
00001000
00000000
,
00001100
00000000
00010000
00000000
00012000
00000000
00100000
00103000
,
00000000
01100000
10000000
10100000
,
00010000
00000000
00110000
00000000
00002000
00000000
00013000
00001000
,
00000010
00000000
00000001
00000100
00000000
00000100
00000010
00001000
,
00000100
00000010
00001000
00010000
00000000
00000100
00000010
00001000
,
00010000
00000100
00000010
00000001
00000000
00000100
00001000
00010000
,
01000000
10000000
00100000
01000000
00000000
00100000
10000000
01000000
,
11000000
00000000
00110000
00000000
00100000
00001000
00010000
00100000
,
10000000
00100000
01000000
00010000
01000000
10000000
01000000
00100000
,
00010000
00001000
00000010
00000000
00000001
00000100
00000001
00000010
,
00001000
00000010
00000100
00001000
00000010
00010000
00001000
00100000
,
01000000
00010000
00001000
00000010
00000000
00000010
00000001
00000100
,
00000010
00001000
00000100
00010100
00000000
00001000
00000000
01001000
,
00000000
01000000
00100000
20000000
00000000
31000000
00100000
00010000
,
01000000
00001000
00010000
00011000
00000000
00001000
00000100
00000010
,
00001000
00000100
00000020
00000000
00000031
00000100
00000001
00000000
,
00001000
00000100
00001000
00000000
00000100
00010000
00001000
00100000
,
02000000
00000000
13000000
00000000
10000000
01000000
00100000
00010000
,
01000000
00001000
00011000
00000000
00101000
00000000
00010010
00000000
,
00010000
00001000
00000100
00000001
00000021
00000000
00000000
00000000
,
00000000
00000000
00000000
00000000
00002030
00000000
00000000
00023000
,
00000000
00000000
00230000
20000000
00000000
00000000
00000000
00000000
,
00000000
00000000
00000000
00000000
,
30300000
00000000
00000000
00000000
;
