#TITLE:Domino;
#SUBTITLE:;
#ARTIST:LUCY;
#TITLETRANSLIT:;
#SUBTITLETRANSLIT:;
#ARTISTTRANSLIT:;
#GENRE:K-POP;
#CREDIT:;
#BANNER:Domino.png;
#BACKGROUND:Domino-bg.png;
#LYRICSPATH:;
#CDTITLE:;
#MUSIC:Domino.ogg;
#OFFSET:0.250000;
#SAMPLESTART:53.328571;
#SAMPLELENGTH:11.195522;
#SELECTABLE:YES;
#DISPLAYBPM:150.000000;
#BPMS:0.000000=75.03,19.000000=150.06;
#STOPS:113.000000=0.4
;
#BGCHANGES:;
#KEYSOUNDS:;
#ATTACKS:;

//---------------dance-single - ----------------
#NOTES:
     dance-single:
     :
     Beginner:
     1:
     0.071138,0.170936,0.009576,0.000000,0.000000,52.000000,51.000000,1.000000,0.000000,0.000000,0.000000,0.071138,0.170936,0.009576,0.000000,0.000000,52.000000,51.000000,1.000000,0.000000,0.000000,0.000000:
0000
0000
0000
0000
,
0000
0000
0000
0000
,
0000
0000
0000
0000
,
0000
0000
0000
0000
,
0000
0000
0000
1000
,
0000
0000
0000
1000
,
0000
0000
0000
0001
,
0000
0000
0000
0001
,
0000
0000
0000
1000
,
0000
0000
0000
1000
,
0000
0000
0000
0001
,
0000
0000
0000
0001
,
0000
0000
0000
1000
,
0000
1000
0000
0000
,
0000
0000
0000
0001
,
0000
0001
0000
0000
,
0000
0000
0000
1000
,
0000
1000
0000
0000
,
0000
0000
0000
0001
,
0000
0000
0000
0001
,
0000
0000
0000
0001
,
0000
0000
0000
0000
,
0000
0000
0000
0000
,
0000
0000
0000
0000
,
0000
0000
0000
1000
,
0000
0000
0000
1000
,
0000
0000
0000
1000
,
0000
1000
0000
1000
,
1000
1000
0001
0000
,
0000
0000
0000
0000
,
0000
0000
1000
0000
,
0000
0000
0000
0000
,
0000
0000
0001
0000
,
0000
0000
0000
0000
,
0000
0000
1000
0000
,
0001
0000
1000
0000
,
0001
0000
0001
0000
,
0000
0000
0000
0000
,
0000
0000
1000
0000
,
0000
0000
0000
0000
,
0000
0000
0001
0000
,
0000
0000
0000
0000
,
0000
0000
1000
0000
,
0001
0000
1000
0000
,
0001
0000
0001
0000
,
0000
0000
1000
0000
,
0000
0000
0001
0000
,
0000
0000
1000
0000
,
0000
0000
0001
0000
,
0000
0000
1000
0000
,
0000
0000
0001
0000
,
0000
0000
1000
0000
,
0000
0000
0001
0000
,
0000
0000
0000
0000
,
0000
0000
1000
0000
,
0000
0000
0000
0000
,
0000
0000
0001
0000
,
0000
0000
0000
0000
,
0000
0000
1000
0000
,
0000
0000
1001
0000
;

//---------------dance-single - ----------------
#NOTES:
     dance-single:
     :
     Easy:
     4:
     0.165532,0.256404,0.047881,0.028729,0.000000,121.000000,116.000000,5.000000,3.000000,0.000000,0.000000,0.165532,0.256404,0.047881,0.028729,0.000000,121.000000,116.000000,5.000000,3.000000,0.000000,0.000000:
0000
0000
0000
0000
,
0000
0000
0000
0000
,
0000
0000
0000
0000
,
0000
0000
0000
0000
,
0000
0000
0000
1000
,
0000
0001
0000
1000
,
0000
0001
0000
1000
,
0001
1000
0000
0001
,
1000
0001
0000
0001
,
0000
1000
0000
0001
,
0000
1000
0000
0001
,
1000
0001
0000
1000
,
0001
1000
0000
1000
,
0000
0100
0000
0010
,
0000
0001
0000
0001
,
0000
0010
0000
0100
,
0000
1000
0000
1000
,
0000
0010
0000
0100
,
0000
0001
0000
0001
,
0000
0100
0000
0010
,
0000
1000
0000
1001
,
0000
0000
0000
0000
,
0000
0000
0000
0000
,
0000
0000
0000
0000
,
0000
0000
0000
0001
,
0000
0010
0000
0100
,
0000
1000
0000
0010
,
0000
0010
0000
0010
,
0010
0010
0100
0010
,
0100
0010
0000
0000
,
1000
0000
0010
0100
,
0010
0100
0000
0000
,
0001
0000
0100
0010
,
0100
0010
0000
0000
,
1000
0000
0010
0100
,
0001
1000
0010
0100
,
0110
0000
0001
1000
,
0001
1000
0000
0000
,
0010
0000
1000
0001
,
1000
0001
0000
0000
,
0100
0000
0001
1000
,
0001
1000
0000
0000
,
0010
0000
1000
0000
,
0001
0000
0200
0000
,
0300
0000
0010
0000
,
1000
0000
0100
0000
,
0010
0000
0001
0000
,
0100
0000
0010
0000
,
0110
0000
0100
0000
,
0001
0000
0010
0000
,
0100
0000
1000
0000
,
0010
0000
0220
0000
,
0330
0000
0100
0000
,
0001
0000
1000
0000
,
0010
0000
0100
0000
,
0001
0000
1000
0000
,
0010
0000
0100
0000
,
0001
0000
1000
0000
,
0010
0000
0100
0000
,
0001
0000
1001
0000
;

//---------------dance-double - ----------------
#NOTES:
     dance-double:
     :
     Easy:
     5:
     0.166900,0.256404,0.057458,0.028729,0.000000,122.000000,116.000000,6.000000,3.000000,0.000000,0.000000,0.166900,0.256404,0.057458,0.028729,0.000000,122.000000,116.000000,6.000000,3.000000,0.000000,0.000000:
00000000
00000000
00000000
00000000
,
00000000
00000000
00000000
00000000
,
00000000
00000000
00000000
00000000
,
00000000
00000000
00000000
00000000
,
00000000
00000000
00000000
00001000
,
00000000
00010000
00000000
00001000
,
00000000
00010000
00000000
00001000
,
00010000
00001000
00000000
00010000
,
00001000
00010000
00000000
00010000
,
00000000
00001000
00000000
00010000
,
00000000
00001000
00000000
00010000
,
00001000
00010000
00000000
00001000
,
00010000
00001000
00000000
00100000
,
00000000
00010000
00000000
01000000
,
00000000
00001000
00000000
00010000
,
00000000
00000100
00000000
00001000
,
00000000
00000010
00000000
00010000
,
00000000
00001000
00000000
00100000
,
00000000
00010000
00000000
01000000
,
00000000
00001000
00000000
00010000
,
00000000
00001000
00000000
00011000
,
00000000
00000000
00000000
00000000
,
00000000
00000000
00000000
00000000
,
00000000
00000000
00000000
00000000
,
00000000
00000000
00000000
00010000
,
00000000
00001000
00000000
00000100
,
00000000
00000001
00000000
00000010
,
00000000
00001000
00000000
00010000
,
00010000
00010000
00001000
00100000
,
00010000
01000000
00000000
00000000
,
00001000
00000000
00010000
00000100
,
00001000
00000010
00000000
00000000
,
00010000
00000000
00001000
00100000
,
00010000
01000000
00000000
00000000
,
00001000
00000000
00010000
00000100
,
00001000
00000010
00010000
00001000
,
00011000
00000000
00010000
01000000
,
10000000
00010000
00000000
00000000
,
00100000
00000000
00001000
00000010
,
00000001
00001000
00000000
00000000
,
00000100
00000000
00010000
01000000
,
10000000
00010000
00000000
00000000
,
01000000
00000000
00001000
00000000
,
00000100
00000000
00000002
00000000
,
00000003
00000000
00001001
00000000
,
00001000
00000000
00000010
00000000
,
00010000
00000000
00001000
00000000
,
00100000
00000000
00010000
00000000
,
10010000
00000000
10000000
00000000
,
00100000
00000000
01000000
00000000
,
00001000
00000000
00010000
00000000
,
00000100
00000000
00000220
00000000
,
00000330
00000000
00000001
00000000
,
00000100
00000000
00001000
00000000
,
00010000
00000000
00100000
00000000
,
10000000
00000000
01000000
00000000
,
00010000
00000000
00001000
00000000
,
00000010
00000000
00000001
00000000
,
00000100
00000000
00001000
00000000
,
00010000
00000000
00011000
00000000
;

//---------------dance-single - ----------------
#NOTES:
     dance-single:
     :
     Hard:
     11:
     0.414515,0.569787,0.430931,0.392626,0.047881,303.000000,258.000000,45.000000,41.000000,0.000000,0.000000,0.414515,0.569787,0.430931,0.392626,0.047881,303.000000,258.000000,45.000000,41.000000,0.000000,0.000000:
// measure 0
0000
0000
0000
0000
,  // measure 1
0000
0000
0000
0000
,  // measure 2
0000
0000
0000
0000
,  // measure 3
0000
0000
0000
0000
,  // measure 4
0000
0000
0000
1001
,  // measure 5
1000
0000
0010
0000
0000
0000
0000
0000
0010
0100
0010
0000
0000
0000
0000
0000
,  // measure 6
0100
0000
0001
0000
0000
0000
0000
0000
0001
1000
0001
0000
0000
0000
1000
0000
,  // measure 7
0100
0010
0001
1000
0100
0010
0220
0000
,  // measure 8
0000
0330
1001
0000
,  // measure 9
0001
0000
0100
0000
0000
0000
0000
0000
0100
0010
0100
0000
0000
0000
0000
0000
,  // measure 10
0010
1000
0000
0000
1000
0001
0000
0000
,  // measure 11
0201
0000
0320
0000
1030
0200
0000
0310
,  // measure 12
0002
0003
0101
1010
,  // measure 13
0110
0000
0100
0001
0020
0000
0000
0130
,  // measure 14
1000
0100
0010
0001
0100
0000
1100
0000
,  // measure 15
0011
0000
0010
0100
2000
0000
0000
0000
,  // measure 16
3010
0200
0000
0000
0301
0010
0011
0000
,  // measure 17
1100
0000
1000
0010
0200
0000
0000
0301
,  // measure 18
0010
0100
1000
0010
0100
0002
0000
0000
,  // measure 19
0103
2000
0000
0000
3100
0020
0000
0000
,  // measure 20
0000
0000
0030
2002
,  // measure 21
0000
0000
0000
0000
,  // measure 22
0000
0000
0000
0000
,  // measure 23
0000
0000
0000
0000
,  // measure 24
0000
0000
3003
0220
,  // measure 25
0330
0000
2002
0000
3003
1010
0000
0101
,  // measure 26
1100
0022
0033
2020
,  // measure 27
3030
0202
0303
1100
,  // measure 28
0011
0000
1001
0000
0001
0100
1000
0100
,  // measure 29
0001
0100
2000
0000
0000
3010
0001
0000
,  // measure 30
0101
0000
1010
0000
1000
0010
0001
0010
,  // measure 31
1000
0010
0002
0000
0000
0103
1000
0010
,  // measure 32
0110
0000
1001
0000
1000
0100
0001
0010
,  // measure 33
1000
0100
0002
0000
0000
0013
1000
0000
,  // measure 34
1100
0000
0000
0000
0011
0000
0000
0000
0001
0010
0100
0000
1000
0010
0100
0000
,  // measure 35
0001
0010
0100
0000
1000
0000
0010
0000
0100
0000
0001
0000
0010
0000
0100
0000
,  // measure 36
1000
0000
2002
3003
0001
0100
1000
0010
,  // measure 37
0001
0100
2000
0000
0000
3010
0001
0000
,  // measure 38
0100
0010
0110
0000
1000
0010
0001
0100
,  // measure 39
1000
0010
0002
0000
0000
0000
0103
1000
,  // measure 40
0010
0000
0110
0000
1000
0100
0001
0010
,  // measure 41
1000
0100
0002
0000
0000
0013
1000
0000
,  // measure 42
0100
0010
0220
0000
0330
0000
1100
0000
,  // measure 43
0011
0000
0001
0100
0000
1000
0020
0000
,  // measure 44
0030
0000
0000
0000
0110
0000
0000
0000
2001
0000
0000
0000
0000
0000
3010
0100
,  // measure 45
0010
0100
0001
0010
0100
1000
0010
0100
,  // measure 46
0001
0000
0011
0000
0010
0100
1000
0010
,  // measure 47
0100
0000
0001
0000
1000
0000
0100
0000
0020
0000
0000
0000
0000
0000
0031
1000
,  // measure 48
0002
0000
0000
0000
0003
0000
0000
0000
0210
0000
0000
0000
0000
0000
0301
0010
,  // measure 49
0001
0010
0100
1000
0010
0100
0001
1000
,  // measure 50
0100
0000
1100
0000
1000
0010
0100
0001
,  // measure 51
0010
0000
0100
0010
0100
0000
1000
0000
0020
0000
0000
0000
0000
0000
0000
0000
,  // measure 52
0000
0030
0110
0001
,  // measure 53
0100
0000
1000
0010
0000
0001
0000
0100
,  // measure 54
0000
1000
0010
0000
0110
0000
1000
0000
,  // measure 55
0100
0001
0000
0010
0000
1000
0000
0100
,  // measure 56
0000
0001
0010
0000
0110
0000
0001
0000
,  // measure 57
0010
0000
1000
0100
0000
0001
0000
0010
,  // measure 58
0000
1000
0100
0000
0110
0000
1000
0000
,  // measure 59
0010
0001
0000
0100
1100
0000
0000
0000
;

//---------------dance-single - ----------------
#NOTES:
     dance-single:
     :
     Medium:
     9:
     0.329697,0.427340,0.268135,0.325593,0.009576,241.000000,213.000000,28.000000,34.000000,0.000000,0.000000,0.329697,0.427340,0.268135,0.325593,0.009576,241.000000,213.000000,28.000000,34.000000,0.000000,0.000000:
0000
0000
0000
0000
,
0000
0000
0000
0000
,
0000
0000
0000
0000
,
0000
0000
0000
0000
,
0000
0000
0000
1001
,
1000
0010
0000
0000
0001
0100
0000
0000
,
1000
0010
0000
0000
0001
0100
0000
0100
,
0001
0010
0100
2000
,
0000
0000
3001
0000
,
0001
0010
0000
0000
1000
0100
0000
0000
,
0001
0010
0000
0000
1000
0100
0000
0000
,
1000
0000
0010
0000
0100
0001
0000
0001
,
0020
0000
0130
0110
,
1001
0000
1000
0001
1000
0000
0000
0010
,
0100
0000
0001
1000
0001
0000
1001
0000
,
0110
0000
0010
0100
0010
0000
0000
0000
,
1000
0001
0000
0000
0001
1000
0001
0000
,
1001
0000
0100
0010
0100
0000
0000
0010
,
0100
0010
1000
0000
0001
0100
0000
0000
,
1000
0010
0000
0000
0002
2000
0000
0000
,
0000
0000
3003
0220
,
0000
0000
0000
0000
,
0000
0000
0000
0000
,
0000
0000
0000
0000
,
0000
0000
0330
1010
,
0000
0000
0101
0000
0000
0100
0000
0010
,
0100
0110
0000
0011
,
0000
1100
0000
1010
,
0101
1001
0002
0203
,
0302
0000
0023
0000
0000
0031
0100
0000
,
1100
1001
2000
3020
,
2030
0000
3200
0000
0000
1300
0010
0100
,
0001
1001
2000
3200
,
0320
0000
0032
0000
0000
0103
0010
0000
,
0100
0000
0000
0000
0110
0000
0000
0000
0010
1000
0000
0000
0001
0100
0000
0000
,
0010
1000
0100
0000
0010
0001
0100
0000
,
0010
0110
0200
0302
,
0203
0000
2300
0000
0000
3100
0010
0000
,
0100
0001
1001
0000
0020
0000
0032
0000
,
0023
0000
2030
0000
0000
0000
3100
0010
,
0100
1001
0200
0302
,
0023
0000
2030
0000
0000
3100
0001
0000
,
0100
0010
0100
0000
0000
0000
1100
0000
,
0011
0000
0001
0100
0000
1000
0020
0000
,
0000
0000
0130
0000
1001
0000
0000
0001
,
0010
0100
1000
0000
0010
0000
0100
0000
,
0001
0000
1000
0000
0100
0010
0001
0000
,
1000
0100
0010
0000
0002
0000
0000
1000
,
1003
0000
0000
0000
0110
0000
0000
0100
,
0001
1000
0010
0000
0100
0000
0001
0000
,
0010
0000
0100
0000
1000
0010
0100
0000
,
0001
0100
0010
0000
0220
0000
0000
0000
,
0000
0330
0010
1000
,
0100
0000
0010
0001
0000
0100
0000
1000
,
0000
0100
0010
0000
1000
0000
0001
0000
,
0010
1000
0000
0010
0000
0100
0000
1000
,
0000
0010
0100
0000
1000
0000
0100
0000
,
0001
0000
0010
0100
0000
1000
0000
0010
,
0000
0001
0010
0000
1000
0000
0100
0000
,
0010
0100
0000
0010
0110
0000
0000
0000
;

//---------------dance-double - ----------------
#NOTES:
     dance-double:
     :
     Medium:
     7:
     0.318752,0.370362,0.210678,0.105339,0.000000,233.000000,211.000000,22.000000,11.000000,0.000000,0.000000,0.318752,0.370362,0.210678,0.105339,0.000000,233.000000,211.000000,22.000000,11.000000,0.000000,0.000000:
00000000
00000000
00000000
00000000
,
00000000
00000000
00000000
00000000
,
00000000
00000000
00000000
00000000
,
00000000
00000000
00000000
00000000
,
00000000
00000000
00000000
00011000
,
00010000
00000010
00000000
00000000
00010000
00001000
00000000
00000000
,
00010000
00000010
00000000
00000000
00010000
00001000
00000000
00001000
,
00010000
00100000
10000000
02000000
,
00000000
00000000
03100000
00000000
,
00100000
00010000
00000000
00000000
01000000
00001000
00000000
00000000
,
00010000
00000010
00000000
00000000
00001000
00000100
00000000
00000000
,
00000010
00000000
00000001
00000000
00000100
00001000
00000000
00001000
,
00020000
00000000
00031000
00010000
,
00011000
00000000
00001000
00010000
00001000
00000000
00000000
01000000
,
00001000
00000000
00010000
00001000
00010000
00000000
00001000
00000000
,
00011000
00000000
00010000
00001000
00010000
00000000
00000000
00000000
,
00000100
00010000
00000000
00000000
00001000
00010000
00001000
00000000
,
00011000
00000000
00010000
00001000
00010000
00000000
00000000
00000100
,
00001000
00000100
00000010
00000000
00000001
00000100
00000000
00000000
,
00000100
00001000
00000000
00000000
00001000
00020000
00000000
00000000
,
00000000
00000000
00030000
00022000
,
00000000
00000000
00000000
00000000
,
00000000
00000000
00000000
00000000
,
00000000
00000000
00000000
00000000
,
00000000
00000000
00033000
00001000
,
00000000
00000000
00010000
00000000
00000000
00001000
00000000
00010000
,
00001000
00011000
00000000
01001000
,
00000000
00010010
00000000
00101000
,
00010100
00011000
00001000
00010000
,
01000000
00000000
10000000
00000000
00000000
00100000
01000000
00000000
,
00100000
01100000
01000000
00001000
,
00010000
00000000
00000100
00000000
00000000
00001000
00000100
00000010
,
00000100
00000110
00000001
00000100
,
00001000
00000000
00010000
00000000
00000000
00001000
00100000
00000000
,
00010000
01010000
20000000
30020000
,
01030000
00001000
00010000
00000000
00000100
00001000
00000010
00000000
,
00010000
00011000
00001000
00000100
,
00000001
00000000
00000010
00000000
00000000
00000100
00000010
00000000
,
00000001
00001000
00000100
00000000
00010000
00000000
00001000
00000000
,
00100000
00000000
01000000
00000000
00000000
00000000
10000000
00100000
,
01000000
01100000
00100000
00010000
,
00001000
00000000
00000100
00000000
00000000
00000001
00000010
00000000
,
00000100
00000010
00000100
00000000
00000000
00000000
00001100
00000000
,
00011000
00000000
00010000
00001000
00000000
00001000
00200000
00000000
,
00000000
00000000
01300000
00000000
10010000
00000000
00000000
10000000
,
00100000
01000000
00010000
00000000
00100000
00000000
00001000
00000000
,
00010000
00000000
00000100
00000000
00001000
00000100
00000010
00000000
,
00000001
00000010
00000100
00000000
00002000
00000000
00000000
00000001
,
00003001
00000000
00000000
00000000
00000110
00000000
00000000
00000010
,
00010000
00001000
00100000
00000000
01000000
00000000
10000000
00000000
,
00100000
00000000
00010000
00000000
00001000
00100000
00010000
00000000
,
01000000
00001000
00010000
00000000
00022000
00000000
00000000
00000000
,
00000000
00033000
00010000
00001000
,
00000100
00000000
00000001
00000010
00000000
00000001
00000000
00000100
,
00000000
00001000
00010000
00000000
00100000
00000000
10000000
00000000
,
01000000
00100000
00000000
01000000
00000000
00010000
00000000
00001000
,
00000000
00010000
00000100
00000000
00001000
00000000
00000010
00000000
,
00000100
00000000
00000001
00000010
00000000
00001000
00000000
00010000
,
00000000
01000000
10000000
00000000
00100000
00000000
00010000
00000000
,
00001000
00010000
00000000
00010000
00011000
00000000
00000000
00000000
;

//---------------dance-double - ----------------
#NOTES:
     dance-double:
     :
     Hard:
     12:
     0.467868,0.512808,0.363898,0.335169,0.000000,342.000000,304.000000,38.000000,35.000000,0.000000,0.000000,0.467868,0.512808,0.363898,0.335169,0.000000,342.000000,304.000000,38.000000,35.000000,0.000000,0.000000:
00000000
00000000
00000000
00000000
,
00000000
00000000
00000000
00000000
,
00000000
00000000
00000000
00000000
,
00000000
00000000
00000000
00000000
,
00000000
00000000
00000000
00011000
,
00002000
01003000
00000000
00000000
00020000
00030100
00000000
00000000
,
00002000
00103000
00000000
00000000
00020000
00030010
00000000
00010000
,
00001000
00000100
00000001
00000010
00000100
00000010
00000220
00000000
,
00000000
00000330
00001010
00000101
,
00000002
00000013
00000000
00000000
00000200
00001300
00000000
00000000
,
00020000
01030000
00000000
00000000
00200000
10300000
00000000
00000000
,
11000000
00000000
00110000
00000000
00010000
01000000
00000000
00001000
,
00020000
00000000
00000000
00000000
00030100
00000000
00000100
00001000
,
00000100
00000010
00000001
00000100
00000020
00000000
00000000
00010030
,
00001000
00100000
00010000
00100000
01100000
00000000
10000000
00100000
,
01000000
00010000
00100000
01000000
00020000
00000000
00000000
00000000
,
00031000
00000200
00000000
00000000
00000301
00000001
00000010
00000100
,
00001000
00000010
00000100
00001000
00020000
00000000
00000000
00130000
,
00100000
10000000
01000000
00100000
00010000
02000000
00000000
00000000
,
03001000
00020000
00000000
00000000
00030100
00000020
00000000
00000000
,
00000000
00000000
00000000
00000000
00000030
00000000
00000100
00000010
,
00000001
00001000
00000100
00000010
00001000
00010000
00000000
00011000
,
00000000
00001000
01000000
00000000
01100000
00000000
00100000
10000000
,
01000000
00010000
01000000
10000000
00100000
00010000
00100000
10000000
,
01000000
00100000
00020000
00000000
00030000
00000000
01010000
01000000
,
00001000
00010000
00000100
00001000
00000100
00000010
00000001
00000100
,
00000010
00001000
00000002
00000000
00000003
00000000
00000011
00000010
,
00001000
00010000
00100000
10000000
01000000
00100000
00010000
01000000
,
00001000
00010000
00011000
00000000
00001000
00001000
00000100
00000100
,
00000001
00000001
00000020
00000000
00000000
00001030
00010000
00000000
,
00010100
00000000
01001000
00000000
00001000
00001000
00010000
00010000
,
00100000
00100000
20000000
00000000
00000000
31000000
00010000
00001000
,
00101000
00000000
00010010
00000000
00010000
00010000
00001000
00001000
,
00000100
00000100
00000002
00000000
00000000
00000013
00000100
00000000
,
00001100
00000000
01010000
00000000
10000000
10000000
01000000
01000000
,
00100000
00100000
00010000
00010000
01000000
00001000
00010000
00000100
,
00000010
00000000
00000110
00000000
00000001
00000100
00001000
00000100
,
00000010
00001000
00000100
00000010
00001000
00010000
01000000
10000000
,
00100000
01000000
01100000
00000000
10000000
01000000
00010000
01000000
,
00100000
00010000
01000000
00100000
00010000
00001000
00000100
00000001
,
00000010
00000100
00000110
00000000
00000001
00000100
00001000
00010000
,
00000100
00000010
00001000
00010000
01000000
00100000
00010000
01000000
,
10000000
01000000
02200000
00000000
03000000
00000000
00320000
00000000
,
00032000
00000000
00003100
00000002
00000000
00000013
00000200
00000000
,
00000300
00000000
00000110
00000000
00001002
00000000
00000000
00000103
,
00000100
00001000
00010000
00001000
00000010
00001000
00010000
00100000
,
10000000
00000000
11000000
00000000
01000000
00010000
00001000
00010000
,
00100000
00010000
00001000
00010000
00200000
00000000
00000000
10300000
,
02000000
00000000
03000000
00000000
01200000
00000000
00000000
00310000
,
00010000
01000000
00001000
00010000
00000100
00001000
00000010
00000100
,
00000001
00000000
00000011
00000000
00000010
00001000
00010000
00100000
,
00010000
00001000
00000100
00002000
00020000
00000000
00000000
00000000
,
00000000
00033000
00011000
00110000
,
10100000
00000000
10000000
01000000
00000000
00100000
00000000
01000000
,
00000000
00010000
00001000
00000000
00011000
00000000
00001100
00000000
,
00000100
00000001
00000000
00000010
00000000
00000100
00000000
00000010
,
00000000
00001000
00010000
00000000
00011000
00000000
01001000
00000000
,
00010100
00000000
00000100
00001000
00000000
00000010
00000000
00000001
,
00000000
00000010
00000100
00000000
00001100
00000000
00011000
00000000
,
00010000
01000000
00000000
10000000
10010000
00000000
00000000
00000000
;
