#TITLE:Dolphin;
#SUBTITLE:;
#ARTIST:Oh My Girl!;
#TITLETRANSLIT:;
#SUBTITLETRANSLIT:;
#ARTISTTRANSLIT:;
#GENRE:K-POP;
#CREDIT:MUINELIM;
#BANNER:Dolphin.png;
#BACKGROUND:Dolphin-bg.png;
#LYRICSPATH:;
#CDTITLE:;
#MUSIC:Dolphin.ogg;
#OFFSET:0.761000;
#SAMPLESTART:38.321785;
#SAMPLELENGTH:14.729721;
#SELECTABLE:YES;
#DISPLAYBPM:114.000000;
#BPMS:0.000000=113.989998
,163.000000=56.994999
,165.000000=113.989998
;
#STOPS:70.000000=1.579000,
165.000000=1.579000
;
#BGCHANGES:0.000=Dolphin-bg.png=1.000=0=0=1====#000000=#000000,
2.000=Dolphin.mp4=1.000=1=0=1===CrossFade==,
99999=-nosongbg-=1.000=0=0=0 // don't automatically add -songbackground-
;
#KEYSOUNDS:;
#ATTACKS:;

//---------------dance-single - ----------------
#NOTES:
     dance-single:
     :
     Beginner:
     3:
     0.114252,0.136000,0.023755,0.015837,0.000000,101.000000,98.000000,3.000000,2.000000,0.000000,0.000000,0.114252,0.136000,0.023755,0.015837,0.000000,101.000000,98.000000,3.000000,2.000000,0.000000,0.000000:
0000
0000
0000
0000
,
0000
0000
0000
0000
,
0000
0000
1000
0000
,
1000
0000
1000
0000
,
1000
0000
1000
1000
,
0000
0000
1000
0000
,
0010
0000
0001
0000
,
0001
0000
0001
0000
,
0001
0000
0001
0001
,
0000
0000
0001
0000
,
0100
0000
1000
0000
,
0000
0000
0010
0000
,
0000
0000
0100
0000
,
0000
0000
0001
0000
,
0000
0000
1000
0000
,
0010
0000
0100
0000
,
0001
0000
1001
0000
,
0000
0000
0000
0100
,
0000
0100
0000
0100
,
0100
0100
0000
0100
,
0000
0100
0000
0100
,
0000
0000
0000
0010
,
0000
0010
0000
0010
,
0010
0010
0000
0010
,
0000
0010
0000
0010
,
0000
0000
0000
0000
,
1000
1000
0000
0000
,
0001
0001
0000
1000
,
0000
0001
0000
1000
,
0000
0001
0000
0000
,
0100
0100
0000
0000
,
0010
0010
0000
0100
,
0000
0010
0000
0100
,
0000
0010
0000
1000
,
0000
0000
0000
0100
,
0000
0000
0000
0010
,
0000
0000
0000
0001
,
0000
0000
0000
0100
,
0000
0010
0000
1000
,
0000
0001
0000
1001
,
0000
0000
0000
0000
,
0000
0000
0010
0000
,
0010
0000
0010
0010
,
0010
0000
0010
0000
,
0010
0000
0010
0000
,
0000
0000
0100
0000
,
0100
0000
0100
0100
,
0100
0000
0100
0000
,
0100
0000
0100
0000
,
0000
0000
0001
0000
,
1000
0000
0010
0000
,
0100
0000
0001
0000
,
1000
0000
0010
0000
,
0100
0000
0010
0010
,
0010
0000
1000
0000
,
0100
0000
0010
0000
,
0001
0000
2002
0000
,
0000
3003
0000
0000
;

//---------------dance-single - ----------------
#NOTES:
     dance-single:
     :
     Easy:
     5:
     0.207011,0.226666,0.118777,0.047511,0.000000,183.000000,168.000000,15.000000,6.000000,0.000000,0.000000,0.207011,0.226666,0.118777,0.047511,0.000000,183.000000,168.000000,15.000000,6.000000,0.000000,0.000000:
// measure 0
0000
0000
0000
0000
,  // measure 1
0000
0000
0000
0000
,  // measure 2
0000
0000
1000
0100
,  // measure 3
0010
0000
0001
0010
,  // measure 4
0100
0000
1000
0100
,  // measure 5
0010
0001
1000
0001
,  // measure 6
1000
1001
0001
0100
,  // measure 7
0010
0000
1000
0010
,  // measure 8
0100
0000
0001
0100
,  // measure 9
0010
1000
0001
1000
,  // measure 10
0001
1001
0100
0000
,  // measure 11
0010
0000
0100
0000
,  // measure 12
0010
0000
0100
0000
,  // measure 13
0010
0000
0100
0000
,  // measure 14
0010
0000
0100
0010
,  // measure 15
1000
0001
0100
0010
,  // measure 16
1000
0001
2002
0000
,  // measure 17
0000
0000
3003
0001
,  // measure 18
0000
1000
0000
0001
,  // measure 19
1000
1001
0000
1000
,  // measure 20
0000
0001
0000
0100
,  // measure 21
0010
0100
0110
0001
,  // measure 22
0000
1000
0000
0001
,  // measure 23
1000
1001
0000
0001
,  // measure 24
0000
1000
0000
0010
,  // measure 25
0100
0010
0110
1000
,  // measure 26
0010
0001
0000
0001
,  // measure 27
0100
1000
0000
1000
,  // measure 28
0010
0001
0200
0300
,  // measure 29
1000
0010
0100
1001
,  // measure 30
0010
1000
0000
1000
,  // measure 31
0100
0001
0000
0001
,  // measure 32
0010
1000
0100
1000
,  // measure 33
0010
0001
1001
0000
,  // measure 34
0000
0010
0000
0100
,  // measure 35
0000
0010
0000
0100
,  // measure 36
0000
0010
0000
0100
,  // measure 37
0000
0010
0000
0100
,  // measure 38
0010
1000
0001
0100
,  // measure 39
0010
1000
0001
2002
,  // measure 40
0000
0000
0000
3003
,  // measure 41
0000
0000
1000
0100
,  // measure 42
0010
0001
1000
0100
,  // measure 43
0110
0000
1000
0100
,  // measure 44
0010
0001
0100
1000
,  // measure 45
0010
0000
0001
0010
,  // measure 46
0100
1000
0001
0010
,  // measure 47
0110
0000
0001
0010
,  // measure 48
0100
1000
0010
0001
,  // measure 49
0100
0000
0100
1000
,  // measure 50
0001
1000
0100
1000
,  // measure 51
1001
0000
0010
0001
,  // measure 52
1000
0001
0010
0001
,  // measure 53
1000
1001
0020
0030
,  // measure 54
1000
0100
0010
0001
,  // measure 55
0100
1000
0001
0010
,  // measure 56
1000
0100
0010
0001
,  // measure 57
1000
1001
0000
0000
;

//---------------dance-single - ----------------
#NOTES:
     dance-single:
     :
     Medium:
     8:
     0.307689,0.339999,0.388005,0.095022,0.000000,272.000000,223.000000,49.000000,12.000000,0.000000,0.000000,0.307689,0.339999,0.388005,0.095022,0.000000,272.000000,223.000000,49.000000,12.000000,0.000000,0.000000:
0000
0000
0000
0000
,
0000
0000
0000
0000
,
0000
0000
1000
0010
,
0100
1000
0010
0100
,
1000
0010
0100
1000
,
0010
0001
1000
1100
,
0001
0101
0001
0100
,
0010
0001
0100
0010
,
0001
0100
0010
0001
,
0100
1000
0001
0011
,
1000
1010
0001
0000
,
0001
0000
0001
0100
0000
0000
0000
0000
,
1000
0000
1000
0100
0000
0001
0010
0100
,
1000
0000
0110
0000
0000
0000
0000
0010
,
0100
0010
0000
0010
0000
1000
0100
0000
,
0010
0001
1000
0100
,
0010
0000
0001
0001
0000
2002
0000
0000
,
0000
0000
3003
1100
,
1100
1100
1100
0100
,
1000
0002
0003
0011
,
0011
0011
0011
0010
,
0001
1000
0010
1010
,
1010
1010
1010
1000
,
0001
0200
0300
0101
,
0101
0101
0101
0100
,
0001
0000
1000
0000
0200
0000
0300
1000
,
0100
0010
0001
0000
0000
0000
0000
1000
,
0100
0010
0001
0000
0000
0100
0010
0100
,
0001
1000
0010
0000
0010
0000
0000
0100
,
0010
0100
0002
0000
1003
0000
0000
0001
,
0010
0100
1000
0000
0000
0000
0000
0001
,
0010
0100
1000
0000
0000
0010
0100
0010
,
1000
0001
0100
0000
0100
0000
0010
0000
,
1000
0001
1001
1000
,
0000
0000
1000
0000
1000
0010
0000
0000
,
0000
0000
0001
0000
0001
0010
0000
1000
,
0100
0010
0001
0000
0110
0000
0000
0000
,
0000
0100
0010
0100
0000
0100
0000
0001
,
0010
0100
1000
0001
,
0010
0000
0100
0000
1000
1000
0000
2002
,
0000
0000
0000
3003
,
0000
0000
1100
0101
,
1100
0101
0001
1000
,
0020
0030
1010
0011
,
1010
0011
0010
1000
,
0100
0010
0011
1010
,
0011
1010
1000
0001
,
0200
0300
0101
1100
,
0101
1100
0100
0001
,
0010
0010
0011
1010
,
1100
0101
0001
1000
,
0020
0030
1010
0011
,
0101
1100
1000
0001
,
0200
0000
0310
0000
0000
0010
0010
0010
,
1000
0000
0100
0010
0001
0000
1000
0100
,
0010
0000
0001
0100
0010
0000
1000
0001
,
0010
0000
0100
1000
0010
0100
0010
0100
,
0001
1000
0001
0000
0000
0000
0000
0000
;

//---------------dance-single - ----------------
#NOTES:
     dance-single:
     :
     Hard:
     10:
     0.426466,0.430666,0.498864,0.213799,0.087103,377.000000,314.000000,63.000000,27.000000,0.000000,0.000000,0.426466,0.430666,0.498864,0.213799,0.087103,377.000000,314.000000,63.000000,27.000000,0.000000,0.000000:
0000
0000
0000
0000
,
0000
0000
0000
0000
,
0000
0000
0000
0000
1000
0100
0010
0000
,
0010
0100
1000
0010
0001
0010
0100
0000
,
0100
0010
0001
0010
1000
0100
0010
0001
,
1000
1001
0101
1100
,
0101
0000
1100
0000
0100
1000
0010
0000
,
0010
1000
0100
0001
0100
0010
0001
0000
,
0100
0001
0010
1000
0010
0100
1000
0010
,
0100
0110
0011
1010
,
0011
1010
1002
0100
,
0100
0000
0103
0100
2000
0000
0100
0000
,
0100
0000
3100
0100
0020
0000
0100
0000
,
0100
0000
0130
0100
0002
0000
0023
0000
,
0230
0000
1300
0010
0100
0010
1000
0000
,
1100
0001
0101
1000
,
1010
0000
0001
0021
0000
2000
0000
0000
,
0000
0000
3030
1100
,
0101
0000
0000
0000
1100
0000
0000
0000
0101
0000
0000
0001
0000
0001
1000
0000
,
0100
0010
0001
0000
0011
0000
1010
0000
,
0011
0000
1010
0000
0011
0010
0100
1000
,
0001
0010
0100
1000
0010
0000
0011
0000
,
1010
0000
0000
0000
0011
0000
0000
0000
1010
0000
0000
1000
0000
1000
0001
0000
,
0010
0100
1000
0000
1100
0000
0101
0000
,
1100
0000
0101
0000
1100
0100
0010
0001
,
1000
0100
0010
0001
0200
0000
0310
0010
,
1000
0100
0010
0001
0100
0010
1000
1000
,
0001
0010
0100
1000
0001
0100
0010
1000
,
0010
0001
0010
1000
0020
0000
0000
0130
,
0001
0100
1000
0100
0220
0000
0330
0010
,
1000
0100
0010
0001
0100
1000
0100
0001
,
0010
0100
1000
0010
0001
0010
1000
0100
,
1000
0001
1000
0010
1000
0100
0010
0001
,
1000
0100
0010
0001
2002
0000
3003
0000
,
0200
0000
0001
0000
0301
0001
0020
0000
,
1000
0000
1000
0000
1030
1000
0200
0000
,
0001
0000
0001
0000
0301
0001
0020
0000
,
1000
0000
1000
0000
1030
1000
0100
0010
,
0002
0203
0320
2030
,
3002
0000
0023
0000
0100
0130
0000
2002
,
0000
0000
0000
3003
,
0000
0000
0011
1010
,
1100
0000
0000
0000
0101
0000
0000
0001
0000
0010
0100
0000
0010
0000
0001
0000
,
0100
1001
1010
0011
,
1100
0000
1010
0010
0100
1000
0100
0001
,
0010
0100
1000
0000
1010
0000
0011
0000
,
0101
0000
0000
0000
1100
0000
0000
1000
0000
0010
0100
0000
0010
0000
1000
0000
,
0100
1001
0101
0011
,
1010
0000
1100
0100
0001
0100
0010
0001
,
1000
0010
0000
0000
0010
1000
0000
0000
1100
0000
0000
0000
0101
0000
0000
0000
,
0011
0000
0000
0000
1010
0000
0000
1000
0000
0100
0010
0000
0100
0000
1000
0000
,
0010
0000
0011
0101
,
1100
0000
1010
0010
0001
0010
0100
0001
,
0010
0000
0100
0000
2000
0000
0000
0000
3000
0000
0001
0100
0001
0000
1000
0000
,
0100
0000
0000
0100
0010
0000
0000
0010
0001
0000
0000
0001
0100
0000
0000
0100
,
0010
0000
0000
0010
1000
0000
0000
1000
0001
0000
0000
0001
0010
0000
0000
0010
,
0100
0000
0000
0100
1000
0000
1000
0000
0010
0000
0100
0000
0010
0000
1000
0000
,
0100
0010
1001
0000
0000
0000
0000
0000
;

//---------------dance-double - ----------------
#NOTES:
     dance-double:
     :
     Easy:
     5:
     0.200224,0.226666,0.071266,0.047511,0.000000,177.000000,168.000000,9.000000,6.000000,0.000000,0.000000,0.200224,0.226666,0.071266,0.047511,0.000000,177.000000,168.000000,9.000000,6.000000,0.000000,0.000000:
00000000
00000000
00000000
00000000
,
00000000
00000000
00000000
00000000
,
00000000
00000000
00001000
00010000
,
00100000
00000000
00010000
00001000
,
00000010
00000000
00001000
00010000
,
00100000
10000000
01000000
00100000
,
00001000
00011000
00010000
00001000
,
00000100
00000000
00001000
00010000
,
01000000
00000000
00010000
00001000
,
00000100
00000001
00000010
00001000
,
00010000
00011000
01000000
00000000
,
01000000
00000000
01000000
00000000
,
01000000
00000000
01000000
00000000
,
01000000
00000000
01000000
00000000
,
01000000
00000000
01000000
00001000
,
00010000
00000100
00001000
00000010
,
00010000
00001000
00022000
00000000
,
00000000
00000000
00033000
00010000
,
00000000
01000000
00000000
10000000
,
00100000
00010000
00000000
00001000
,
00000000
00000100
00000000
00000001
,
00000010
00001000
00011000
00001000
,
00000000
00000100
00000000
00000001
,
00000010
00001000
00000000
00010000
,
00000000
00100000
00000000
10000000
,
01000000
00010000
00011000
00010000
,
00000100
00001000
00000000
00000100
,
00010000
00001000
00000000
00010000
,
00000100
00001000
00000020
00000030
,
00010000
00001000
00100000
01000000
,
10000000
00100000
00000000
01000000
,
00010000
00100000
00000000
01000000
,
10000000
00100000
00010000
00001000
,
00000010
00000001
00001001
00000000
,
00000000
00000100
00000000
00000100
,
00000000
00000100
00000000
00000100
,
00000000
00000100
00000000
00000100
,
00000000
00000100
00000000
00000100
,
00010000
00001000
00100000
00010000
,
01000000
00001000
00010000
00022000
,
00000000
00000000
00000000
00033000
,
00000000
00000000
00001000
00010000
,
00100000
01000000
00010000
00100000
,
00001000
00000000
00010000
00001000
,
00000100
00000010
00001000
00000100
,
00010000
00000000
00001000
00010000
,
01000000
10000000
00100000
01000000
,
00001000
00000000
00010000
00001000
,
00000010
00000001
00000100
00000010
,
00010000
00000000
00001000
00010000
,
00100000
01000000
00100000
00010000
,
00001000
00000000
00010000
00001000
,
00000100
00000010
00000100
00001000
,
00010000
00011000
02000000
03000000
,
00100000
10000000
01000000
00010000
,
00001000
00000010
00000001
00000100
,
00001000
01000000
10000000
00100000
,
00010000
00011000
00000000
00000000
;

//---------------dance-double - ----------------
#NOTES:
     dance-double:
     :
     Medium:
     8:
     0.287327,0.339999,0.316739,0.126696,0.000000,254.000000,214.000000,40.000000,16.000000,0.000000,0.000000,0.287327,0.339999,0.316739,0.126696,0.000000,254.000000,214.000000,40.000000,16.000000,0.000000,0.000000:
00000000
00000000
00000000
00000000
,
00000000
00000000
00000000
00000000
,
00000000
00000000
00001000
00100000
,
00010000
01000000
00010000
00100000
,
00001000
00100000
00010000
01000000
,
00010000
00100000
00002000
00013000
,
00020000
00031000
00010000
00000010
,
00001000
00000100
00001000
00000010
,
00010000
00000010
00001000
00000100
,
00001000
00000010
00020000
00031000
,
00002000
00013000
00010000
00000000
,
00010000
00000000
00010000
00001000
00000000
00000000
00000000
00000000
,
00001000
00000000
00001000
00010000
00000000
00001000
00100000
00010000
,
01000000
00000000
01100000
00000000
00000000
00000000
00000000
00100000
,
00010000
00001000
00000000
00010000
00000000
00000100
00001000
00000000
,
00000001
00000100
00000010
00010000
,
00001000
00000000
00100000
00010000
00000000
20020000
00000000
00000000
,
00000000
00000000
30030000
11000000
,
00010000
01010000
00001000
00011000
,
00000100
00000020
00000030
00000011
,
00001000
00001010
00010000
00011000
,
00100000
01000000
10000000
10100000
,
00010000
00110000
00001000
00011000
,
00000010
00000200
00000300
00000101
,
00001000
00001100
00010000
00011000
,
01000000
00000000
00100000
00000000
20000000
00000000
00000000
30010000
,
01000000
00100000
00010000
00000000
00000000
00000000
00000000
00001000
,
00000100
00000010
00001000
00000000
00000000
00000001
00000100
00000000
,
00001000
00000000
00010000
00000000
00011000
00000000
00000000
00010000
,
00001000
00000000
00000200
00000000
00000301
00000000
00000000
00000001
,
00000100
00000010
00001000
00000000
00000000
00000000
00000000
00010000
,
01000000
00100000
10000000
00000000
00000000
01000000
00010000
00000000
,
00001000
00011000
00100000
00010000
,
01000000
00001000
00011000
00000100
,
00000000
00000000
00001000
00000000
00001000
00000010
00000000
00000000
,
00000000
00000000
00001000
00000000
00001000
00000010
00000000
00010000
,
00001000
00010000
00100000
00000000
01100000
00000000
00000000
00000000
,
00000000
10000000
01000000
10000000
00000000
01000000
00000000
00010000
,
00001000
00100000
00010000
01000000
,
00001000
00000000
00010000
00000000
00000100
00001000
00000000
00002002
,
00000000
00000000
00000000
00003003
,
00000000
00000000
00000011
00001000
,
00001010
00010000
00011000
00100000
,
02000000
03000000
11000000
00010000
,
01010000
00001000
00011000
00000100
,
00000010
00000001
00000101
00001000
,
00001100
00010000
00011000
01000000
,
00200000
00300000
10100000
00010000
,
00110000
00001000
00011000
00000010
,
00000100
00000001
00000011
00001000
,
00001010
00010000
00011000
00100000
,
20000000
30000000
11000000
00010000
,
01010000
00001000
00011000
00000100
,
00000002
00000000
00000003
00000000
00000000
00000010
00000100
00000010
,
00001000
00000000
00010000
01000000
00100000
00000000
10000000
01000000
,
00100000
00000000
01000000
00100000
00010000
00000000
00100000
00001000
,
00010000
00000000
00001000
00000100
00000001
00000000
00000011
00000000
,
00001010
00011000
00000000
00000000
;

//---------------dance-double - ----------------
#NOTES:
     dance-double:
     :
     Hard:
     11:
     0.441172,0.430666,0.728499,0.158369,0.000000,390.000000,298.000000,92.000000,20.000000,0.000000,0.000000,0.441172,0.430666,0.728499,0.158369,0.000000,390.000000,298.000000,92.000000,20.000000,0.000000,0.000000:
00000000
00000000
00000000
00000000
,
00000000
00000000
00000000
00000000
,
00000000
00000000
00000000
00000000
10000000
01000000
00010000
00000000
,
01000000
00010000
00001000
00100000
00001000
00010000
01000000
00000000
,
10000000
00100000
00010000
10000000
00010000
00100000
10000000
01000000
,
00100000
00110000
00011000
00001100
,
00000101
00000000
00001001
00000000
00000001
00000010
00001000
00000000
,
00000010
00001000
00010000
00000100
00010000
00001000
00000010
00000000
,
00000001
00000100
00001000
00000001
00001000
00000100
00000001
00000010
,
00000100
00001100
00011000
00110000
,
10100000
10010000
01200000
10000000
,
01000000
00000000
00310000
00001000
00000210
00000000
00001000
00000000
,
00000001
00000000
00001300
00010000
02100000
00000000
00010000
00000000
,
10000000
00000000
03010000
00001000
00000120
00000000
00002030
00000000
,
00023000
00000000
01030000
00100000
00010000
00001000
00000010
00000000
,
00000011
00001100
00110000
11000000
,
10000000
00100000
00010000
00011000
00000000
00022000
00000000
00000000
,
00000000
00000000
00033000
00011000
,
01010000
00000000
11000000
00000000
10100000
00000000
00100000
00010000
,
00001000
00100000
00010000
00000000
00011000
00000000
00001010
00000000
,
00000011
00000000
00000101
00000000
00001100
00001000
00000010
00010000
,
00001000
00100000
00010000
01000000
00001000
00000000
00011000
00000000
,
00001010
00000000
00000011
00000000
00000101
00000000
00000100
00001000
,
00010000
00000100
00001000
00000000
00011000
00000000
01010000
00000000
,
11000000
00000000
10100000
00000000
00110000
00010000
01000000
00001000
,
00010000
00000100
00001000
00000010
00000210
00000000
00000300
00000001
,
00000010
00000100
00001000
00000010
00000100
00001000
00010000
00000100
,
00001000
00010000
00100000
00001000
00010000
00100000
01000000
00010000
,
00100000
01000000
10000000
00100000
02100000
00000000
00000000
13000000
,
01000000
00010000
00100000
01000000
00020000
00000000
00031000
00010000
,
00100000
10000000
01000000
00010000
00001000
00000010
00000001
00000100
,
00001000
00010000
00100000
10000000
01000000
00001000
00010000
00000010
,
00000001
00000100
00010000
00001000
00100000
10000000
01000000
00100000
,
00010000
00001000
00000100
00000010
00000002
00000000
00001003
00000000
,
00001200
00000000
00010000
00000000
00010300
00010000
00012000
00000000
,
01000000
00000000
01000000
00000000
01003000
01000000
01200000
00000000
,
10000000
00000000
10000000
00000000
10300000
10000000
12000000
00000000
,
00010000
00000000
00010000
00000000
03010000
00010000
00001000
00000010
,
00000011
00001100
00010010
01001000
,
00110000
00000000
11000000
10000000
00100000
00020000
00000000
00002000
,
00000000
00000000
00000000
00033000
,
00000000
00000000
00011000
00110000
,
10100000
00000000
11000000
00000000
10000000
01000000
00100000
00010000
,
00001000
00011000
00001010
00000011
,
00000101
00000000
00001100
00001000
00000100
00000001
00000100
00000010
,
00000001
00000100
00001000
00000000
00011000
00000000
00001100
00000000
,
00000101
00000000
00000011
00000000
00000001
00000010
00000100
00001000
,
00010000
00011000
01010000
11000000
,
10100000
00000000
00110000
00010000
00100000
10000000
00100000
01000000
,
11000000
00110000
00011000
00001010
,
00011000
00000000
00110000
00000000
00100000
01000000
10000000
00100000
,
00020000
00031000
00011000
00001100
,
00011000
00000000
01010000
01000000
00100000
00010000
00001000
00100000
,
00010000
01000000
00002000
00000000
00013000
00010000
00000100
00000010
,
00000011
00001010
01010000
11000000
,
10010000
10100000
00110000
00001100
,
00000101
00001001
00000011
00011000
,
11000000
00011000
00000000
00000000
;
