#TITLE:DRAMARAMA;
#SUBTITLE:;
#ARTIST:MONSTA-X;
#TITLETRANSLIT:;
#SUBTITLETRANSLIT:;
#ARTISTTRANSLIT:;
#GENRE:K-POP;
#CREDIT:MUINELIM;
#BANNER:DRAMARAMA.png;
#BACKGROUND:DRAMARAMA-bg.png;
#LYRICSPATH:;
#CDTITLE:;
#MUSIC:DRAMARAMA.ogg;
#OFFSET:-0.161000;
#SAMPLESTART:49.193260;
#SAMPLELENGTH:12.903225;
#SELECTABLE:YES;
#BPMS:0.000000=93;
#STOPS:
;
#BGCHANGES:0.000=DRAMARAMA.avi=1.000=1=0=0=StretchNoLoop==CrossFade==,
99999=-nosongbg-=1.000=0=0=0 // don't automatically add -songbackground-
;
#KEYSOUNDS:;
#ATTACKS:;

//---------------dance-single - ----------------
#NOTES:
     dance-single:
     :
     Hard:
     13:
     0.528452,0.552155,0.274012,0.233716,0.632646,459.000000,425.000000,34.000000,29.000000,0.000000,0.000000,0.528452,0.552155,0.274012,0.233716,0.632646,459.000000,425.000000,34.000000,29.000000,0.000000,0.000000:
0000
0000
0000
0000
,
0000
0000
0000
0000
,
0000
0000
0000
0000
,
1200
0001
0000
1000
,
0000
0000
0000
0000
0001
0000
0000
0000
0300
0000
1000
0010
0100
0001
0000
0000
,
0021
1000
0000
0001
,
0000
0000
1000
0000
0000
0130
0110
0000
,
1001
0000
1000
0000
0010
0000
0000
0000
1000
0000
0001
0000
0010
0001
0000
0000
,
0100
0000
0010
1000
0010
1000
0010
0000
0100
0000
0001
0000
0010
0100
0000
0000
,
1001
0000
0001
0000
0010
0000
0000
0000
0001
0000
1000
0000
0010
1000
0000
0000
,
0100
1000
0100
0020
0000
0001
0030
0000
0010
0001
0010
0200
0000
1000
0300
0000
,
1100
0000
1000
0000
0010
0000
0100
0000
0000
0000
0010
0000
0100
0001
0000
0000
,
0010
0000
0001
0010
0001
0010
0001
0000
0100
0000
0010
0000
1000
0001
0000
0000
,
0101
0000
0100
0000
0010
0000
0100
0000
0000
0000
0010
0000
1000
0100
0000
1000
,
0010
0100
0001
0020
0000
0031
0000
0001
0010
0100
1000
0020
0000
1030
0000
0000
,
2002
0000
0000
0000
0000
0000
0000
0000
0000
0000
0000
0000
3003
0000
0000
0000
0000
0000
0000
0000
0000
0000
0000
0000
0001
0000
0000
0000
0100
0000
0000
0000
0010
0000
0000
0000
1000
0000
0000
0100
0000
0000
0000
0000
0000
2200
0000
0000
,
0000
0000
0000
0000
0000
0000
0000
0000
0000
0000
0000
0000
0000
0000
0000
0000
0000
0000
3300
0000
0000
0000
0000
0000
0000
0000
0000
1000
0000
0000
0010
0000
0000
0000
0000
0000
0100
0000
0000
0000
0001
0000
0000
0000
0010
0000
0000
0000
,
0022
0000
0000
0000
0000
0000
0000
0000
0000
0000
0000
0000
0000
0000
0000
0000
0000
0000
0033
0000
0000
0000
0000
0000
0000
0000
0000
0001
0000
0000
0100
0000
0000
0000
0000
0000
0001
0000
0000
0000
1000
0000
0000
0000
0010
0000
0000
0000
,
0220
0000
0030
0000
0000
0000
0002
0000
0300
0000
0000
0000
1003
0010
1000
0010
,
1000
0100
0010
0001
0000
0000
1000
0010
0100
0001
1000
0100
0020
0000
0030
0000
,
0001
0010
0100
1000
0000
0000
0001
0100
0010
1000
0001
0010
0100
0000
1000
0010
,
1000
0000
0001
0000
0101
0000
0100
0000
0010
1000
0010
0000
1000
0000
1100
0000
,
0100
0010
0001
0000
1000
0010
0100
0000
0001
0010
0100
1000
0020
0000
0030
0000
,
1000
0010
0100
0001
0000
0000
1000
0100
0010
0001
1000
0010
0200
0000
0300
0000
,
0001
0100
0010
1000
0000
0000
0001
0010
0100
1000
0001
0100
0010
0000
1000
0100
,
1000
0000
0001
0000
0011
0000
0010
0000
0100
1000
0100
0000
0010
0000
0110
0000
,
0100
1000
0010
0000
0100
0001
1000
0000
0100
0020
0000
0000
0031
1000
0001
1000
,
0100
1100
0001
0010
1000
0100
0001
0010
,
0101
0000
1000
0000
0010
0000
0001
0000
0100
0000
1000
0000
0010
0000
0100
0001
,
0010
0100
1000
0010
0000
0010
0100
0001
0010
0100
1000
0010
0000
0010
0100
0001
,
0010
0100
0001
0100
1000
0100
0010
0001
0100
0010
1000
0002
0000
0000
0103
0000
,
0110
0000
0001
1000
0010
0000
0100
0000
0110
0000
1000
0001
0100
0000
0010
0000
,
1010
0000
1000
0100
0010
0000
0001
0000
0011
0000
0010
0100
0001
0000
0100
0000
,
1001
0000
0000
1000
0010
0100
0010
0001
0000
1000
0100
0010
0200
0000
0301
0010
,
1000
0000
0100
0000
0001
0000
0110
0000
1000
0010
0100
0001
0100
0010
1001
0000
,
1000
0010
0100
1000
0000
0000
0100
0001
0010
0100
1000
0010
0200
0000
0301
0000
,
0001
0100
0010
0001
0000
0000
0010
1000
0100
0010
0001
0100
0010
0000
1000
0100
,
0001
0000
0100
0000
1100
0000
1000
0000
0001
0100
1000
0000
0100
0000
0101
0000
,
0001
0010
0100
0010
0100
1000
0010
0100
0001
0000
1000
0000
0220
0000
0330
0000
,
0010
1000
0100
0010
0000
0000
1000
0010
0001
0100
0010
1000
0002
0000
0103
0000
,
0100
0001
0010
0100
0000
0000
0001
0100
1000
0010
0100
0001
1000
0000
0001
0010
,
1000
0000
0001
0000
0101
0000
0100
0000
1000
0010
0001
0000
1000
0000
1100
0000
,
0100
0001
0010
0100
0001
0100
1000
0010
0100
0002
0000
0000
1003
0010
1000
0010
,
0100
0000
0001
0000
1000
0000
0100
0000
1000
0000
0001
0000
0100
0000
0001
0000
1000
0000
1100
0000
0000
0101
0000
0000
,
0010
0000
0000
0000
1000
0000
0000
0000
0001
0000
0000
0000
0010
0000
0000
0000
0001
0000
0000
0000
1000
0000
0000
0000
0010
0000
0000
0000
1000
0000
0000
0000
0001
0000
0000
0000
0101
0000
0000
0000
0000
0000
1100
0000
0000
0100
0000
0000
,
1000
0010
0001
0010
0100
0000
1000
0000
0100
0001
0010
0100
0001
0000
0100
0000
,
1000
0010
0001
1000
0100
0010
0100
0000
0001
2000
0000
0000
0000
0000
3010
0100
,
0010
0220
0000
0000
0330
0000
0000
0000
0000
0000
0000
0000
0000
0000
0000
0000
;

//---------------dance-double - ----------------
#NOTES:
     dance-double:
     :
     Hard:
     13:
     0.500821,0.514075,0.217598,0.249835,0.588321,435.000000,408.000000,27.000000,31.000000,0.000000,0.000000,0.500821,0.514075,0.217598,0.249835,0.588321,435.000000,408.000000,27.000000,31.000000,0.000000,0.000000:
00000000
00000000
00000000
00000000
,
00000000
00000000
00000000
00000000
,
00000000
00000000
00000000
00000000
,
00012000
00000100
00000000
00000001
,
00000000
00000000
00000000
00000000
00000010
00000000
00000000
00000000
00003000
00000000
00010000
00001000
00010000
00001000
00000000
00000000
,
00021000
00100000
00000000
10000000
,
00000000
00000000
01000000
00000000
00000000
00031000
00011000
00000000
,
00001000
00000000
00000010
00000000
00000001
00000000
00000000
00000000
00000100
00000000
00000001
00000000
00000010
00000001
00000000
00000000
,
00000100
00000000
00001000
00010000
00001000
00010000
00001000
00000000
00010000
00000000
01000000
00000000
10000000
00100000
00000000
00000000
,
00010000
00000000
00100000
00000000
10000000
00000000
00000000
00000000
01000000
00000000
10000000
00000000
00100000
10000000
00000000
00000000
,
01000000
00010000
00000000
00002000
00000000
00000100
00003000
00000000
00000010
00001000
00000000
00020000
00000000
00100000
00030000
00000000
,
10010000
00000000
10000000
00000000
01000000
00000000
00010000
00000000
00000000
00000000
00001000
00000000
00100000
01000000
00000000
00000000
,
00010000
00000000
00000100
00001000
00000100
00001000
00000100
00000000
00000010
00000000
00000001
00000000
00001000
00000010
00000000
00000000
,
00001001
00000000
00000001
00000000
00000100
00000000
00001000
00000000
00000000
00000000
00010000
00000000
00000100
00000010
00000000
00001000
,
00010000
00100000
00000000
20000000
00000000
01000000
30000000
00010000
00001000
00000010
00000000
00000002
00000000
00000100
00000003
00000000
,
00002020
00000000
00000000
00000000
00000000
00000000
00000000
00000000
00000000
00000000
00000000
00000000
00003030
00000000
00000000
00000000
00000000
00000000
00000000
00000000
00000000
00000000
00000000
00000000
00001000
00000000
00000000
00000000
00000010
00000000
00000000
00000000
00010000
00000000
00000000
00000000
00001000
00000000
00000000
00100000
00000000
00000000
00000000
00000000
00000000
00220000
00000000
00000000
,
00000000
00000000
00000000
00000000
00000000
00000000
00000000
00000000
00000000
00000000
00000000
00000000
00000000
00000000
00000000
00000000
00000000
00000000
00330000
00000000
00000000
00000000
00000000
00000000
00000000
00000000
00000000
00010000
00000000
00000000
10000000
00000000
00000000
00000000
00000000
00000000
00100000
00000000
00000000
00000000
01000000
00000000
00000000
00000000
00001000
00000000
00000000
00000000
,
00022000
00000000
00000000
00000000
00000000
00000000
00000000
00000000
00000000
00000000
00000000
00000000
00000000
00000000
00000000
00000000
00000000
00000000
00033000
00000000
00000000
00000000
00000000
00000000
00000000
00000000
00000000
00010000
00000000
00000000
00000100
00000000
00000000
00000000
00000000
00000000
00000010
00000000
00000000
00000000
00000001
00000000
00000000
00000000
00001000
00000000
00000000
00000000
,
00002020
00000000
00003000
00000000
00000000
00000000
00020000
00000000
00000030
00000000
00000000
00000000
00031000
00100000
00001000
00100000
,
00010000
01000000
00010000
01000000
00000000
00000000
00100000
10000000
00100000
10000000
01000000
00100000
00020000
00000000
00030000
00000000
,
00001000
00000010
00001000
00000010
00000000
00000000
00000100
00000001
00000100
00000001
00000010
00000100
00001000
00000000
00000100
00010000
,
00001000
00000000
00010000
00000000
00011000
00000000
00001000
00000000
00100000
00010000
01000000
00000000
00100000
00000000
10100000
00000000
,
10000000
01000000
00100000
00000000
01000000
00010000
00001000
00000000
00010000
00000100
00001000
00000000
00000020
00000000
00000030
00000000
,
00000100
00000001
00000100
00000001
00000000
00000000
00000010
00001000
00000010
00001000
00010000
00100000
02000000
00000000
03000000
00000000
,
00100000
10000000
00100000
10000000
00000000
00000000
01000000
00010000
01000000
00010000
00001000
00000100
00000010
00000000
00000100
00000001
,
00000010
00000000
00000100
00000000
00000110
00000000
00000010
00000000
00001000
00010000
00100000
00000000
00010000
00000000
00011000
00000000
,
00001000
00100000
01000000
00000000
10000000
00100000
01000000
00000000
00010000
00200000
00000000
00000000
00301000
00010000
00001000
00010000
,
00000100
00001100
00000001
00000010
00001000
00010000
01000000
00100000
,
00110000
00000000
10000000
00000000
01000000
00000000
00010000
00000000
00001000
00000000
00000010
00000000
00000100
00000000
00001000
00000100
,
00000010
00000000
00000001
00000100
00000000
00000010
00001000
00000100
00010000
00000000
00001000
00100000
00000000
01000000
10000000
00100000
,
01000000
00000000
10000000
01000000
00010000
00000000
00100000
01000000
00010000
00000000
00001000
00020000
00000000
00000000
00030010
00000000
,
00001010
00000000
00001000
00000001
00000100
00000000
00001000
00000000
00011000
00000000
00010000
00001000
00100000
00000000
01000000
00000000
,
11000000
00000000
10000000
00100000
00010000
00000000
00001000
00000000
00101000
00000000
00100000
01000000
00010000
00000000
00001000
00000000
,
00001010
00000000
00000000
00000001
00000100
00001000
00000100
00000010
00000000
00010000
00001000
00010000
02000000
00000000
13000000
00100000
,
01000000
00000000
00010000
00000000
00001000
00000000
00000010
00000000
00000100
00000001
00000010
00000100
00010000
00001000
00011000
00000000
,
00010000
00000100
00010000
00000100
00000000
00000000
00001000
00000100
00000010
00000001
00000100
00001000
00020000
00000000
00030000
00000000
,
00001000
01000000
00001000
01000000
00000000
00000000
00010000
01000000
00100000
10000000
01000000
00010000
00001000
00000000
00100000
01000000
,
00010000
00000000
00001000
00000000
00101000
00000000
00100000
00000000
00010000
01000000
00001000
00000000
00010000
00000000
00010100
00000000
,
00000100
00000010
00000001
00000000
00001000
00000100
00000010
00000100
00010000
00000000
00001000
00000000
00022000
00000000
00033000
00000000
,
00010000
00000100
00001000
00000010
00000000
00000000
00010000
00001000
00000100
00000001
00000100
00000001
00000020
00000000
00000030
00000000
,
00001000
01000000
00010000
00100000
00000000
00000000
00001000
00010000
01000000
10000000
01000000
10000000
00100000
00000000
00010000
00100000
,
01000000
00000000
00001000
00000000
00011000
00000000
00010000
00000000
00000100
00000010
00000001
00000000
00000100
00000000
00001010
00000000
,
00001000
00000100
00010000
00000000
00001000
00010000
01000000
00000000
10000000
00200000
00000000
00000000
01300000
00010000
01000000
00001000
,
00010000
00000000
00100000
00000000
00010000
00000000
00001000
00000000
00000010
00000000
00001000
00000000
00010000
00000000
00100000
00000000
00010000
00000000
00002000
00000000
00000000
00013000
00000000
00000000
,
00001000
00000000
00000100
00000000
00001000
00000000
00010000
00000000
01000000
00000000
00010000
00000000
00001000
00000000
00000100
00000000
00001000
00000000
00020000
00000000
00000000
00031000
00000000
00000000
,
00001000
00100000
01000000
10000000
00100000
00000000
00010000
00000000
00100000
00010000
00001000
00000100
00000001
00000000
00000010
00000000
,
00000100
00000001
00000100
00000010
00000001
00000000
00000100
00000000
00001000
00020000
00000000
00000000
00000000
00000000
00130000
01000000
,
00100000
02200000
00000000
00000000
03300000
00000000
00000000
00000000
00000000
00000000
00000000
00000000
00000000
00000000
00000000
00000000
;

//---------------dance-single - ----------------
#NOTES:
     dance-single:
     :
     Beginner:
     3:
     0.111677,0.151513,0.056414,0.008059,0.000000,97.000000,90.000000,7.000000,1.000000,0.000000,0.000000,0.111677,0.151513,0.056414,0.008059,0.000000,97.000000,90.000000,7.000000,1.000000,0.000000,0.000000:
0000
0000
0000
0000
,
0000
0000
0000
0000
,
0000
0000
0000
0000
,
0000
1000
0000
1000
,
0000
0001
0000
0001
,
0000
1000
0000
0001
,
0000
1000
0000
1001
,
0000
0001
0000
0100
,
0000
0010
0000
1000
,
0000
0001
0000
0100
,
0100
0000
0100
0000
,
0000
1000
0000
0010
,
0000
0100
0000
0001
,
0000
1000
0000
0010
,
0010
0000
0010
0000
,
1001
0000
0000
0000
,
0000
0000
0000
0000
,
0000
0000
0000
0000
,
0010
0000
0010
0010
,
1000
0000
0001
0000
,
0100
0000
0010
0000
,
1000
0000
0001
0000
,
0100
0100
0100
0000
,
0001
0000
1000
0000
,
0010
0000
0100
0000
,
0001
0000
1000
0000
,
0010
0010
0010
0000
,
1001
0000
0000
0000
,
1001
0000
0000
0000
,
0001
0000
0100
0000
,
1000
0000
0010
0000
,
0001
0001
0001
0000
,
1000
1000
1000
0000
,
0010
0000
0100
0000
,
0010
0010
0020
0030
,
1000
0000
0100
0000
,
0001
0000
0010
0000
,
1000
0000
0100
0000
,
0001
0001
1000
0000
,
0001
0000
0100
0000
,
1000
0000
0010
0000
,
0001
0000
0100
0000
,
1000
1000
0001
0000
,
1001
0000
0000
0000
,
1001
0000
0000
0000
,
0100
0100
0100
0000
,
0010
0010
0010
0000
,
1001
0000
0000
0000
;

//---------------dance-single - ----------------
#NOTES:
     dance-single:
     :
     Easy:
     5:
     0.210690,0.247518,0.177302,0.064473,0.000000,183.000000,161.000000,22.000000,8.000000,0.000000,0.000000,0.210690,0.247518,0.177302,0.064473,0.000000,183.000000,161.000000,22.000000,8.000000,0.000000,0.000000:
0000
0000
0000
0000
,
0000
0000
0000
0000
,
0000
0000
0000
0000
,
1000
0010
0000
0010
,
0000
0010
0000
0010
,
0001
0100
0000
0100
,
0000
0100
0000
1001
,
1000
0001
1000
0100
,
1000
0001
1000
1000
,
0001
0100
0001
1000
,
0001
0100
0001
0001
,
1000
0010
0100
0001
,
1000
0010
0100
0100
,
0001
0010
0100
1000
,
0001
0010
0100
0100
,
2002
0000
0000
0000
,
3003
0000
0000
0000
,
0220
0000
0000
0000
,
0300
0000
0000
0130
,
0100
0001
1000
0110
,
0100
0001
1000
0110
,
0100
0001
0100
0010
,
1000
0000
0010
0000
0100
0100
0100
0000
,
0010
1000
0001
0110
,
0010
1000
0001
0110
,
0010
1000
0010
0100
,
0001
0000
0100
0000
0010
0000
0000
1000
,
1000
0100
0001
0010
,
1000
0100
0001
0010
,
2000
3000
0002
0003
,
1000
0000
0001
0000
1000
0001
1000
0000
,
0001
0100
0010
1001
,
1000
0010
0100
1001
,
0001
0110
1000
0110
,
0001
0000
1000
0000
0010
0010
0010
0000
,
0110
0100
0001
1001
,
0110
0100
0001
1001
,
1000
0010
1000
0001
,
0010
0000
0001
0000
1000
1000
1000
0000
,
1001
0001
0100
0110
,
1001
0001
0100
0110
,
0010
1000
0010
0100
,
0001
0000
0100
0000
0010
0000
0000
1000
,
1000
0010
0001
1001
,
0001
0100
1000
1001
,
0010
0001
0100
1000
,
0010
0000
0100
0000
0010
0010
0000
0100
,
0220
0330
0000
0000
;

//---------------dance-single - ----------------
#NOTES:
     dance-single:
     :
     Medium:
     9:
     0.300493,0.323677,0.209539,0.169243,0.016118,261.000000,235.000000,26.000000,21.000000,0.000000,0.000000,0.300493,0.323677,0.209539,0.169243,0.016118,261.000000,235.000000,26.000000,21.000000,0.000000,0.000000:
// measure 0
0000
0000
0000
0000
,  // measure 1
0000
0000
0000
0000
,  // measure 2
0000
0000
0000
0000
,  // measure 3
2000
0001
0000
0001
,  // measure 4
0000
0000
0001
0000
0000
3001
1000
0000
,  // measure 5
0002
1000
0000
1000
,  // measure 6
0000
0000
1000
0000
0000
1003
1001
0000
,  // measure 7
1000
0000
0010
0000
0100
0001
0100
0000
,  // measure 8
0001
0000
0010
0000
0100
1000
0100
0000
,  // measure 9
1000
0000
0100
0000
0010
0001
0010
0000
,  // measure 10
0001
1000
0200
0000
1300
0001
0020
0000
,  // measure 11
0031
0000
0100
0000
0010
1000
0010
0000
,  // measure 12
1000
0000
0100
0000
0010
0001
0010
0000
,  // measure 13
0001
0000
0010
0000
0100
1000
0100
0000
,  // measure 14
1000
0001
0200
0000
0301
1000
0020
0000
,  // measure 15
2030
0000
0000
0000
3100
1000
0100
0010
,  // measure 16
0001
0000
0000
0000
0000
0001
0010
0100
,  // measure 17
1000
0000
0000
0000
0000
1000
0010
0100
,  // measure 18
0102
0000
0000
2003
0000
0000
3020
0000
,  // measure 19
0130
0001
0011
0000
0100
0001
1001
0000
,  // measure 20
0100
0001
0011
0000
0100
0001
1001
0000
,  // measure 21
1000
0010
1000
0100
0010
0001
1000
0000
,  // measure 22
0100
0010
0100
0000
2000
0001
3001
0000
,  // measure 23
0100
1000
1010
0000
0100
1000
1001
0000
,  // measure 24
0100
1000
1010
0000
0100
1000
1001
0000
,  // measure 25
0001
0010
0001
0100
0010
1000
0001
0000
,  // measure 26
0100
0010
0100
0000
0220
0000
0330
1000
,  // measure 27
0001
0010
1000
0100
,  // measure 28
1001
0010
0001
0100
,  // measure 29
1000
0010
2000
0000
3001
0010
0002
0000
,  // measure 30
1003
0100
1000
0001
0100
0001
1000
0000
,  // measure 31
1010
0100
0011
1000
,  // measure 32
0101
0010
1100
0001
,  // measure 33
1001
0000
0010
0100
0010
0010
0010
0000
,  // measure 34
1000
0100
0010
0002
2000
0000
0000
3003
,  // measure 35
0001
0100
1010
0000
0001
0100
0110
0000
,  // measure 36
0001
0100
1010
0000
0001
0100
0110
0000
,  // measure 37
1000
0001
1000
0100
0010
0001
0100
0000
,  // measure 38
0010
1000
0100
0000
0020
0100
0130
0000
,  // measure 39
1000
0100
0011
0000
1000
0100
0110
0000
,  // measure 40
1000
0100
0011
0000
1000
0100
0110
0000
,  // measure 41
0001
1000
0001
0100
0010
1000
0001
0000
,  // measure 42
0010
0100
0010
0010
0001
0000
0100
1000
,  // measure 43
0010
0000
0000
0100
0000
0000
0001
1000
0001
1000
0000
0000
,  // measure 44
0100
0000
0000
0010
0000
0000
0001
1000
0001
1000
0000
0000
,  // measure 45
0010
1000
0100
0000
0010
0001
0100
0000
,  // measure 46
1000
0100
0001
0010
0200
0000
0000
0310
,  // measure 47
2002
3003
0000
0000
;

//---------------dance-double - ----------------
#NOTES:
     dance-double:
     :
     Easy:
     5:
     0.201480,0.228478,0.128947,0.064473,0.000000,175.000000,159.000000,16.000000,8.000000,0.000000,0.000000,0.201480,0.228478,0.128947,0.064473,0.000000,175.000000,159.000000,16.000000,8.000000,0.000000,0.000000:
00000000
00000000
00000000
00000000
,
00000000
00000000
00000000
00000000
,
00000000
00000000
00000000
00000000
,
00000010
00010000
00000000
00010000
,
00000000
00010000
00000000
00010000
,
00001000
01000000
00000000
01000000
,
00000000
01000000
00000000
01100000
,
10000000
01000000
00010000
01000000
,
10000000
01000000
00010000
00010000
,
00001000
00000100
00000001
00000100
,
00001000
00000100
00000010
00000110
,
00000001
00000100
00001000
00000100
,
00000001
00000100
00001000
00001000
,
00010000
01000000
10000000
01000000
,
00010000
01000000
00100000
01100000
,
20020000
00000000
00000000
00000000
,
30030000
00000000
00000000
00000000
,
00022000
00000000
00000000
00000000
,
00033000
00000000
00000000
00001001
,
00000001
00000010
00001000
00010000
,
00001000
00000010
00001000
00010000
,
00100000
00010000
00001000
00010000
,
00100000
10000000
00010000
10010000
,
10000000
01000000
00010000
00001000
,
00010000
01000000
00010000
00001000
,
00000100
00001000
00010000
00001000
,
00000100
00000000
00000001
00000000
00001000
00000000
00000000
00000010
,
00000010
00010000
00001000
00100000
,
00010000
01000000
00001000
00010000
,
00000200
00000300
00000020
00000030
,
00000001
00000000
00000100
00000000
00001000
00010000
00001000
00000000
,
00010000
01000000
10000000
00100000
,
00010000
00001000
00000100
00000001
,
00000010
00011000
00100000
00011000
,
00000100
00010000
00001000
00100000
,
01100000
10000000
01000000
00010000
,
00011000
00001000
00000100
00000001
,
00000010
00000100
00000001
00000100
,
00010000
00001000
00000100
00000010
,
00000110
00000001
00000100
00001000
,
00011000
00010000
01000000
10000000
,
00100000
01000000
10000000
01000000
,
00001000
00000000
00010000
00000000
01000000
00000000
00100000
00100000
,
00100000
00010000
01000000
00011000
,
00000010
00001000
00000100
00011000
,
00010000
01000000
00010000
00001000
,
00000100
00000000
00001000
00000000
00010000
00010000
00000000
00001000
,
00022000
00033000
00000000
00000000
;

//---------------dance-double - ----------------
#NOTES:
     dance-double:
     :
     Medium:
     9:
     0.286677,0.304637,0.112829,0.120888,0.016118,249.000000,235.000000,14.000000,15.000000,0.000000,0.000000,0.286677,0.304637,0.112829,0.120888,0.016118,249.000000,235.000000,14.000000,15.000000,0.000000,0.000000:
00000000
00000000
00000000
00000000
,
00000000
00000000
00000000
00000000
,
00000000
00000000
00000000
00000000
,
00002000
00010000
00000000
00010000
,
00000000
00000000
00010000
00000000
00000000
00013000
00001000
00000000
,
00020000
00001000
00000000
00001000
,
00000000
00000000
00001000
00000000
00000000
00031000
00011000
00000000
,
00010000
00000000
00100000
00000000
10000000
01000000
10000000
00000000
,
00100000
00000000
00010000
00000000
00001000
00100000
00001000
00000000
,
00010000
00000000
00100000
00000000
10000000
01000000
10000000
00000000
,
00100000
00010000
00001000
00000000
00000010
00001000
00010000
00000000
,
00001000
00000000
00000010
00000000
00000001
00000100
00000001
00000000
,
00000010
00000000
00001000
00000000
00010000
00000010
00010000
00000000
,
00001000
00000000
00000010
00000000
00000001
00000100
00000001
00000000
,
00000010
00001000
00010000
00000000
00100000
00010000
00001000
00000000
,
00022000
00000000
00033000
00000000
00010000
00000100
00001000
00000100
,
00010000
00000000
00000000
00000000
00000000
00001000
01000000
00001000
,
00010000
00000000
00000000
00000000
00000000
00010000
00000100
00010000
,
00012000
00000000
00000000
00203000
00000000
00000000
02300000
00000000
,
13000000
00100000
00010000
00000000
00100000
00010000
00001000
00000000
,
00010000
00001000
00000100
00000000
00001000
00000100
00000001
00000000
,
00000010
00000100
00000010
00000001
00001000
00000100
00000010
00000000
,
00000001
00000100
00001000
00000000
00000200
00000010
00000310
00000000
,
00000001
00000010
00001000
00000000
00000010
00001000
00010000
00000000
,
00001000
00010000
01000000
00000000
00010000
01000000
10000000
00000000
,
00100000
01000000
00100000
10000000
00010000
01000000
00100000
00000000
,
01000000
00001000
00010000
00000000
00022000
00000000
00033000
00001000
,
00100000
00010000
01000000
00001000
,
00011000
00010000
00000100
00001000
,
00000010
00000100
00000001
00000000
00000100
00000010
00001000
00000000
,
00000010
00000100
00000001
00001000
00000010
00000100
00000010
00000000
,
00001010
00010000
00011000
00100000
,
00110000
00001000
00011000
00000100
,
00000110
00000000
00000001
00000100
00001000
00010000
00100000
00000000
,
10000000
01000000
00010000
00002000
00020000
00000000
00033000
00000000
,
00010000
01000000
10000000
00000000
01000000
00010000
00011000
00000000
,
00001000
00000100
00000001
00000000
00000100
00001000
00011000
00000000
,
00010000
00001000
00010000
01000000
10000000
00100000
01000000
00000000
,
00010000
00100000
00001000
00000000
00000020
00000100
00000130
00000000
,
00000001
00000010
00001000
00000000
00010000
01000000
10010000
00000000
,
10000000
00100000
00010000
00000000
00001000
00000100
00001001
00000000
,
00000001
00000010
00000001
00000100
00000010
00010000
00001000
00000000
,
00100000
01000000
10000000
00100000
00010000
00000000
00001000
00010000
,
00000100
00000000
00000000
00000010
00000000
00000000
00000001
00000100
00000010
00001000
00000000
00000000
,
00010000
00000000
00000000
01000000
00000000
00000000
00100000
10000000
00010000
01000000
00000000
00000000
,
00100000
00010000
00001000
00000000
00000100
00001000
00010000
00000000
,
00001000
00000010
00000001
00000100
00002000
00000000
00000000
00010000
,
00020000
00033000
00000000
00000000
;
