#VERSION:0.83;
#TITLE:DICE;
#SUBTITLE:;
#ARTIST:NMIXX;
#TITLETRANSLIT:;
#SUBTITLETRANSLIT:;
#ARTISTTRANSLIT:;
#GENRE:K-POP;
#ORIGIN:;
#CREDIT:MUINELIM;
#BANNER:DICE.png;
#BACKGROUND:DICE-bg.png;
#PREVIEWVID:;
#JACKET:DICE-jacket.png;
#CDIMAGE:;
#DISCIMAGE:;
#LYRICSPATH:;
#CDTITLE:;
#MUSIC:DICE.ogg;
#OFFSET:0.114000;
#SAMPLESTART:51.641724;
#SAMPLELENGTH:10.992367;
#SELECTABLE:YES;
#DISPLAYBPM:131.000000;
#BPMS:0.000=65.500,
8.000=131.000;
#STOPS:;
#DELAYS:;
#WARPS:;
#TIMESIGNATURES:0.000=4=4;
#TICKCOUNTS:0.000=4;
#COMBOS:0.000=1;
#SPEEDS:0.000=1.000=0.000=0;
#SCROLLS:0.000=1.000;
#FAKES:;
#LABELS:0.000=Song Start;
#BGCHANGES:;
#KEYSOUNDS:;
#ATTACKS:
;

//---------------dance-single - ----------------
#NOTEDATA:;
#CHARTNAME:;
#STEPSTYPE:dance-single;
#DESCRIPTION:;
#CHARTSTYLE:;
#DIFFICULTY:Hard;
#METER:11;
#RADARVALUES:0.467346,0.460726,0.172180,0.264010,0.309924,285.000000,270.000000,15.000000,23.000000,0.000000,0.000000,0.000000,0.000000,0.000000,0.467346,0.460726,0.172180,0.264010,0.309924,285.000000,270.000000,15.000000,23.000000,0.000000,0.000000,0.000000,0.000000,0.000000;
#CREDIT:MILEN;
#DISPLAYBPM:131.000000;
#NOTES:
0000
0000
0000
0000
,
0000
0000
0000
0000
,
1000
1000
1000
0100
0010
0001
0100
0000
,
0001
0001
0001
0010
0100
1000
0010
0000
,
0100
0100
0100
0001
1000
0010
0100
0000
,
0010
0010
0010
1000
0001
0100
0010
0010
,
0000
0000
0000
1000
0000
0000
0000
0000
0000
0000
0000
0000
1001
0000
0000
0000
0000
0000
0000
0000
0001
0000
0000
0000
0100
0000
0000
0000
0000
0000
0000
0000
0100
0000
0000
0000
0010
0000
0000
0000
0000
0000
0000
0000
0010
0000
0000
0000
,
1000
0000
0000
1000
0000
0000
0000
0000
0001
0000
0100
0000
0001
0000
0000
0000
0001
0000
0010
0000
0000
0000
0010
0000
,
0100
0000
0100
1000
0000
1000
0010
0000
0010
0200
0000
0000
,
0301
0000
0000
0001
0000
0000
1000
0000
0010
0000
0100
0000
0002
0000
0000
1003
0000
0000
0001
0000
0010
0000
0100
0000
,
2000
0000
0000
0000
3010
0000
0000
0100
0000
0000
0001
0000
0011
0000
0000
0000
,
1100
0000
1000
0010
0000
0010
0001
0000
0001
0010
0000
0010
,
1000
0000
0001
0000
0010
0000
0000
0100
0000
0000
1000
0000
1010
0000
0000
0000
,
0101
0000
0001
0010
0000
0010
1000
0000
1000
0010
0000
0010
,
0001
0000
0000
1000
0000
0000
0010
0000
0100
0000
0010
0000
0100
0000
0000
0000
0000
0000
0001
0000
0010
0000
0001
0000
,
0010
0000
0000
0100
1000
0100
1000
0000
1000
0010
0000
0010
,
0001
0000
0100
0000
0100
0000
0010
1000
0010
0000
2000
0000
0000
0000
3100
0000
,
0000
0010
0000
0000
0001
0000
0010
0001
0020
0000
0000
0000
0130
0000
0000
0100
,
2000
3001
0001
0001
,
0001
0000
0000
0001
0100
0000
0000
0000
1000
0000
0000
0000
1000
0000
0000
0000
,
1000
0000
0010
1000
0010
0000
0000
0000
0010
0000
0000
0000
0010
0000
0000
0000
,
0010
0000
0000
0010
0001
0000
0000
0000
0100
0000
0000
0100
1000
0000
0100
0000
,
0010
0100
0010
0000
0002
0000
0000
0000
0103
0000
0000
0000
2000
0000
0000
0000
,
3010
0002
0013
2000
,
3100
0000
1000
0010
1000
0010
0001
0100
,
0001
0100
1000
0010
0001
0100
1000
0020
,
0230
0000
0310
0000
0110
0000
0000
0000
0100
0000
0001
0000
1000
0000
0000
0100
,
0000
0000
0001
0000
1000
0000
0000
0010
0000
0000
0001
0000
0100
0000
0010
0000
,
0100
0000
0000
0000
0110
0000
0000
0000
0010
0000
1000
0000
0001
0000
0000
0010
,
0000
0000
1000
0000
0001
0000
0000
0100
0000
0000
1000
0000
0010
0000
0100
0000
,
0010
0000
0000
0000
0110
0000
0000
1000
0000
0000
0100
0000
0110
0000
0000
0001
,
0000
0000
0100
0000
0110
0000
0000
1000
0000
0000
0010
0000
0000
0001
0000
0000
,
1001
0000
1000
0010
0100
0001
0010
0100
,
1000
1000
0010
0001
0100
1000
0010
0001
,
0100
0000
1000
0000
0001
0000
0000
0100
0010
0000
2010
0000
0000
0000
3100
0000
,
0010
0001
0010
1000
0010
0001
0010
0100
,
1000
0000
0010
0000
0100
0000
0000
0100
0001
0000
0021
0000
0000
0000
0130
0000
,
1000
0100
0001
0100
1000
0100
0010
0002
,
0003
0000
0000
0000
0001
0000
0000
0100
0000
0000
2200
0000
3300
0000
0000
0000
,
0001
0000
0010
0000
1000
0000
0000
0100
0000
0000
0202
0000
0300
0000
0000
0000
,
2003
0000
3020
0000
0030
0010
0100
0001
,
0000
2000
3100
0100
0001
0010
1000
0001
,
0200
0310
0000
0000
;

//---------------dance-double - ----------------
#NOTEDATA:;
#CHARTNAME:;
#STEPSTYPE:dance-double;
#DESCRIPTION:;
#CHARTSTYLE:;
#DIFFICULTY:Hard;
#METER:10;
#RADARVALUES:0.465707,0.436477,0.229574,0.252531,0.269749,284.000000,264.000000,20.000000,22.000000,0.000000,0.000000,0.000000,0.000000,0.000000,0.465707,0.436477,0.229574,0.252531,0.269749,284.000000,264.000000,20.000000,22.000000,0.000000,0.000000,0.000000,0.000000,0.000000;
#CREDIT:MILEN;
#DISPLAYBPM:131.000000;
#NOTES:
// measure 0
00000000
00000000
00000000
00000000
,  // measure 1
00000000
00000000
00000000
00000000
,  // measure 2
00001000
00001000
00001000
00100000
00010000
01000000
00001000
00000000
,  // measure 3
00010000
00010000
00010000
00000100
00001000
00000010
00010000
00000000
,  // measure 4
00000100
00000100
00000100
00000010
00001000
00010000
01000000
00000000
,  // measure 5
00100000
00100000
00100000
01000000
00010000
00001000
00000100
00000001
,  // measure 6
00000000
00000000
00000000
00001000
00000000
00000000
00000000
00000000
00000000
00000000
00000000
00000000
00001001
00000000
00000000
00000000
00000000
00000000
00000000
00000000
00000001
00000000
00000000
00000000
00000100
00000000
00000000
00000000
00000000
00000000
00000000
00000000
00000100
00000000
00000000
00000000
00000010
00000000
00000000
00000000
00000000
00000000
00000000
00000000
00000010
00000000
00000000
00000000
,  // measure 7
00001000
00000000
00000000
00001000
00000000
00000000
00000000
00000000
00000100
00000000
00010000
00000000
00001000
00000000
00000000
00000000
00001000
00000000
00100000
00000000
00000000
00000000
00100000
00000000
,  // measure 8
00010000
00000000
00010000
01000000
00000000
01000000
00100000
00000000
00100000
20000000
00000000
00000000
,  // measure 9
30010000
00000000
00000000
00010000
00000000
00000000
01000000
00000000
00100000
00000000
01000000
00000000
00100000
00000000
00000000
01000000
00000000
00000000
00001000
00000000
00010000
00000000
00001000
00000000
,  // measure 10
00020000
00000000
00000000
00000000
00030100
00000000
00000000
00000100
00000000
00000000
00000100
00000000
00001100
00000000
00000000
00000000
,  // measure 11
00000011
00000000
00000001
00000100
00000000
00000100
00000010
00000000
00000010
00010000
00000000
00010000
,  // measure 12
00001000
00000000
00100000
00000000
01000000
00000000
00000000
01000000
00000000
00000000
01000000
00000000
11000000
00000000
00000000
00000000
,  // measure 13
00110000
00000000
00010000
01000000
00000000
01000000
00001000
00000000
00001000
00010000
00000000
00010000
,  // measure 14
00000100
00000000
00000000
00000010
00000000
00000000
00000001
00000000
00000000
00000000
00001000
00000000
00000010
00000000
00000000
00000000
00000000
00000000
00010000
00000000
00000000
00000000
00001000
00000000
,  // measure 15
00100000
00000000
00000000
01000000
00000000
10000000
00100000
00000000
00100000
01000000
00000000
01000000
,  // measure 16
00010000
00000000
00100000
00000000
00100000
00000000
00001000
00010000
00001000
00000000
02000000
00000000
00000000
00000000
03010000
00000000
,  // measure 17
00000000
00100000
00000000
00000000
00001000
00000000
00010000
00000100
00020000
00000000
00000000
00000000
00030010
00000000
00000000
00000010
,  // measure 18
00000200
00000301
00000001
00000001
,  // measure 19
00000001
00000011
00001000
00001000
,  // measure 20
00001100
00000100
00010000
00000000
00010000
00000000
00010000
00000000
,  // measure 21
00010000
00000000
00011000
00000000
01000000
00000000
10010000
00010000
,  // measure 22
01000000
00100000
01000000
00000000
00002000
00000000
00000000
00000000
00100000
00000000
00000000
00000000
00023000
00000000
00000000
00000000
,  // measure 23
00000010
00032000
01000000
00023000
,  // measure 24
00000100
00000000
00031000
00000010
00001000
00000010
00000001
00000100
,  // measure 25
00001000
00010000
00100000
10000000
01000000
00100000
00001000
00020000
,  // measure 26
00032000
00000000
00013000
00000000
00011000
00000000
00000000
00000000
00001000
00000000
00010000
00000000
00100000
00000000
00000000
10000000
,  // measure 27
00000000
00000000
00100000
00000000
00010000
00000000
00000000
00001000
00000000
00000000
00010000
00000000
00100000
00000000
10000000
00000000
,  // measure 28
01000000
00000000
00010000
00000000
00011000
00000000
00000000
00000000
00010000
00000000
00001000
00000000
00000100
00000000
00000000
00000001
,  // measure 29
00000000
00000000
00000100
00000000
00001000
00000000
00000000
00010000
00000000
00000000
00001000
00000000
00000100
00000000
00000001
00000000
,  // measure 30
00000010
00000000
00001000
00000000
00011000
00000000
00000000
01000000
00000000
00000000
00001000
00000000
00011000
00000000
00000000
00000010
,  // measure 31
00000000
00000000
00010000
00000000
00011000
00000000
00000000
00100000
00000000
00000000
00001000
00000000
00000000
00010000
00000000
00000000
,  // measure 32
00000020
00000000
00000130
00000001
00000010
00000100
00010000
00001000
,  // measure 33
00100000
01000000
10000000
00100000
01000000
00001000
00010000
00000010
,  // measure 34
00000100
00000000
00000001
00000000
00001001
00000000
00000000
00001000
00000100
00000000
00000200
00000000
00000000
00000000
00000310
00000000
,  // measure 35
00000001
00000100
00001000
00010000
00100000
10000000
01000000
00100000
,  // measure 36
00010000
00000000
01000000
00000000
01100000
00000000
00000000
00100000
10000000
00000000
20000000
00000000
00000000
00000000
30010000
00000000
,  // measure 37
00100000
01000000
00010000
00001000
00000010
00000001
00000100
00000020
,  // measure 38
00000030
00000000
00000000
00000000
00000010
00000000
00000000
00010000
00000000
00000000
00022000
00000000
00033000
00000000
00000000
00000000
,  // measure 39
00001000
00000000
00010000
00000000
00100000
00000000
00000000
10000000
00000000
00000000
20020000
00000000
30030000
00000000
00000000
00000000
,  // measure 40
01100000
00000000
00200000
00000000
00000000
10300000
01000000
00020000
,  // measure 41
00000000
00032000
00000000
00003010
00000001
00000100
00001000
00010000
,  // measure 42
00100000
10010000
00000000
00000000
;

//---------------dance-single - ----------------
#NOTEDATA:;
#CHARTNAME:;
#STEPSTYPE:dance-single;
#DESCRIPTION:;
#CHARTSTYLE:;
#DIFFICULTY:Beginner;
#METER:1;
#RADARVALUES:0.086910,0.144631,0.045915,0.000000,0.000000,53.000000,49.000000,4.000000,0.000000,0.000000,0.000000,0.000000,0.000000,0.000000,0.086910,0.144631,0.045915,0.000000,0.000000,53.000000,49.000000,4.000000,0.000000,0.000000,0.000000,0.000000,0.000000,0.000000;
#CREDIT:MILEN;
#DISPLAYBPM:131.000000;
#NOTES:
0000
0000
0000
0000
,
0000
0000
0000
0000
,
0000
1000
0000
0000
,
0000
1000
0000
0000
,
0000
0001
0000
0000
,
0000
0001
0000
0000
,
0000
0000
0000
0100
,
0000
0000
0000
0010
,
0000
0000
0000
0100
,
0000
0000
0000
0010
,
0000
0010
0000
1000
,
0000
0000
0000
0000
,
0000
0100
0000
0001
,
0000
0000
0000
0000
,
0000
0010
0000
0100
,
0000
0010
0000
0010
,
0000
0010
0000
0000
,
0000
0100
0000
0000
,
0000
0001
0000
0000
,
0000
1000
0000
0000
,
0000
0001
0000
0001
,
0000
1000
0000
1000
,
0000
0010
0000
0000
,
0000
0100
0000
0000
,
0000
0010
0000
0100
,
0000
0010
0010
0000
,
0000
1001
0000
0000
,
0000
0000
0000
0000
,
0000
1001
0000
0000
,
0000
0000
0000
0000
,
0000
1001
0000
0000
,
0000
0100
0000
0000
,
0000
1001
0000
0000
,
0000
0010
0000
0000
,
0000
1000
0000
0000
,
0000
0001
0000
0000
,
0000
0100
0000
0000
,
0000
0010
0000
0000
,
0000
1000
0000
1000
,
0000
0001
0000
0001
,
0000
0010
0000
0100
,
0000
0010
0000
0100
,
0100
0000
0000
0000
;

//---------------dance-single - ----------------
#NOTEDATA:;
#CHARTNAME:;
#STEPSTYPE:dance-single;
#DESCRIPTION:;
#CHARTSTYLE:;
#DIFFICULTY:Easy;
#METER:5;
#RADARVALUES:0.213176,0.242487,0.091829,0.068872,0.000000,130.000000,122.000000,8.000000,6.000000,0.000000,0.000000,0.000000,0.000000,0.000000,0.213176,0.242487,0.091829,0.068872,0.000000,130.000000,122.000000,8.000000,6.000000,0.000000,0.000000,0.000000,0.000000,0.000000;
#CREDIT:MILEN;
#DISPLAYBPM:131.000000;
#NOTES:
0000
0000
0000
0000
,
0000
0000
0000
0000
,
0000
1000
1000
1000
,
0000
0001
0001
0001
,
0000
0100
0100
0100
,
0000
0010
0010
0010
,
1001
1000
0100
0010
,
0010
0000
0001
0100
,
0010
1000
1000
0001
,
0001
0000
0100
0010
,
0110
1000
0000
0010
,
0000
0001
0100
0010
,
0100
0001
0000
0010
,
0000
1000
0100
0010
,
0100
1000
0000
0100
,
0000
0001
0100
1000
,
0100
0010
0010
0010
,
0000
0001
1000
0001
,
1001
1000
0000
0100
,
0000
0010
0000
0001
,
0000
0010
0010
0001
,
0100
0010
0100
0010
,
1000
1000
0000
0001
,
0000
1000
0000
0001
,
0000
1000
0001
0010
,
0100
1000
0010
0100
,
0110
1000
0000
0010
,
0000
0001
0000
0100
,
0100
0001
0000
0010
,
0000
1000
0000
0100
,
0100
1000
0000
0010
,
0000
0001
0000
0100
,
0000
1000
0000
0010
,
0000
0100
0010
0100
,
0110
0001
0010
0002
,
0003
1000
0100
0100
,
1000
0010
2000
3000
,
0001
0100
0100
0001
,
1000
0020
0000
0030
,
0100
0020
0000
0030
,
0110
2002
3003
0001
,
0100
1000
0010
0001
,
1000
0110
0000
0000
;

//---------------dance-double - ----------------
#NOTEDATA:;
#CHARTNAME:;
#STEPSTYPE:dance-double;
#DESCRIPTION:;
#CHARTSTYLE:;
#DIFFICULTY:Easy;
#METER:5;
#RADARVALUES:0.213176,0.242487,0.091829,0.068872,0.000000,130.000000,122.000000,8.000000,6.000000,0.000000,0.000000,0.000000,0.000000,0.000000,0.213176,0.242487,0.091829,0.068872,0.000000,130.000000,122.000000,8.000000,6.000000,0.000000,0.000000,0.000000,0.000000,0.000000;
#CREDIT:MILEN;
#DISPLAYBPM:131.000000;
#NOTES:
00000000
00000000
00000000
00000000
,
00000000
00000000
00000000
00000000
,
00000000
01000000
01000000
01000000
,
00000000
00001000
00001000
00001000
,
00000000
00010000
00010000
00010000
,
00000000
00000100
00000100
00000100
,
00001100
00000001
00000010
00000100
,
00000100
00000000
00000100
00010000
,
00001000
01000000
00001000
01000000
,
00010000
00000000
10000000
01000000
,
11000000
00010000
00000000
00100000
,
00000000
01000000
00010000
00001000
,
00010000
00001000
00000000
00000010
,
00000000
00000100
00010000
00001000
,
00010000
00001000
00000000
00000010
,
00000000
00000001
00000100
00001000
,
00010000
00100000
00100000
00100000
,
00000000
10000000
01000000
00100000
,
01100000
10000000
00000000
01000000
,
00000000
00010000
00000000
00001000
,
00000000
00000010
00000010
00000001
,
00000100
00001000
00000100
00001000
,
00010000
00010000
00000000
00100000
,
00000000
10000000
00000000
00100000
,
00000000
10000000
01000000
00010000
,
01000000
00010000
00001000
00000010
,
00000011
00000100
00000000
00001000
,
00000000
00010000
00000000
00100000
,
01000000
00100000
00000000
00010000
,
00000000
00001000
00000000
00000100
,
00000010
00000100
00000000
00001000
,
00000000
00010000
00000000
00100000
,
00000000
01000000
00000000
10000000
,
00000000
01000000
00100000
01000000
,
01100000
00010000
00100000
02000000
,
03000000
00100000
00001000
00001000
,
00010000
00001000
00000200
00000300
,
00001000
00000100
00000100
00000010
,
00000100
00000002
00000000
00000003
,
00001000
00002000
00000000
00003000
,
00001001
00000220
00000330
00000001
,
00000100
00001000
00010000
00100000
,
01000000
01100000
00000000
00000000
;

//---------------dance-single - ----------------
#NOTEDATA:;
#CHARTNAME:;
#STEPSTYPE:dance-single;
#DESCRIPTION:;
#CHARTSTYLE:;
#DIFFICULTY:Medium;
#METER:9;
#RADARVALUES:0.357479,0.363731,0.206616,0.183659,0.068872,218.000000,200.000000,18.000000,16.000000,0.000000,0.000000,0.000000,0.000000,0.000000,0.357479,0.363731,0.206616,0.183659,0.068872,218.000000,200.000000,18.000000,16.000000,0.000000,0.000000,0.000000,0.000000,0.000000;
#CREDIT:MILEN;
#DISPLAYBPM:131.000000;
#NOTES:
0000
0000
0000
0000
,
0000
0000
0000
0000
,
1000
0000
1000
0000
0100
0010
0001
0000
,
1000
0000
1000
0000
0010
0100
0001
0000
,
1001
0000
0001
0000
0010
0100
1000
0000
,
0001
0000
0001
0000
0100
0010
1000
0000
,
1001
0000
0000
0001
0000
0000
0001
0000
0000
0100
0000
1000
,
0100
0000
0000
0000
0000
0000
1000
0000
0000
0010
0000
0001
,
0010
0000
0000
0001
0000
1000
0010
0000
0010
1000
0000
0000
,
0001
0002
0000
0000
1003
0000
0001
0000
,
1001
0000
1000
0010
1000
0010
1000
0000
,
0001
0100
1000
0010
,
0110
0000
0001
0010
0001
0010
0001
0000
,
1000
0100
0001
0010
,
0110
2000
3010
0002
,
0103
2000
3100
0002
,
0013
0000
0010
0100
0010
0100
0000
1000
,
0000
1000
0000
0000
1000
0000
0010
0000
0100
0000
0000
0000
0002
0000
0000
0000
,
2003
3100
0100
0100
,
1100
0010
0010
0010
,
0011
0100
1010
0010
,
0101
1000
0110
0001
,
1001
0000
2000
0000
3000
0100
0200
0000
,
0300
0010
0020
0000
0030
0001
0002
0000
,
0000
0103
1000
0010
,
0001
0000
1000
0010
0100
0001
0010
0100
,
0010
0000
0000
0000
1001
0000
0000
0000
1000
0000
0001
0000
0100
0000
0000
0100
,
0000
0000
0100
0000
0010
0000
0000
0010
0000
0000
0010
0000
1000
0000
0001
0000
,
1000
0000
0000
0000
1001
0000
0000
0000
0001
0000
1000
0000
0100
0000
0000
0100
,
0000
0000
0100
0000
0010
0000
0000
0010
0000
0000
0010
0000
1000
0000
0001
0000
,
1000
0000
0000
0000
0110
0000
0000
0010
0000
0000
0010
0000
1000
0000
0000
1000
,
0000
0000
1000
0000
0100
0000
0000
0100
0000
0000
0100
0000
0001
0000
0000
0000
,
0010
0000
0100
0010
0001
0000
1000
0100
,
0010
0000
0010
0001
0010
0100
1000
0010
,
0100
0000
0101
0000
0001
2000
0000
3001
,
0100
1000
0010
0001
,
0100
0000
1100
0000
1000
0002
0000
1003
,
0100
0001
0010
1000
,
0100
0000
0101
0000
0001
1000
0100
0000
,
1000
0000
1100
0000
1000
0001
0010
0000
,
0001
0000
2000
0000
0000
3010
0010
0020
,
0000
0130
0000
0001
1000
0100
0010
0002
,
0000
0103
0000
0000
;

//---------------dance-double - ----------------
#NOTEDATA:;
#CHARTNAME:;
#STEPSTYPE:dance-double;
#DESCRIPTION:;
#CHARTSTYLE:;
#DIFFICULTY:Medium;
#METER:8;
#RADARVALUES:0.350920,0.363731,0.206616,0.195138,0.068872,214.000000,196.000000,18.000000,17.000000,0.000000,0.000000,0.000000,0.000000,0.000000,0.350920,0.363731,0.206616,0.195138,0.068872,214.000000,196.000000,18.000000,17.000000,0.000000,0.000000,0.000000,0.000000,0.000000;
#CREDIT:MILEN;
#DISPLAYBPM:131.000000;
#NOTES:
00000000
00000000
00000000
00000000
,
00000000
00000000
00000000
00000000
,
00001000
00000000
00010000
00000000
01000000
00100000
01000000
00000000
,
00010000
00000000
00001000
00000000
00000010
00000100
00000010
00000000
,
00001000
00000000
00010000
00000000
00100000
01000000
00100000
00000000
,
00010000
00000000
00001000
00000000
00000100
00000010
00000100
00000000
,
00001001
00000000
00000000
00000001
00000000
00000000
00001000
00000000
00000000
00000100
00000000
00010000
,
00000100
00000000
00000000
00000000
00000000
00000000
00010000
00000000
00000000
00001000
00000000
00100000
,
00001000
00000000
00000000
01000000
00000000
00100000
10000000
00000000
01000000
10000000
00000000
00000000
,
00100000
00200000
00000000
00000000
01300000
00000000
00010000
00000000
,
10010000
00000000
10000000
01000000
10000000
01000000
00100000
00000000
,
00010000
00001000
00000100
00000010
,
00000110
00000000
00000001
00000100
00000001
00000100
00000010
00000000
,
00001000
00010000
01000000
00100000
,
01100000
20000000
30100000
00020000
,
00031000
00000200
00000301
00000020
,
00001030
00000000
00001000
00010000
00001000
00100000
00000000
00010000
,
00000000
00010000
00000000
00000000
00010000
00000000
10000000
00000000
01000000
00000000
00000000
00000000
00020000
00000000
00000000
00000000
,
00032000
00003010
00000001
00000010
,
00000011
00000100
00001000
00000100
,
00001100
00010000
00010010
00001000
,
01001000
00010000
00010100
00001000
,
00101000
00000000
00200000
00000000
00300000
00010000
02000000
00000000
,
03000000
00001000
00020000
00000000
00030000
00000100
00002000
00000000
,
00000000
00003001
00000100
00001000
,
00010000
00000000
00100000
10000000
01000000
00000000
00100000
00010000
,
01000000
00000000
00000000
00000000
01100000
00000000
00000000
00000000
00100000
00000000
10000000
00000000
01000000
00000000
00000000
01000000
,
00000000
00000000
01000000
00000000
00010000
00000000
00000000
00010000
00000000
00000000
00010000
00000000
00001000
00000000
00000010
00000000
,
00000100
00000000
00000000
00000000
00000110
00000000
00000000
00000000
00000010
00000000
00000001
00000000
00000100
00000000
00000000
00000100
,
00000000
00000000
00000100
00000000
00001000
00000000
00000000
00001000
00000000
00000000
00001000
00000000
00010000
00000000
00100000
00000000
,
01000000
00000000
00000000
00000000
01100000
00000000
00000000
00100000
00000000
00000000
00100000
00000000
10000000
00000000
00000000
10000000
,
00000000
00000000
10000000
00000000
01000000
00000000
00000000
01000000
00000000
00000000
01000000
00000000
00010000
00000000
00000000
00000000
,
00001000
00000000
00000010
00000100
00000010
00000000
00000001
00000100
,
00001000
00000000
00010000
00100000
10000000
00000000
01000000
00100000
,
01000000
00000000
10010000
00000000
10000000
00200000
00000000
00310000
,
01000000
10000000
00100000
00010000
,
00000010
00000000
00001001
00000000
00000001
00000020
00000000
00001030
,
00000100
00000001
00000010
00001000
,
00100000
10010000
10000000
00010000
,
00001000
00011000
00010000
00001000
,
00000001
00000000
00002002
00003003
00000000
00000001
00000100
00000020
,
00000000
00010030
00000000
00010000
00001000
00010000
00100000
20000000
,
00000000
31000000
00000000
00000000
;
