#TITLE:Cross+Destiny;
#SUBTITLE:;
#ARTIST:HyuN;
#TITLETRANSLIT:;
#SUBTITLETRANSLIT:;
#ARTISTTRANSLIT:;
#GENRE:VARIETY;
#CREDIT:;
#BANNER:Cross+Destiny.png;
#BACKGROUND:Cross+Destiny-bg.png;
#LYRICSPATH:;
#CDTITLE:;
#MUSIC:Cross+Destiny.mp3;
#OFFSET:-0.041000;
#SAMPLESTART:89.192101;
#SAMPLELENGTH:11.799416;
#SELECTABLE:YES;
#DISPLAYBPM:183;
#BPMS:0.000000=183.06;
#STOPS:
;
#BGCHANGES:;
#KEYSOUNDS:;
#ATTACKS:;

//---------------dance-single - ----------------
#NOTES:
     dance-single:
     :
     Hard:
     15:
     0.625543,0.976480,0.489990,0.365548,0.124442,563.000000,500.000000,63.000000,47.000000,0.000000,0.000000,0.625543,0.976480,0.489990,0.365548,0.124442,563.000000,500.000000,63.000000,47.000000,0.000000,0.000000:
0000
0000
0000
0000
,
0000
0000
0000
0000
,
0000
0000
0000
0000
,
0000
0000
0000
0000
,
0000
0000
0000
0000
,
0000
0000
0000
0000
,
0000
0000
0000
0000
,
0000
0000
0000
0000
,
0000
0000
0000
0000
,
0000
0000
0000
0000
,
2002
3003
1000
0010
,
0200
0300
0001
0100
,
0020
0030
1000
0100
,
0020
0000
0032
0000
0000
0103
0100
0010
,
1000
0000
0000
0001
0000
0000
1000
0000
1010
0000
0000
0000
0000
0000
0000
0000
,
0001
0000
0000
1000
0000
0000
0001
0000
0011
0000
0000
0000
0000
0000
0000
0000
,
1000
0000
0000
0001
0000
0000
1000
0000
1001
0000
0000
0000
0100
0000
0000
0000
,
0010
1000
0001
0200
,
0320
1000
0001
1030
,
0200
0001
1000
0301
,
0020
0001
1000
0130
,
0100
0000
0001
0000
1000
0000
0010
0000
0100
0001
0100
0000
0010
1000
0010
0000
,
0220
0330
0101
0011
,
1001
0000
0000
1000
1010
0000
1100
0000
,
1001
0001
0100
0010
1000
0100
0010
0001
,
0100
0010
0100
0000
0010
0000
1000
0000
0100
0010
0100
0000
0010
0000
0001
0000
,
0100
0010
2000
0000
3100
0010
0002
0000
,
1003
0100
0020
0000
0031
0100
0020
0000
,
1030
0001
0020
0000
0130
1000
0002
0000
,
0103
0010
2000
0000
3001
0010
0200
0000
,
1300
0010
0100
0001
1000
0100
0020
0000
,
0031
0100
0010
1000
0001
0010
0200
0000
,
1300
1000
0010
0100
0001
0001
0010
0100
,
0010
0000
0010
0000
0100
0000
0100
0000
1000
0100
1000
0000
0001
0010
0001
0000
,
0200
1000
0000
0001
0000
1000
0000
0301
,
0001
0000
0010
0000
0100
0000
1000
0000
0010
0000
0100
0000
0001
1000
0001
1000
,
0002
0003
1000
0100
,
0020
0030
0001
0010
,
0200
0000
0000
1300
1000
0000
0010
0000
,
0100
0000
0002
0000
0000
0013
0100
0010
,
0001
0000
0000
0100
0000
0000
0010
0000
1010
0000
0000
0000
0000
0000
1000
0000
,
1000
0000
0000
0100
0000
0000
0010
0000
0011
0000
0000
0000
0000
0000
0001
0000
,
0001
0000
0000
1000
0000
0000
0010
0000
0110
0000
0000
0000
0101
0000
0000
0000
,
1010
2002
3003
1100
,
0012
0000
0000
0103
0100
1000
0100
0001
,
0020
0000
0000
0000
0130
0100
0010
0001
,
0200
0000
0000
1300
1000
0000
0100
0000
,
0010
0000
0002
0000
0000
0013
0010
0100
,
0001
0000
0000
0010
0000
0000
0100
0000
1100
0000
0000
0000
0000
0000
1000
0000
,
1000
0000
0000
0010
0000
0000
0100
0000
0101
0000
0000
0000
0000
0000
0001
0000
,
0001
0000
0000
1000
0000
0000
0100
0000
0110
0000
0000
0000
0011
0000
0000
0000
,
1100
0000
0101
0000
1010
0000
2002
3003
,
0001
0100
1000
0100
0010
0100
0001
0100
,
0010
0001
0010
0100
0010
1000
0010
0100
,
1000
0001
0010
0100
0010
1000
0010
0001
,
0010
0100
0001
0100
1000
0100
0010
0100
,
0101
0001
1000
0100
0010
1000
0010
0001
,
1000
0100
0001
0100
0010
0001
0100
0010
,
1000
1000
0100
0010
0001
0001
1000
0010
,
0100
0000
0100
0000
0010
0000
0010
0000
1000
0010
1000
0000
0001
0100
0001
0000
,
1000
1000
0100
0001
0100
0010
1000
0010
,
0001
0001
0100
1000
0100
0010
0001
0010
,
1000
1000
0100
0001
1000
0010
0100
1000
,
0001
0001
0100
1000
0001
0010
0100
0001
,
0021
0100
1000
0031
,
1200
0010
0001
1300
,
1020
0130
0201
0310
,
1001
0000
0001
0000
1000
0000
0010
0000
0100
0001
0100
0001
0100
0001
0100
0001
,
0020
0000
0000
0100
0130
0000
1100
0000
,
0011
0000
0001
0100
1000
0000
0010
0000
,
0101
0000
0001
0100
1000
0000
0010
0000
,
1001
0000
0001
0100
1000
0000
0010
0000
,
0110
0100
0001
0100
1000
0100
0010
0000
,
0001
0010
1000
0100
0001
0100
0010
0000
,
0011
0001
0100
0010
1010
1000
0001
0010
,
0100
0000
0001
0000
0100
0000
0010
0000
0001
0000
1000
0000
0100
0010
0100
0010
,
0200
0000
0000
0010
0310
0000
0011
0000
,
1100
0000
1000
0010
0001
0000
0100
0000
,
1010
0000
1000
0010
0001
0000
0100
0000
,
1001
0000
1000
0010
0001
0000
0100
0000
,
0110
0010
0001
0010
1000
0010
0100
0000
,
0001
0010
1000
0010
0100
1000
0010
0000
,
1010
1000
0100
0010
0011
0001
1000
0100
,
0010
0000
1000
0000
0010
0000
0100
0000
1000
0000
0010
0000
0100
0001
0100
0001
,
2000
0000
0000
3010
0110
0000
0000
0100
,
0101
0000
0000
0001
0011
0000
0110
0000
,
1100
0000
0000
0000
0000
0000
1000
0000
1010
0000
0000
0000
0100
0000
0001
0010
,
0002
0203
2300
3020
,
0031
0100
0010
1000
1001
0001
0010
0100
,
0110
0010
0100
1000
1010
0010
0110
0100
,
0101
0001
1001
1000
1100
0100
0110
0010
,
0011
0000
0001
0000
1001
0000
1000
0000
0010
0100
0010
0100
0001
1000
0001
1000
,
0200
0000
0000
0000
,
0300
0000
0000
0000
;

//---------------dance-double - ----------------
#NOTES:
     dance-double:
     :
     Hard:
     14:
     0.585544,0.723319,0.318882,0.474435,0.077776,527.000000,486.000000,41.000000,61.000000,0.000000,0.000000,0.585544,0.723319,0.318882,0.474435,0.077776,527.000000,486.000000,41.000000,61.000000,0.000000,0.000000:
00000000
00000000
00000000
00000000
,
00000000
00000000
00000000
00000000
,
00000000
00000000
00000000
00000000
,
00000000
00000000
00000000
00000000
,
00000000
00000000
00000000
00000000
,
00000000
00000000
00000000
00000000
,
00000000
00000000
00000000
00000000
,
00000000
00000000
00000000
00000000
,
00000000
00000000
00000000
00000000
,
00000000
00000000
00000000
00000000
,
00022000
00033000
00001000
00100000
,
00020000
00030000
01000000
00001000
,
00020000
00030000
00000100
00001000
,
00000020
00000000
00020030
00000000
00000000
00031000
00001000
00010000
,
00100000
00000000
00000000
10000000
00000000
00000000
01000000
00000000
01000000
00000000
00000000
00000000
00000000
00000000
00000000
00000000
,
00010000
00000000
00000000
00001000
00000000
00000000
00000010
00000000
00000010
00000000
00000000
00000000
00000000
00000000
00000000
00000000
,
00000001
00000000
00000000
00000100
00000000
00000000
00001000
00000000
00011000
00000000
00000000
00000000
01000000
00000000
00000000
00000000
,
00001000
00010000
00000100
00002000
,
00003020
00010000
00001000
00010030
,
00200000
00010000
00001000
00310000
,
00000200
00010000
00001000
00010300
,
01000000
00100000
10000000
00010000
00100000
01000000
00010000
00001000
,
00022000
00033000
00010100
00011000
,
01001000
00000000
00000000
00001000
00101000
00000000
00011000
00000000
,
00010010
00000010
00001000
00000100
00000010
00000001
00000100
00001000
,
00010000
00001000
00010000
00000000
01000000
00000000
00010000
00000000
00001000
00010000
00001000
00000000
00010000
00000000
00100000
00000000
,
20000000
32000000
03200000
00320000
,
00032000
00003020
00000230
00000302
,
00000023
00000230
00002300
00023000
,
02030000
03200000
20300000
30020000
,
00130000
01000000
10000000
00100000
00010000
00001000
00010000
01000000
,
00010000
00001000
00000100
00001000
00010000
00001000
00000010
00000001
,
00000100
00000010
00001000
00000100
00010000
00001000
00100000
00010000
,
01000000
00100000
10000000
00010000
00100000
01000000
00010000
00001000
,
00000020
00000001
00000000
00000100
00000000
00001000
00000000
00000130
,
00000100
00000000
00000010
00000000
00000001
00000000
00000100
00000000
00001000
00000000
00010000
00000000
00100000
10000000
00100000
10000000
,
00200000
00300000
01000000
00010000
,
00200000
00300000
01000000
00010000
,
00002000
00000000
00000000
00003010
00000010
00000000
00000001
00000000
,
00000100
00000000
00002000
00000000
00000000
00013000
00001000
00010000
,
00100000
00000000
00000000
10000000
00000000
00000000
01000000
00000000
01000000
00000000
00000000
00000000
00000000
00000000
00010000
00000000
,
00001000
00000000
00000000
00000010
00000000
00000000
00000001
00000000
00000001
00000000
00000000
00000000
00000000
00000000
00000100
00000000
,
00001000
00000000
00000000
00010000
00000000
00000000
00100000
00000000
10100000
00000000
00000000
00000000
11000000
00000000
00000000
00000000
,
00110000
02020000
03030000
01001000
,
00010020
00000000
00000000
00001030
00001000
00000100
00000010
00000001
,
00002000
00000000
00000000
00000000
00003100
00000100
00010000
00001000
,
00200000
00000000
00000000
01300000
01000000
00000000
10000000
00000000
,
00100000
00000000
00020000
00000000
00000000
00031000
00001000
00000010
,
00000001
00000000
00000000
00000100
00000000
00000000
00001000
00000000
00001000
00000000
00000000
00000000
00000000
00000000
00010000
00000000
,
00100000
00000000
00000000
10000000
00000000
00000000
01000000
00000000
01000000
00000000
00000000
00000000
00000000
00000000
00010000
00000000
,
00001000
00000000
00000000
00000010
00000000
00000000
00000001
00000000
00000001
00000000
00000000
00000000
00000101
00000000
00000000
00000000
,
00001010
00000000
00001100
00000000
00000011
00000000
00002002
00003003
,
00001000
00000100
00000010
00000100
00000001
00000100
00001000
00000100
,
00010000
01000000
00100000
01000000
10000000
01000000
00010000
01000000
,
00100000
00010000
00100000
10000000
00100000
01000000
00100000
00010000
,
00000010
00001000
00000010
00000001
00000010
00000100
00000010
00001000
,
00010000
00100000
10000000
01000000
00010000
01000000
10000000
00100000
,
00010000
00001000
00000100
00000001
00000010
00001000
00000010
00000001
,
00000100
00001000
00010000
00100000
10000000
01000000
00010000
00001000
,
00000010
00000000
00000001
00000000
00000100
00000000
00001000
00000000
00010000
00001000
00010000
00000000
00001000
00010000
00001000
00000000
,
00100000
01000000
00010000
00001000
00010000
01000000
00010000
00001000
,
00000010
00001000
00010000
00001000
00000010
00000100
00001000
00000001
,
00000010
00000100
00010000
00001000
00000100
00001000
00010000
00001000
,
00100000
01000000
00010000
00001000
00010000
00100000
00010000
00001000
,
00000020
00000032
00000203
00002300
,
00023000
00230000
20300000
32000000
,
03020000
00032000
00003020
00000031
,
00001001
00000000
00001000
00000000
00000100
00000000
00010000
00000000
00001000
00100000
00001000
00000000
00010000
00000010
00010000
00000000
,
00002000
00000000
00000000
00100000
00103000
00000000
01100000
00000000
,
10010000
00000000
10000000
00100000
00010000
00000000
00001000
00000000
,
00000011
00000000
00000001
00000100
00001000
00000000
00010000
00000000
,
10100000
00000000
10000000
01000000
00010000
00000000
00001000
00000000
,
00000011
00000001
00000100
00001000
00000100
00000001
00000100
00001000
,
00010000
00100000
10000000
00100000
00010000
00100000
10000000
01000000
,
00100000
00100000
00001000
00010000
00100000
00100000
10000000
01000000
,
00100000
00001000
00010000
00000100
00010000
00001000
01000000
00001000
,
00020000
00000000
00000000
00000010
00030010
00000000
00000110
00000000
,
00001001
00000000
00000001
00000010
00001000
00000000
00010000
00000000
,
10100000
00000000
10000000
01000000
00010000
00000000
00001000
00000000
,
00000011
00000000
00000001
00000100
00001000
00000000
00010000
00000000
,
10100000
10000000
01000000
00010000
01000000
10000000
01000000
00010000
,
00001000
00000010
00000001
00000010
00001000
00000010
00000001
00000100
,
00000010
00000010
00010000
00001000
00000010
00000010
00000001
00000100
,
00000010
00010000
00001000
01000000
00001000
00010000
00000100
00010000
,
00002000
00000000
00000000
00103000
00110000
00000000
00000000
00010000
,
01010000
00000000
00000000
10000000
11000000
00000000
01100000
00000000
,
00101000
00000000
00000000
00000000
00000000
00000000
00010000
00000000
00010010
00000000
00000000
00000000
00000010
00000000
00000100
00000001
,
00000200
00002300
00023000
00230000
,
10300000
01000000
00100000
00010000
01010000
01000000
00001000
00010000
,
00011000
00001000
00010000
00000100
00001100
00001000
00000100
00000100
,
00000010
00000010
00000001
00000001
00000100
00000100
00001000
00001000
,
00010000
00000000
00010000
00000000
00100000
00000000
00100000
00000000
10000000
01000000
00100000
00000000
01000000
00100000
00010000
00000000
,
00022000
00000000
00000000
00000000
,
00033000
00000000
00000000
00000000
;

//---------------dance-single - ----------------
#NOTES:
     dance-single:
     :
     Beginner:
     4:
     0.164441,0.250439,0.054443,0.000000,0.000000,148.000000,141.000000,7.000000,0.000000,0.000000,0.000000,0.164441,0.250439,0.054443,0.000000,0.000000,148.000000,141.000000,7.000000,0.000000,0.000000,0.000000:
// measure 0
0000
0000
0000
0000
,  // measure 1
0000
0000
0000
0000
,  // measure 2
0000
0000
0000
0000
,  // measure 3
0000
0000
0000
0000
,  // measure 4
0000
0000
0000
0000
,  // measure 5
0000
0000
0000
0000
,  // measure 6
0000
0000
0000
0000
,  // measure 7
0000
0000
0000
0000
,  // measure 8
0000
0000
0000
0000
,  // measure 9
0000
0000
0000
0000
,  // measure 10
1000
0000
0000
0000
,  // measure 11
0001
0000
0000
0000
,  // measure 12
0010
0000
0000
0000
,  // measure 13
0100
0000
0000
0000
,  // measure 14
1000
0000
0000
0000
,  // measure 15
0001
0000
0000
0000
,  // measure 16
0100
0000
0000
0000
,  // measure 17
0010
0000
0000
0000
,  // measure 18
0100
0000
0100
0000
,  // measure 19
0001
0000
0001
0000
,  // measure 20
1000
0000
1000
0000
,  // measure 21
0010
0000
0010
0000
,  // measure 22
0100
0000
0001
0000
,  // measure 23
1000
0000
0010
0000
,  // measure 24
0100
0000
0100
0000
,  // measure 25
0100
0100
0100
0000
,  // measure 26
0001
0000
1000
0000
,  // measure 27
0001
0000
1000
0000
,  // measure 28
0001
0000
0001
0000
,  // measure 29
1000
0000
1000
0000
,  // measure 30
0010
0000
0100
0000
,  // measure 31
0010
0000
0100
0000
,  // measure 32
0010
0000
0010
0000
,  // measure 33
0100
0000
0100
0100
,  // measure 34
0100
0000
0000
0000
,  // measure 35
0001
0000
1000
0000
,  // measure 36
1001
0000
0000
0000
,  // measure 37
0000
0000
0000
0000
,  // measure 38
0000
0000
0000
0000
,  // measure 39
0000
0000
0000
0000
,  // measure 40
0001
0000
0001
0000
,  // measure 41
1000
0000
1000
0000
,  // measure 42
0001
0000
1000
0000
,  // measure 43
0001
0000
1000
0000
,  // measure 44
1001
0000
0000
0000
,  // measure 45
0000
0000
0000
0000
,  // measure 46
0000
0000
0000
0000
,  // measure 47
0000
0000
0000
0000
,  // measure 48
1000
0000
1000
0000
,  // measure 49
0001
0000
0001
0000
,  // measure 50
1000
0000
0001
0000
,  // measure 51
1000
1000
0000
0000
,  // measure 52
0010
0000
0001
0000
,  // measure 53
0100
0000
0001
0000
,  // measure 54
0010
0000
0001
0000
,  // measure 55
0100
0000
0000
0000
,  // measure 56
0100
0000
1000
0000
,  // measure 57
0010
0000
1000
0000
,  // measure 58
0100
0000
1000
0000
,  // measure 59
0010
0000
0000
0000
,  // measure 60
0001
0000
1000
0000
,  // measure 61
0001
0000
0010
0000
,  // measure 62
0001
0000
1000
0000
,  // measure 63
0001
0000
0000
0000
,  // measure 64
1000
0000
0001
0000
,  // measure 65
1000
0000
0100
0000
,  // measure 66
1000
0000
0010
0000
,  // measure 67
1000
0000
0000
0001
,  // measure 68
0001
0000
0010
0000
,  // measure 69
0100
0000
1000
0000
,  // measure 70
0001
0000
0010
0000
,  // measure 71
0100
0100
0100
0000
,  // measure 72
1000
0000
0100
0000
,  // measure 73
0010
0000
0001
0000
,  // measure 74
1000
0000
0100
0000
,  // measure 75
0010
0010
0010
0000
,  // measure 76
0001
0000
0100
0000
,  // measure 77
0010
0000
1000
0000
,  // measure 78
0001
0000
0100
0000
,  // measure 79
0010
0010
0010
0000
,  // measure 80
1000
0000
0010
0000
,  // measure 81
0100
0000
0001
0000
,  // measure 82
1000
0000
0010
0000
,  // measure 83
0100
0100
0100
0000
,  // measure 84
1001
0000
0000
0000
,  // measure 85
1001
0000
0000
0000
,  // measure 86
1001
0000
0000
0000
,  // measure 87
1001
0000
0000
0000
,  // measure 88
0001
0000
0100
0000
,  // measure 89
1000
0000
0010
0000
,  // measure 90
0001
0000
0100
0000
,  // measure 91
1000
0000
0010
0000
,  // measure 92
0110
0000
0000
0000
;

//---------------dance-single - ----------------
#NOTES:
     dance-single:
     :
     Easy:
     8:
     0.301105,0.397825,0.194441,0.101109,0.000000,271.000000,246.000000,25.000000,13.000000,0.000000,0.000000,0.301105,0.397825,0.194441,0.101109,0.000000,271.000000,246.000000,25.000000,13.000000,0.000000,0.000000:
0000
0000
0000
0000
,
0000
0000
0000
0000
,
0000
0000
0000
0000
,
0000
0000
0000
0000
,
0000
0000
0000
0000
,
0000
0000
0000
0000
,
0000
0000
0000
0000
,
0000
0000
0000
0000
,
0000
0000
0000
0000
,
0000
0000
0000
0000
,
1000
0000
0001
0000
,
1000
0000
0001
0000
,
0100
0000
0010
0000
,
0100
0000
0010
0000
,
1000
0001
1000
0000
,
0001
1000
0001
0000
,
0100
0010
0100
0000
,
0010
0100
0010
0010
,
1000
0000
0100
0000
,
0010
0000
0001
0000
,
1000
0000
0100
0000
,
0010
0000
0001
0000
,
1001
0000
1000
0100
,
1000
0000
0001
0010
,
0001
0000
1000
0000
,
0010
0100
0001
1000
,
0010
0000
0001
0000
,
0100
0000
1000
0000
,
0010
0000
0001
0000
,
0100
0000
1000
0000
,
0010
0001
0100
0000
,
0100
1000
0010
0000
,
0010
0001
0100
1000
,
0010
0100
0010
0100
,
0120
0000
0100
0000
,
0130
0100
0010
1000
,
1001
0000
0000
0000
,
0001
0000
0000
0000
,
1001
0000
0000
0000
,
1000
0000
0000
0000
,
1001
0000
0001
0000
,
1001
0000
1000
0000
,
1001
0000
0110
0000
,
1001
0000
1001
0000
,
0110
0000
0000
0000
,
0100
0000
0000
0000
,
0110
0000
0000
0000
,
0010
0000
0000
0000
,
0110
0000
0100
0000
,
0110
0000
0010
0000
,
0110
0000
1001
0000
,
0110
0000
0220
0330
,
0010
1000
0100
0010
,
0001
1000
0100
0100
,
0100
0001
0010
0100
,
1000
0001
0010
0010
,
0010
1000
0100
0001
,
1000
0010
0001
0100
,
0001
0010
1000
0001
,
0100
1000
0010
1000
,
0100
0001
0010
0100
,
1000
0001
0010
0010
,
0010
1000
0100
0010
,
0001
1000
0100
0100
,
0100
0001
0010
1000
,
0001
0100
1000
0010
,
1000
0100
0001
1000
,
0010
0001
0100
0001
,
0020
0030
1000
0100
,
0020
0030
0001
0100
,
0020
1030
1000
0100
,
0020
0031
0001
0100
,
1010
1000
0100
0010
,
0001
0100
1000
0100
,
0001
0001
0010
0010
,
0100
1000
0010
0110
,
0200
0300
0001
0010
,
0200
0300
1000
0010
,
0200
0301
0001
0010
,
0200
1300
1000
0010
,
0101
0001
0010
0100
,
1000
0010
0001
0010
,
1000
1000
0100
0100
,
0010
0001
0100
0110
,
1000
0000
0001
0000
,
1000
0000
0001
0000
,
1000
0001
0100
1000
,
0010
0001
1001
0110
,
1000
0010
0100
1000
,
0100
0010
0001
0010
,
0100
0001
1000
0010
,
0001
0100
1000
0010
,
0220
0000
0000
0000
,
0330
0000
0000
0000
;

//---------------dance-single - ----------------
#NOTES:
     dance-single:
     :
     Medium:
     12:
     0.489990,0.650987,0.225551,0.326660,0.000000,441.000000,412.000000,29.000000,42.000000,0.000000,0.000000,0.489990,0.650987,0.225551,0.326660,0.000000,441.000000,412.000000,29.000000,42.000000,0.000000,0.000000:
0000
0000
0000
0000
,
0000
0000
0000
0000
,
0000
0000
0000
0000
,
0000
0000
0000
0000
,
0000
0000
0000
0000
,
0000
0000
0000
0000
,
0000
0000
0000
0000
,
0000
0000
0000
0000
,
0000
0000
0000
0000
,
0000
0000
0000
0000
,
2000
3000
0100
0010
,
0002
0003
0010
0100
,
2000
3000
0010
0100
,
0020
0000
0230
0000
0000
0310
0010
0000
,
1000
0100
0011
0000
,
0001
0100
1010
0000
,
1000
0100
0011
0001
,
0100
1010
2000
3002
,
0203
0010
1000
0310
,
0020
0100
0001
0130
,
0020
1000
0001
1030
,
1000
0100
0010
0001
1000
0100
0010
0001
,
0200
0300
0110
1001
,
0220
0330
1001
0110
,
1001
0001
0100
0010
,
1000
0001
0010
0100
1000
0010
0100
0001
,
2000
3100
0002
0103
,
2000
3010
0002
0013
,
2000
3100
0020
0031
,
2000
3010
0200
0301
,
0020
1030
0200
0301
,
0020
0031
0200
1300
,
1000
0010
0100
0000
0001
0100
0010
0000
,
1000
0010
0100
0001
0100
0010
1000
0001
,
0200
0010
0000
0010
0000
0010
0000
0310
,
0010
1000
0100
0010
0001
1000
0100
0010
,
0002
0003
1000
0010
,
0200
0300
0001
1000
,
0020
0000
0000
0130
0100
0000
0010
0000
,
1000
0000
0002
0000
0000
1003
0100
0010
,
0001
0100
1010
0000
,
1000
0100
0011
0000
,
0001
0100
1010
1000
,
0100
0000
0011
0000
0001
0000
1000
0001
,
2000
3000
0001
0100
,
0020
0030
1000
0001
,
0200
0000
0000
0310
0010
0000
0100
0000
,
0001
0000
2000
0000
0000
3001
0010
0100
,
1000
0010
0101
0000
,
0001
0010
1100
0000
,
1000
0010
0101
0001
,
0010
1100
1000
0002
,
0103
0010
0100
0000
0100
0001
0100
0000
,
0100
0010
0100
0001
0100
0010
0100
0000
,
0100
0010
0100
0000
0100
1000
0100
0000
,
0100
0010
0100
1000
0100
0010
0100
0000
,
0100
0001
0100
0000
0100
1000
0100
0000
,
0100
0001
0100
1000
0100
0001
0100
0000
,
0100
0010
0100
0001
0100
1000
0100
0010
,
0100
0001
0100
1000
0100
0010
1000
0001
,
0010
0100
0010
0000
0010
0001
0010
0000
,
0010
0100
0010
0001
0010
0100
0010
0000
,
0010
0100
0010
0000
0010
1000
0010
0000
,
0010
0100
0010
1000
0010
0100
0010
0000
,
0120
0100
1000
1000
,
0100
0100
0001
0001
,
0100
1000
0100
0031
,
0010
0001
0010
1000
0010
0001
0010
0100
,
1000
0000
0010
0000
0001
0100
1000
0000
,
0001
0000
0010
0000
1000
0100
0001
0000
,
1000
0000
0010
0000
0001
0100
1000
0000
,
0001
0000
0010
0000
1000
0100
0001
0000
,
1001
0000
0010
0100
0010
0000
1000
0100
,
0010
0000
0001
0010
0100
0000
1000
0010
,
0110
0000
0001
0100
0110
0000
1000
0001
,
0010
0100
0010
0001
0100
0010
1000
0000
,
0001
0000
0100
0000
1000
0010
0001
0000
,
1000
0000
0100
0000
0001
0010
1000
0000
,
0001
0000
0100
0000
1000
0010
0001
0000
,
1000
0000
0100
0000
0001
0010
1000
0000
,
1001
0000
0100
0010
0100
0000
0001
0010
,
0100
0000
1000
0100
0010
0000
0001
0100
,
0110
0000
1000
0010
0110
0000
0001
1000
,
0100
0010
0100
1000
0010
0100
0001
0000
,
1001
0000
0000
1000
0100
0000
0000
0100
,
0010
0000
0000
0010
0001
0000
0101
0000
,
1010
0000
0000
1000
0001
0000
0001
0100
,
0200
0320
2030
3002
,
0103
0001
0100
0000
0001
0010
0001
0000
,
0010
1000
0010
0000
1000
0100
1000
0000
,
0100
0010
0100
0010
1000
0001
1000
0001
,
0010
0100
1000
0010
0100
0001
1000
0001
,
2002
0000
0000
0000
,
3003
0000
0000
0000
;

//---------------dance-double - ----------------
#NOTES:
     dance-double:
     :
     Easy:
     8:
     0.286661,0.361659,0.178885,0.101109,0.000000,258.000000,235.000000,23.000000,13.000000,0.000000,0.000000,0.286661,0.361659,0.178885,0.101109,0.000000,258.000000,235.000000,23.000000,13.000000,0.000000,0.000000:
00000000
00000000
00000000
00000000
,
00000000
00000000
00000000
00000000
,
00000000
00000000
00000000
00000000
,
00000000
00000000
00000000
00000000
,
00000000
00000000
00000000
00000000
,
00000000
00000000
00000000
00000000
,
00000000
00000000
00000000
00000000
,
00000000
00000000
00000000
00000000
,
00000000
00000000
00000000
00000000
,
00000000
00000000
00000000
00000000
,
00001000
00000000
00010000
00000000
,
00001000
00000000
00010000
00000000
,
01000000
00000000
00100000
00000000
,
01000000
00000000
00100000
00000000
,
00001000
00000000
00010000
00000000
,
00001000
00000000
00010000
00000000
,
00000100
00000000
00000010
00000000
,
00000100
00000000
00000010
00000010
,
00000001
00000000
00000100
00000000
,
00001000
00000000
00010000
00000000
,
00100000
00000000
10000000
00000000
,
01000000
00000000
00010000
00000000
,
00011000
00000000
00001000
01000000
,
00001000
00000000
00010000
00000100
,
00010000
00000000
00001000
00100000
,
00001000
00100000
00001000
00100000
,
01000000
00000000
10000000
00000000
,
00100000
00000000
00010000
00000000
,
00001000
00000000
00000100
00000000
,
00000001
00000000
00000010
00000000
,
00001000
00010000
00000100
00000000
,
00010000
00001000
01000000
00000000
,
00001000
00010000
00000010
00010000
,
00001000
00100000
00001000
00010000
,
00012000
00000000
00010000
00000000
,
00013000
00010000
00001000
00010000
,
00011000
00000000
00000000
00000000
,
01000000
00000000
00000000
00000000
,
00011000
00000000
00000000
00000000
,
01000000
00000000
00000000
00000000
,
00011000
00000000
01000000
00000000
,
00011000
00000000
01000000
00000000
,
00011000
00000000
01001000
00000000
,
00011000
00000000
00101000
00000000
,
00011000
00000000
00000000
00000000
,
00000010
00000000
00000000
00000000
,
00011000
00000000
00000000
00000000
,
00000010
00000000
00000000
00000000
,
00011000
00000000
00000010
00000000
,
00011000
00000000
00000010
00000000
,
00011000
00000000
00010010
00000000
,
00011000
00000000
00020200
00030300
,
00010000
00001000
00010000
00001000
,
00000100
00000010
00000100
00000010
,
00000100
00000001
00000100
00000001
,
00000010
00000001
00000010
00000001
,
00000010
00000100
00000010
00000100
,
00010000
00000100
00010000
00000100
,
00010000
00001000
00010000
00001000
,
01000000
00001000
01000000
00001000
,
01000000
00010000
01000000
00010000
,
10000000
01000000
10000000
01000000
,
00100000
01000000
00100000
01000000
,
00010000
00001000
00010000
00001000
,
00000010
00000100
00000010
00000100
,
00001000
00000001
00001000
00000001
,
00000100
00001000
00000100
00001000
,
00010000
01000000
00010000
01000000
,
20000000
30000000
00100000
01000000
,
00020000
00030000
01000000
00100000
,
20000000
30000000
00100000
01000000
,
00020000
00030000
00100000
01000000
,
11000000
10000000
00100000
00010000
,
00100000
01000000
00100000
00010000
,
00001000
00000100
00000010
00000100
,
00001000
00000100
00000010
00000100
,
00000002
00000003
00001000
00000010
,
00000200
00000300
00000001
00000100
,
00000020
00000030
00001000
00000100
,
00000020
00000030
00000001
00000100
,
00000110
00000010
00010000
00001000
,
00100000
00010000
01000000
00001000
,
00010000
00000100
00001000
00000010
,
00010000
00001000
00100000
01100000
,
10000000
00000000
00010000
00000000
,
00001000
00000000
00000001
00000000
,
00001000
00000000
00010000
00000000
,
10000000
00000000
00010000
00000000
,
00011000
00001000
00000010
00000001
,
00000100
00001000
00010000
00100000
,
10000000
01000000
00010000
00001000
,
00000100
00000001
00000010
00001000
,
00022000
00000000
00000000
00000000
,
00033000
00000000
00000000
00000000
;

//---------------dance-double - ----------------
#NOTES:
     dance-double:
     :
     Medium:
     12:
     0.463324,0.578655,0.124442,0.318882,0.000000,417.000000,401.000000,16.000000,41.000000,0.000000,0.000000,0.463324,0.578655,0.124442,0.318882,0.000000,417.000000,401.000000,16.000000,41.000000,0.000000,0.000000:
00000000
00000000
00000000
00000000
,
00000000
00000000
00000000
00000000
,
00000000
00000000
00000000
00000000
,
00000000
00000000
00000000
00000000
,
00000000
00000000
00000000
00000000
,
00000000
00000000
00000000
00000000
,
00000000
00000000
00000000
00000000
,
00000000
00000000
00000000
00000000
,
00000000
00000000
00000000
00000000
,
00000000
00000000
00000000
00000000
,
00022000
00033000
00010000
00000100
,
00002000
00003000
00000010
00010000
,
00002000
00003000
01000000
00001000
,
00020000
00000000
02030000
00000000
00000000
13000000
10000000
00000000
,
00100000
00010000
00001000
00000000
,
00010000
00001000
00000010
00000000
,
00000001
00000100
00001000
00010000
,
01000000
10000000
00020000
02030000
,
03002000
00100000
00100000
00103000
,
00020000
00000010
00000010
00030010
,
00002000
00010000
00010000
00013000
,
00001000
00010000
00100000
01000000
00010000
00100000
01000000
10000000
,
00200000
00300000
01100000
01010000
,
00022000
00033000
00001010
00000110
,
00001001
00001000
00000100
00000010
,
00000001
00000100
00000010
00001000
00000100
00010000
00001000
00100000
,
02000000
13000000
00200000
01300000
,
00020000
00130000
00002000
00013000
,
00000200
00001300
00000020
00000130
,
00000002
00000013
00002000
00003010
,
00020000
00031000
02000000
03010000
,
20000000
30100000
00020000
00031000
,
00010000
00000100
00010000
00000000
00001000
01000000
00001000
00000000
,
00010000
00000010
00010000
00001000
00100000
00001000
00010000
00000100
,
00000020
00000001
00000000
00000001
00000000
00000001
00000000
00000031
,
00000001
00000100
00000010
00001000
00000100
00010000
00001000
00100000
,
02000000
03000000
10000000
00100000
,
00020000
00030000
00100000
10000000
,
02000000
00000000
00000000
00100000
03100000
00000000
00001000
00000000
,
00010000
00000000
00000200
00000000
00000000
00000310
00000001
00000100
,
00001000
00010000
01000000
00000000
,
10000000
00100000
00010000
00000000
,
00100000
00010000
00001000
00000010
,
00000001
00000000
00000100
00000000
00001000
00000000
00000100
00000010
,
00000200
00000300
00000001
00000010
,
00002000
00003000
00000010
00000001
,
00000200
00000000
00000000
00000010
00000310
00000000
00010000
00000000
,
00001000
00000000
02000000
00000000
00000000
03100000
10000000
01000000
,
00010000
00001000
00000010
00000000
,
00000001
00000100
00001000
00000000
,
00000100
00001000
00010000
01000000
,
10000000
00100000
00010000
00002000
,
00013000
00000100
00010000
00000000
00010000
00001000
00010000
00000000
,
00010000
00000010
00010000
00000000
00010000
00001000
00010000
00000000
,
00010000
00000100
00010000
00000000
00010000
00001000
00010000
00000000
,
00010000
01000000
00010000
00000000
00010000
00001000
00010000
00000000
,
00010000
00000010
00010000
00000000
00010000
00001000
00010000
00000000
,
00010000
00100000
00010000
00000000
00010000
00001000
00010000
00000000
,
00010000
00000010
00010000
00001000
00010000
00100000
00010000
00001000
,
00010000
00000100
00010000
00001000
00010000
01000000
00010000
00000000
,
00001000
00100000
00001000
00000000
00001000
00010000
00001000
00000000
,
00001000
00000010
00001000
00000000
00001000
00010000
00001000
00000000
,
00001000
01000000
00001000
00000000
00001000
00010000
00001000
00000000
,
00001000
00000100
00001000
00000000
00001000
00010000
00001000
00000000
,
00021000
01000000
00000000
00000100
,
00000000
01000000
00000000
00030100
,
00000100
00010000
00001000
00100000
,
00010000
01000000
00001000
00010000
00000100
00001000
00000010
00010000
,
00001000
00000000
00000100
00000000
00000001
00000010
00001000
00000000
,
00010000
00000000
01000000
00000000
10000000
00100000
00010000
00000000
,
00001000
00000000
00000010
00000000
00000001
00000100
00001000
00000000
,
00010000
00000000
00100000
00000000
10000000
01000000
00010000
00000000
,
00011000
00000000
00001000
00100000
01000000
00000000
10000000
01000000
,
00100000
00000000
00001000
00100000
01000000
00000000
10000000
00100000
,
00010000
00000000
00001000
00000100
00000001
00000000
00000010
00000100
,
00010000
00001000
00100000
01000000
00010000
00001000
00011000
00000000
,
00010000
00000000
01000000
00000000
10000000
00100000
00010000
00000000
,
00001000
00000000
00000100
00000000
00000001
00000010
00001000
00000000
,
00010000
00000000
00100000
00000000
10000000
01000000
00010000
00000000
,
00001000
00000000
00000010
00000000
00000001
00000100
00001000
00000000
,
00011000
00000000
00010000
00000010
00000100
00000000
00000001
00000100
,
00000010
00000000
00010000
00000010
00000100
00000000
00000001
00000010
,
00001000
00000000
00010000
01000000
10000000
00000000
00100000
01000000
,
00001000
00010000
00000010
00000100
00001000
00010000
00011000
00000000
,
00110000
00000000
00000000
00100000
10000000
00000000
00000000
10000000
,
01000000
00000000
00000000
01000000
00010000
00000000
00011000
00000000
,
00001010
00000000
00000000
00000010
00000001
00000000
00000001
00000100
,
00002000
00013000
00020000
00031000
,
00001000
00100000
01000000
00000000
00100000
01000000
10000000
00000000
,
10000000
00100000
00010000
00000000
00100000
00010000
00001000
00000000
,
00010000
00001000
00000100
00000000
00001000
00000100
00000001
00000000
,
00000001
00000010
00000100
00010000
00001000
00100000
01000000
10000000
,
20020000
00000000
00000000
00000000
,
30030000
00000000
00000000
00000000
;
