#TITLE:Cross Time;
#SUBTITLE:;
#ARTIST:Brandy;
#TITLETRANSLIT:;
#SUBTITLETRANSLIT:;
#ARTISTTRANSLIT:;
#GENRE:VARIETY;
#CREDIT:MUINELIM;
#BANNER:Cross Time.png;
#BACKGROUND:Cross Time-bg.png;
#LYRICSPATH:;
#CDTITLE:;
#MUSIC:Cross Time.mp3;
#OFFSET:0.000000;
#SAMPLESTART:33.000000;
#SAMPLELENGTH:11.939999;
#SELECTABLE:YES;
#DISPLAYBPM:80:160;
#BPMS:0.000000=160,188.000000=80,205.000000=160
;
#STOPS:188.000000=2.25;
#BGCHANGES:0.000=Cross Time.avi=1.000=1=0=0=StretchNoLoop==CrossFade==,
99999=-nosongbg-=1.000=0=0=0 // don't automatically add -songbackground-
;
#KEYSOUNDS:;
#ATTACKS:;

//---------------dance-single - ----------------
#NOTES:
     dance-single:
     :
     Beginner:
     3:
     0.130624,0.180311,0.007882,0.007882,0.000000,116.000000,115.000000,1.000000,1.000000,0.000000,0.000000,0.130624,0.180311,0.007882,0.007882,0.000000,116.000000,115.000000,1.000000,1.000000,0.000000,0.000000:
0000
0000
0000
0000
,
0000
0000
0000
0000
,
0000
0000
0000
0000
,
0000
0000
0000
0000
,
1000
0000
1000
0000
,
1000
0000
0000
0000
,
0001
0000
0001
0000
,
0001
0000
0000
0000
,
0100
0000
0000
0000
,
0010
0000
0000
0000
,
0100
0000
0100
0000
,
0100
0000
0000
0000
,
0010
0000
0010
0000
,
0010
0000
0010
0000
,
1000
0000
0001
0000
,
1000
0000
0001
0000
,
1000
0000
0001
0000
,
1000
0000
0000
0000
,
0010
0000
0100
0000
,
0010
0000
0100
0000
,
0010
0000
0100
0000
,
0010
0000
0000
0000
,
1000
0000
0000
0000
,
0100
0000
0000
0000
,
0010
0000
0000
0000
,
0001
0000
0000
0000
,
1000
0000
0000
0000
,
0100
0000
0000
0000
,
0010
0000
0000
0000
,
0001
0000
0000
0000
,
0100
0100
0000
0000
,
0100
0000
0100
0000
,
0010
0010
0000
0000
,
0010
0000
0010
0000
,
1000
0000
0001
0000
,
1000
0000
0001
0000
,
1000
1000
0000
0000
,
1001
0000
0000
0000
,
0001
0000
0000
0000
,
0100
0000
0000
0000
,
1000
0000
0000
0000
,
0010
0000
0000
0000
,
0001
0000
0001
0000
,
0100
0000
0100
0000
,
1000
0000
1000
0000
,
0010
0000
0010
0000
,
0010
0000
0010
0010
,
0000
0001
0000
1000
,
0000
0001
0000
1000
,
0000
0010
0000
0100
,
0000
0010
0000
0100
,
0000
0010
0000
0000
,
0000
0000
0000
0000
,
0000
0010
0000
0000
,
0000
0020
0000
0030
,
0000
0010
0000
0000
,
0000
1000
0000
0000
,
0000
0001
0000
0000
,
0000
0100
0000
0100
,
0000
0100
0100
0000
,
0000
0010
0010
0000
,
0000
1000
1000
0000
,
0000
0001
0000
1000
,
0000
0001
0001
0000
,
0000
0010
0010
0000
,
0000
0100
0000
0100
,
0000
1000
0000
1000
,
0000
0010
0000
0000
,
0000
0001
0000
0000
,
0000
0100
0000
0000
,
0000
1000
0000
0000
,
0000
0010
0000
0100
,
0000
0010
0000
0100
,
0000
0001
0000
1000
,
0000
0010
0000
0100
,
0000
0001
0000
1000
,
1000
1000
0000
0000
;

//---------------dance-single - ----------------
#NOTES:
     dance-single:
     :
     Easy:
     5:
     0.255617,0.300519,0.110354,0.055177,0.000000,227.000000,213.000000,14.000000,7.000000,0.000000,0.000000,0.255617,0.300519,0.110354,0.055177,0.000000,227.000000,213.000000,14.000000,7.000000,0.000000,0.000000:
0000
0000
0000
0000
,
0000
0000
0000
0000
,
0000
0000
0000
0000
,
0000
0000
0000
0000
,
1000
0000
1000
0000
,
1000
0000
1000
0000
,
0001
0000
0001
0000
,
0001
0000
0001
0000
,
0100
0000
0100
0000
,
0010
0000
0010
0000
,
1000
0000
0001
0000
,
0100
0000
0010
0000
,
0100
0000
0100
0000
,
0100
0000
0100
0100
,
0001
0010
0001
0000
,
0010
0001
1000
0000
,
0010
1000
0010
0000
,
1000
0001
0010
0000
,
0001
0100
0001
0000
,
0100
0001
1000
0000
,
0100
1000
0100
0000
,
1000
0001
0100
0100
,
0010
1000
0100
0000
,
0010
0001
0100
0000
,
0010
1000
0100
0010
,
0001
0100
0010
0010
,
1000
0001
0010
0000
,
0001
1000
0010
0000
,
1000
0001
0100
0001
,
1000
0100
1000
0001
,
0100
0100
0110
0000
,
1000
0000
0001
0000
,
0100
0100
0110
0000
,
1000
0000
0001
0000
,
0200
0300
0020
0030
,
2000
3000
0002
0003
,
0010
0100
0010
0100
,
0110
0000
1000
1000
,
0010
0000
0001
0000
,
0100
0000
1000
0000
,
0010
0000
0001
0000
,
0100
0000
1000
0000
,
0010
0100
0001
0100
,
0010
0100
0001
0001
,
1000
0100
0010
0100
,
1000
0100
0001
0100
,
1000
0100
0001
0100
,
1001
1000
0000
0010
,
0000
0100
0000
0001
,
1000
0001
0000
0010
,
0000
0100
0000
1000
,
0001
2000
0000
0001
,
0000
0001
0000
0001
,
3001
1001
0000
0000
,
0000
0010
0100
0010
,
0100
0010
1000
0100
,
0000
0010
0001
0100
,
0000
0010
1000
0100
,
0010
0001
0100
0100
,
0100
0110
1000
0000
,
0010
0110
0001
0000
,
0100
0110
1000
0000
,
0010
0100
0010
1000
,
0001
1001
0100
0000
,
1000
1001
0010
0000
,
0001
1001
0100
0010
,
1000
0001
0100
0010
,
0010
2000
3000
0001
,
1001
0010
0000
0100
,
0000
0002
0003
1000
,
1001
0100
0000
0010
,
0000
1000
0100
0010
,
0000
0001
0010
0100
,
0000
1000
0001
1000
,
0000
0010
0100
0001
,
1000
0100
0001
0010
,
1000
1001
0000
0000
;

//---------------dance-single - ----------------
#NOTES:
     dance-single:
     :
     Medium:
     9:
     0.394123,0.510044,0.220709,0.291651,0.003941,350.000000,322.000000,28.000000,37.000000,0.000000,0.000000,0.394123,0.510044,0.220709,0.291651,0.003941,350.000000,322.000000,28.000000,37.000000,0.000000,0.000000:
0000
0000
0000
0000
,
0000
0000
0000
0000
,
0000
0000
0000
0000
,
0000
0000
0000
0000
,
2000
3000
0002
0003
,
1000
0000
0001
0001
0000
1001
0000
0000
,
1000
1000
0000
0000
0001
0001
0000
0000
,
1000
1000
0000
0001
0001
1000
0001
1000
,
0010
0010
0100
0100
,
0010
0100
0010
0100
,
0010
1000
0010
0000
0100
0001
0100
0000
,
0010
1000
0001
0100
0010
0000
0010
0000
,
2000
3000
0002
0003
,
2000
3000
0002
0103
,
1001
1000
0100
0001
,
0100
1000
0100
0001
,
0100
0010
0001
0100
,
0010
1000
0010
0000
0100
0001
0100
0000
,
1001
0001
0010
1000
,
0010
0001
0010
1000
,
0010
0100
1000
0010
,
0100
0001
0100
0000
0010
1000
0010
0000
,
0110
1000
0100
0001
,
0110
0001
0010
1000
,
0110
1000
0100
0001
,
0110
0001
0010
1000
,
1001
0001
0100
0010
,
1001
1000
0010
0100
,
1001
0001
1001
1000
,
2002
3003
0110
0110
,
0010
0000
0010
0000
1000
0001
0000
0010
,
0001
0000
0001
0000
0100
0000
0100
1000
,
0010
0000
0011
0000
0001
0100
0000
0010
,
1000
0010
0000
0100
0001
0100
0000
0010
,
2000
3100
0002
0103
,
2000
3010
0002
0013
,
1000
0100
0010
0000
0001
0100
0010
0000
,
1001
0000
0000
0000
0000
0000
0000
0000
0010
0000
0000
0010
0000
0000
0010
0000
,
0200
0300
0002
0003
,
2000
0000
0000
3000
,
0020
0030
2000
3000
,
0002
0000
0000
0003
,
0100
0000
0010
0000
1000
0001
0100
0000
,
0010
0000
0100
0000
0001
1000
0010
0000
,
0100
0000
0010
0000
1000
0001
0100
0010
,
2000
3100
0002
0013
,
2000
3010
0002
0103
,
1001
0000
1000
0100
1000
0100
0010
0001
,
0010
0001
0100
0000
0010
1000
0100
0010
,
1001
0000
0001
0100
0001
0100
0010
1000
,
0010
1000
0100
0000
0010
0001
0100
0010
,
1001
0002
0100
0000
,
0103
2000
0010
0000
,
3010
1001
0100
0100
,
0100
0000
0010
1000
0100
0010
0001
0100
,
0010
1000
1000
0000
0000
0001
0001
0000
,
0000
0000
0100
0000
0000
0010
0000
0010
,
0000
1000
0002
0000
0023
0000
0230
0000
,
2300
3020
0000
0100
,
0130
0000
0100
0001
0100
0001
0000
0001
,
1000
0000
0100
1000
0100
1000
0000
1000
,
0001
0000
0100
0001
0100
0001
0000
0001
,
1000
0010
0001
0100
,
1001
0000
1000
0010
1000
0010
0000
0010
,
0100
0000
0001
0010
0001
0010
0000
0010
,
0100
1000
0010
0001
,
0100
0000
1000
0000
0010
0000
0100
0010
,
0100
0000
2002
0000
3003
0000
0001
0010
,
0100
1100
0001
0100
,
0010
0000
2002
0000
3003
0000
1000
0100
,
0010
0011
1000
0010
,
0100
0000
1001
0000
0001
0000
0100
1000
,
0010
0000
1001
0000
1000
0000
0010
0001
,
0100
0000
1001
0000
0001
0000
1000
0100
,
0001
0020
0130
2000
,
3001
0200
0310
0002
,
1000
1003
0000
0000
0000
0000
0000
0000
;

//---------------dance-single - ----------------
#NOTES:
     dance-single:
     :
     Hard:
     12:
     0.575419,0.600052,0.425653,0.299533,0.145825,511.000000,457.000000,54.000000,38.000000,0.000000,0.000000,0.575419,0.600052,0.425653,0.299533,0.145825,511.000000,457.000000,54.000000,38.000000,0.000000,0.000000:
// measure 0
0000
0000
0000
0000
,  // measure 1
0000
0000
0000
0000
,  // measure 2
0000
0000
0000
0000
,  // measure 3
0000
0000
0000
0000
,  // measure 4
2002
3003
0220
0330
,  // measure 5
1001
0000
0100
0010
0000
0220
0000
0330
,  // measure 6
1000
0001
0000
0000
0001
1000
0000
0000
,  // measure 7
1000
0001
0000
0001
1000
0010
0100
0001
,  // measure 8
0011
0000
1100
0000
1000
0010
0000
0100
,  // measure 9
0000
0000
0001
0000
0000
0000
1000
0000
0010
0000
0000
0010
0000
0000
0010
0000
,  // measure 10
0100
0001
0010
0100
1000
0010
0100
0001
,  // measure 11
0010
0000
0100
0000
1000
0000
0010
0000
0100
0000
0000
0100
0000
0000
0100
0000
,  // measure 12
0001
0000
0000
1000
0000
0000
1010
0000
1000
0000
0000
0001
0000
0000
0011
0000
,  // measure 13
0001
0000
0000
1000
0000
0000
1100
0000
1010
0000
0000
0110
0000
0000
0101
0000
,  // measure 14
0001
0010
0100
1000
0001
0100
0010
0000
,  // measure 15
1000
0100
0010
0001
1000
0010
0100
0000
,  // measure 16
0001
0010
0100
1000
0010
0100
0001
1000
,  // measure 17
0100
0001
0100
0010
1000
0010
0001
0100
,  // measure 18
0010
1000
0001
0010
0100
1000
0010
0000
,  // measure 19
0100
0001
1000
0100
0010
0001
0100
0000
,  // measure 20
0010
1000
0001
0010
0100
1000
0001
0100
,  // measure 21
0010
0001
0010
0100
1000
0100
0010
1000
,  // measure 22
1200
0000
0301
0000
0001
0010
1000
0000
,  // measure 23
0021
0000
1030
0000
1000
0100
0001
0000
,  // measure 24
0201
0000
1300
0000
1000
0010
0001
0000
,  // measure 25
0001
0010
0100
0001
0010
0100
1000
0000
,  // measure 26
1020
0000
0031
0000
0001
0100
1000
0000
,  // measure 27
0201
0000
1300
0000
1000
0010
0001
0000
,  // measure 28
0011
1100
1010
0101
,  // measure 29
1002
0013
2001
3100
,  // measure 30
1001
0000
1001
0000
0100
1010
0000
0101
,  // measure 31
0010
0110
1100
0011
,  // measure 32
1001
0000
1001
0000
0010
0101
0000
1010
,  // measure 33
0100
0001
0000
0011
0100
1000
0000
1100
,  // measure 34
0010
0010
0001
0100
0010
1000
0001
0001
,  // measure 35
0010
0100
1000
1000
0010
0100
0001
0001
,  // measure 36
1000
0100
0001
0100
0010
1000
0010
0001
,  // measure 37
1001
0000
0000
0000
0000
0000
0000
0000
1010
0000
0000
0101
0000
0000
0110
0000
,  // measure 38
0010
0000
0000
1000
0000
0000
0010
0000
0100
0000
0000
0001
0000
0000
0100
0000
,  // measure 39
0020
0000
1030
1000
0100
0001
0100
0010
,  // measure 40
0001
0000
0000
0100
0000
0000
0001
0000
1000
0000
0000
0010
0000
0000
1000
0000
,  // measure 41
0002
0000
0013
0010
0100
0001
0100
1000
,  // measure 42
0010
0000
0100
0001
0000
0001
0000
0000
1000
0000
0100
0000
0010
0000
0001
0000
,  // measure 43
0100
0000
0010
1000
0000
1000
0000
0000
0001
0000
0010
0000
0100
0000
1000
0000
,  // measure 44
0001
0000
0100
0010
0000
0010
0000
0000
1000
0000
0100
0000
0001
0000
1000
0000
,  // measure 45
0010
0000
0000
0001
0000
0000
0100
0000
0010
0000
0000
1000
0000
0000
0100
0000
,  // measure 46
0001
0000
0000
0010
0000
0000
1000
0000
1100
0000
0000
0110
0000
0000
0011
0000
,  // measure 47
1001
0000
1000
0010
0001
1000
0100
0001
,  // measure 48
1000
0010
0200
0000
0301
0010
0100
1000
,  // measure 49
1010
0101
0001
1000
0001
0010
1000
0001
,  // measure 50
0100
1000
0020
0000
0130
0001
0010
0100
,  // measure 51
1100
0011
0002
0000
0100
0000
0100
0000
,  // measure 52
0103
2000
0010
0010
,  // measure 53
3010
0100
0102
0000
0023
0000
0230
0000
,  // measure 54
2300
0000
3010
0100
0001
1000
0100
0010
,  // measure 55
0001
0100
0120
0000
0000
1000
1030
0000
,  // measure 56
0000
0000
0210
0000
0000
0001
0000
1000
,  // measure 57
0000
0302
0023
0230
,  // measure 58
2300
0000
3010
0100
0001
1000
0100
0001
,  // measure 59
1000
0010
0001
0100
0010
2000
0000
3100
,  // measure 60
0100
0001
1000
0010
0100
0002
0000
0013
,  // measure 61
0010
1000
0001
0100
0010
2000
0000
3100
,  // measure 62
0100
0002
0000
0103
0100
2000
0000
3001
,  // measure 63
1001
0000
1000
0100
0010
0002
0000
0103
,  // measure 64
0100
1000
0001
0010
0100
2000
0000
3010
,  // measure 65
0010
0001
1000
0100
0010
0001
0100
1000
,  // measure 66
0001
0010
1000
0100
0001
0100
1000
0100
,  // measure 67
0010
0000
0001
0000
0100
0000
0000
0010
0000
0000
1000
0000
0001
0100
0001
0100
,  // measure 68
0002
0000
0000
0000
0013
0000
0100
0000
1000
0000
0010
0000
0001
0000
0000
0100
,  // measure 69
0000
0000
1000
0000
0010
0000
0000
0100
0000
0000
0001
0000
1000
0100
1000
0100
,  // measure 70
2000
0000
0000
0000
3001
0000
0100
0000
0010
0000
1000
0000
0100
0000
0000
0001
,  // measure 71
0000
0000
0010
0000
1000
0000
0100
0010
0000
0000
0001
0000
1000
0000
0100
0000
,  // measure 72
0001
0000
0100
0000
0010
0000
0001
0100
0000
0000
0010
0000
1000
0000
0001
0000
,  // measure 73
0010
0000
1000
0000
0010
0000
0100
1000
0000
0000
0010
0000
0100
0000
1000
0000
,  // measure 74
0100
0000
0001
0000
0010
0000
0000
0100
0000
0000
1000
0000
0010
0000
0000
0001
,  // measure 75
0000
0000
0100
0000
1000
0000
0000
0001
0000
0000
0100
0000
0110
0000
0000
1010
,  // measure 76
0000
0100
0001
0000
0000
0000
0000
0000
0000
0000
0000
0000
0000
0000
0000
0000
;

//---------------dance-double - ----------------
#NOTES:
     dance-double:
     :
     Easy:
     6:
     0.254491,0.300519,0.118237,0.055177,0.000000,226.000000,211.000000,15.000000,7.000000,0.000000,0.000000,0.254491,0.300519,0.118237,0.055177,0.000000,226.000000,211.000000,15.000000,7.000000,0.000000,0.000000:
00000000
00000000
00000000
00000000
,
00000000
00000000
00000000
00000000
,
00000000
00000000
00000000
00000000
,
00000000
00000000
00000000
00000000
,
00001000
00000000
00001000
00000000
,
00001000
00000000
00001000
00000000
,
00010000
00000000
00010000
00000000
,
00010000
00000000
00010000
00000000
,
00001000
00000000
00001000
00000000
,
00010000
00000000
00010000
00000000
,
00001000
00000000
00010000
00000000
,
00001000
00000000
00010000
00000000
,
01000000
00000000
00100000
00000000
,
00010000
00000000
00001000
00001000
,
00000010
00000100
00000001
00000000
,
00000100
00000010
00001000
00000000
,
00010000
01000000
00100000
00000000
,
10000000
00100000
01000000
00000000
,
10000000
01000000
00100000
00000000
,
01000000
00100000
00010000
00000000
,
00001000
00000100
00000010
00000000
,
00000100
00000010
00000001
00000001
,
00000010
00001000
00000100
00000000
,
00000010
00000001
00000100
00000000
,
00001000
00010000
00100000
00010000
,
00001000
00010000
00100000
00100000
,
10000000
01000000
00100000
00000000
,
00010000
00100000
01000000
00000000
,
10000000
00100000
00010000
00001000
,
00010000
00100000
00010000
00001000
,
00000010
00000001
00000101
00000000
,
00001000
00000000
00010000
00000000
,
00100000
10000000
11000000
00000000
,
00010000
00000000
00001000
00000000
,
00000020
00000030
00000002
00000003
,
00000200
00000300
00002000
00003000
,
00010000
00100000
10000000
01000000
,
01100000
00000000
00010000
00001000
,
00000110
00000000
00000001
00000000
,
00000100
00000000
00001000
00000000
,
00010000
00000000
00100000
00000000
,
10000000
00000000
01000000
00000000
,
00100000
00001000
00010000
00001000
,
00100000
00001000
00010000
00000010
,
00010000
00001000
00010000
00000010
,
00001000
00000100
00000010
00001000
,
00010000
01000000
00100000
00010000
,
00011000
01000000
00000000
00001000
,
00000000
00010000
00000000
00000100
,
00000000
00001000
00000000
00000010
,
00000000
00010000
00000000
00001000
,
00000000
00012000
00000000
00010000
,
00000000
00010000
00000000
00010000
,
00013000
00011000
00000000
00000000
,
00000000
00010000
01000000
10000000
,
00100000
00010000
00001000
00000010
,
00000000
00001000
00010000
00100000
,
00000000
00010000
00001000
00000010
,
00000001
00000100
00001000
00010000
,
00001000
00011000
01000000
00000000
,
00010000
00011000
00000100
00000000
,
00001000
00011000
00100000
00000000
,
00010000
00001000
00000010
00000001
,
00000100
00001100
00010000
00000000
,
01000000
01010000
00001000
00000000
,
00000010
00001010
00010000
00100000
,
10000000
01000000
00100000
00010000
,
00001000
00000020
00000030
00000100
,
00001001
00000100
00000000
00010000
,
00000000
00200000
00300000
01000000
,
10010000
01000000
00000000
00001000
,
00000000
00010000
00001000
00000010
,
00000000
00001000
00010000
00100000
,
00000000
00010000
00001000
00000100
,
00000000
00001000
00010000
01000000
,
10000000
00100000
00010000
00001000
,
00000100
00000010
00000000
00000000
;

//---------------dance-double - ----------------
#NOTES:
     dance-double:
     :
     Medium:
     10:
     0.383988,0.480042,0.268004,0.275886,0.003941,341.000000,307.000000,34.000000,35.000000,0.000000,0.000000,0.383988,0.480042,0.268004,0.275886,0.003941,341.000000,307.000000,34.000000,35.000000,0.000000,0.000000:
00000000
00000000
00000000
00000000
,
00000000
00000000
00000000
00000000
,
00000000
00000000
00000000
00000000
,
00000000
00000000
00000000
00000000
,
00002000
00003000
00020000
00030000
,
00011000
00000000
00010000
00001000
00000000
00011000
00000000
00000000
,
00001000
00010000
00000000
00000000
00010000
00001000
00000000
00000000
,
00001000
00010000
00000000
00010000
00001000
00010000
00001000
00010000
,
00100000
10000000
01000000
00100000
,
00001000
00010000
00000100
00000010
,
00000001
00000100
00001000
00010000
,
00100000
10000000
00100000
10000000
01000000
00000000
00010000
00000000
,
00002000
00000000
01003000
00001000
,
00020000
00000000
00030010
00010000
,
00011000
00001000
00100000
00001000
,
00000010
00001000
00100000
00001000
,
00000010
00001000
00010000
00100000
,
10000000
01000000
00010000
00001000
,
00011000
00010000
00000010
00010000
,
00100000
00010000
00000010
00010000
,
00100000
00010000
00001000
00000100
,
00000001
00000010
00001000
00010000
,
00011000
00010000
01000000
10000000
,
10010000
10000000
01000000
00010000
,
00011000
00001000
00000010
00000001
,
00001001
00000001
00000010
00001000
,
00011000
00010000
01000000
00010000
,
00011000
00001000
00000100
00001000
,
00011000
00010000
00011000
00001000
,
00022000
00033000
00101000
00010010
,
00010000
00000000
00001000
00000000
00000100
00000001
00000000
00000100
,
00000010
00000000
00010000
00000000
00001000
00000000
00100000
00010000
,
01000000
00000000
01100000
00000000
00100000
10000000
00000000
01000000
,
00100000
01000000
00000000
00010000
00001000
00010000
00000000
00000100
,
00000020
00000031
00000200
00001300
,
00020000
01030000
20000000
30100000
,
00100000
01000000
00010000
00000000
00100000
01000000
00010000
00000000
,
00011000
00000000
00000000
00000000
00000000
00000000
00000000
00000000
00000100
00000000
00000000
00000100
00000000
00000000
00000100
00000000
,
00002000
00000000
00000000
00003000
,
00000020
00000000
00000000
00000030
,
00020000
00030000
00002000
00003000
,
00200000
00300000
02000000
03000000
,
10000000
00100000
00010000
00100000
,
00010000
00001000
00000010
00001000
,
00000010
00000000
00000001
00000000
00000100
00000000
00001000
00010000
,
00002000
01003000
00020000
00030100
,
00002000
00103000
00020000
00030010
,
00011000
00000000
00001000
01000000
00001000
01000000
00010000
00100000
,
00010000
00100000
01000000
00000000
10000000
00000000
00100000
00010000
,
00011000
00000000
00010000
00000100
00010000
00000100
00001000
00000010
,
00001000
00000010
00000100
00000000
00000001
00000000
00000010
00001000
,
00011000
00002000
01000000
00000000
,
01003000
00020000
00000100
00000000
,
00030100
00011000
00100000
00100000
,
00100000
00000000
00010000
01000000
00001000
00010000
00000100
00001000
,
00000010
00010000
00001000
00000000
00000000
00001000
00010000
00000000
,
00000000
00000000
00011000
00000000
00000000
00010000
00000000
00001000
,
00000000
00010000
00002000
00000000
00203000
00000000
00302000
00000000
,
00023000
00000020
00030000
00010000
,
00010030
00000000
00010000
00001000
00010000
00001000
00000000
00000000
,
00001100
00000000
00001000
00010000
00001000
00010000
00000000
00000000
,
01010000
00000000
00010000
00001000
00010000
00001000
00000000
00000000
,
00011000
00000100
00000001
00000010
,
00001000
00000000
00010000
00001000
00010000
00001000
00000000
00000000
,
00110000
00000000
00001000
00010000
00001000
00010000
00000000
00000000
,
00001010
00001000
00000100
00000010
,
00001000
00000000
00010000
00000000
00100000
00000000
10000000
00010000
,
10000000
00000000
20020000
00000000
30030000
00000000
00010000
01000000
,
00001000
00011000
00000100
00000010
,
00000001
00000000
00002002
00000000
00003003
00000000
00001000
00000010
,
00010000
00011000
00100000
01000000
,
10000000
00000000
10010000
00000000
00010000
00000000
10000000
01000000
,
00010000
00000000
00011000
00000000
00001000
00000000
00010000
00001000
,
00000010
00000000
00001001
00000000
00001000
00000000
00000001
00000100
,
00001000
00020000
00030010
00002000
,
00103000
00020000
00030100
00002000
,
01000000
01003000
00000000
00000000
00000000
00000000
00000000
00000000
;

//---------------dance-double - ----------------
#NOTES:
     dance-double:
     :
     Hard:
     12:
     0.543890,0.540047,0.362593,0.315298,0.126119,483.000000,437.000000,46.000000,40.000000,0.000000,0.000000,0.543890,0.540047,0.362593,0.315298,0.126119,483.000000,437.000000,46.000000,40.000000,0.000000,0.000000:
00000000
00000000
00000000
00000000
,
00000000
00000000
00000000
00000000
,
00000000
00000000
00000000
00000000
,
00000000
00000000
00000000
00000000
,
00002000
00000000
00020000
00033000
,
00011000
00000000
00001000
00010000
00000000
00022000
00000000
00033000
,
00001000
01000000
00000000
00000000
00010000
00000100
00000000
00000000
,
00001000
00100000
00000000
00001000
00010000
00000010
00010000
00001000
,
01001000
00000000
00010100
00000000
00010000
00001000
00000000
00100000
,
00000000
00000000
01000000
00000000
00000000
00000000
10000000
00000000
00100000
00000000
00000000
00100000
00000000
00000000
00100000
00000000
,
01000000
00010000
00100000
00001000
00010000
00000100
00001000
00000010
,
00000100
00000000
00000001
00000000
00001000
00000000
00000100
00000000
00000010
00000000
00000000
00000010
00000000
00000000
00000010
00000000
,
00000001
00000000
00000000
00000100
00000000
00000000
00001000
00000000
00010000
00000000
00000000
00100000
00000000
00000000
10000000
00000000
,
01000000
00000000
00000000
00010000
00000000
00000000
00001000
00000000
00011000
00000000
00000000
01001000
00000000
00000000
00010100
00000000
,
00010000
00001000
00000100
00000010
00010000
00001000
00000100
00000000
,
00001000
00010000
00100000
01000000
00001000
00010000
00100000
00000000
,
10000000
01000000
00100000
00010000
01000000
00100000
00010000
00001000
,
00100000
01000000
00010000
00001000
00000010
00000100
00001000
00000010
,
00010000
00000100
00001000
00000010
00010000
00001000
00000100
00000000
,
00001000
01000000
00010000
00100000
00001000
00010000
01000000
00000000
,
00010000
00000100
00001000
00000010
00010000
00001000
00100000
00010000
,
01000000
00001000
00010000
00100000
10000000
01000000
00100000
00010000
,
02010000
13000000
00010000
00001000
,
00001020
00000031
00001000
00010000
,
00210000
10300000
00010000
00001000
,
00000001
00000100
00001000
00000000
00010000
00100000
10000000
00000000
,
12000000
03010000
00012000
01003000
,
00021000
00030100
00001200
00000301
,
00000011
00001100
01010000
10100000
,
01100000
00010000
00000110
00001000
,
00011000
00000000
00011000
00000000
00001000
01000000
00000000
00100000
,
10000000
11000000
01100000
00110000
,
00011000
00000000
00011000
00000000
00010000
00000010
00000000
00000100
,
00000001
00000010
00000000
00000100
00010000
00001000
00000000
00100000
,
01000000
01000000
10000000
00100000
00010000
00001000
00100000
01000000
,
10000000
00100000
00010000
00001000
00100000
01000000
10000000
00100000
,
00010000
00001000
00010000
00001000
00000100
00000001
00000010
00000100
,
00000110
00000000
00000000
00000000
00000000
00000000
00000000
00000000
00001000
00000000
00000000
00010000
00000000
00000000
00100000
00000000
,
20000000
00000000
32000000
00000000
,
03020000
00000000
00031000
00001000
00100000
00010000
01000000
00001000
,
00020000
00000000
00030200
00000000
,
00000320
00000000
00000031
00000001
00000100
00001000
00010000
00100000
,
10000000
00000000
01000000
00100000
00000000
01000000
00000000
00000000
00010000
00000000
00001000
00000000
00100000
00000000
00010000
00000000
,
01000000
00000000
00001000
00010000
00000000
00001000
00000000
00000000
00000100
00000000
00000001
00000000
00000010
00000000
00000100
00000000
,
00001000
00000000
00000010
00000100
00000000
00000010
00000000
00000000
00010000
00000000
00001000
00000000
00100000
00000000
01000000
00000000
,
10000000
00000000
00000000
00100000
00000000
00000000
00010000
00000000
00001000
00000000
00000000
00000100
00000000
00000000
00000001
00000000
,
00000010
00000000
00000000
00001000
00000000
00000000
00010000
00000000
00010100
00000000
00000000
01001000
00000000
00000000
00011000
00000000
,
00011000
00000000
00001000
00010000
01000000
00010000
00001000
00010000
,
01000000
10000000
00200000
00000000
00310000
00100000
01000000
00001000
,
00101000
00000000
00010010
00000000
00010000
00001000
00000100
00001000
,
00010000
00001000
00000100
00000001
00000020
00000000
00001030
00000010
,
00000100
00010000
00012000
00000000
00100000
00000000
01000000
00000000
,
00103000
00021000
00000100
00000010
,
00030100
00000100
00002100
00000000
00003020
00000000
00020030
00000000
,
00032000
00000000
00103000
01000000
10000000
00100000
01000000
00010000
,
00001000
00000010
00000210
00000000
00000000
00000001
00000301
00000000
,
00000000
00000000
00000120
00000000
00000000
00001000
00000000
00010000
,
00000000
00002030
00003200
00020300
,
02030000
00000000
13000000
00100000
00010000
00001000
00000100
00000001
,
00000010
00000100
00001000
00000010
00010000
00002000
00000000
00013000
,
00000010
00001000
00000010
00010000
00001000
00200000
00000000
00301000
,
00010000
00000100
00001000
00000100
00010000
00002000
00000000
00103000
,
01000000
20000000
00000000
30010000
00100000
02000000
00000000
03010000
,
00011000
00000000
00010000
00100000
00001000
00020000
00000000
00031000
,
00100000
00010000
00100000
00001000
00010000
00000020
00000000
00010030
,
00001000
01000000
00010000
01000000
00001000
00010000
00001000
00000100
,
00000001
00000011
00000000
00001100
00000000
00010100
00000000
00010000
,
00001000
00000000
00010000
00000000
01000000
00000000
00000000
10000000
00000000
00000000
00100000
00000000
01000000
00010000
01000000
00010000
,
02000000
00000000
00000000
00000000
03001000
00000000
00010000
00000000
00000100
00000000
00001000
00000000
00000010
00000000
00000000
00000100
,
00000000
00000000
00000001
00000000
00001000
00000000
00000000
00000100
00000000
00000000
00000010
00000000
00000001
00000100
00000001
00000100
,
00000002
00000000
00000000
00000000
00001003
00000000
00000100
00000000
00000010
00000000
00001000
00000000
00010000
00000000
00000000
00100000
,
00000000
00000000
10000000
00000000
01000000
00000000
00100000
01000000
00000000
00000000
00100000
00000000
00010000
00000000
01000000
00000000
,
00001000
00000000
00010000
00000000
00000100
00000000
00001000
00000100
00000000
00000000
00000010
00000000
00000001
00000000
00000100
00000000
,
00001000
00000000
00010000
00000000
00001000
00000000
00100000
01000000
00000000
00000000
00100000
00000000
00010000
00000000
01000000
00000000
,
10000000
00000000
01000000
00000000
00100000
00000000
00000000
00010000
00000000
00000000
00001000
00000000
00100000
00000000
00000000
01000000
,
00000000
00000000
00010000
00000000
00001000
00000000
00000000
00000010
00000000
00000000
00000100
00000000
00001100
00000000
00000000
00000011
,
00000000
00000101
00000000
00000000
00000000
00000000
00000000
00000000
;
