#VERSION:0.83;
#TITLE:Crocus (feat. KOKOMI);
#SUBTITLE:;
#ARTIST:Pratanallis;
#TITLETRANSLIT:;
#SUBTITLETRANSLIT:;
#ARTISTTRANSLIT:;
#GENRE:WORLD MUSIC;
#ORIGIN:;
#CREDIT:MUINELIM;
#BANNER:Crocus (feat. KOKOMI).png;
#BACKGROUND:Crocus (feat. KOKOMI)-bg.png;
#PREVIEWVID:;
#JACKET:Crocus (feat. KOKOMI)-jacket.png;
#CDIMAGE:;
#DISCIMAGE:;
#LYRICSPATH:;
#CDTITLE:;
#MUSIC:Crocus (feat. KOKOMI).mp3;
#OFFSET:-0.249000;
#SAMPLESTART:59.677570;
#SAMPLELENGTH:11.408569;
#SELECTABLE:YES;
#BPMS:0.000=210.000,
203.500=105.000,
205.000=210.000;
#STOPS:203.500=0.429;
#DELAYS:;
#WARPS:;
#TIMESIGNATURES:0.000=4=4;
#TICKCOUNTS:0.000=4;
#COMBOS:0.000=1;
#SPEEDS:0.000=1.000=0.000=0;
#SCROLLS:0.000=1.000;
#FAKES:;
#LABELS:0.000=Song Start;
#BGCHANGES:;
#KEYSOUNDS:;
#ATTACKS:
;

//---------------dance-single - ----------------
#NOTEDATA:;
#CHARTNAME:;
#STEPSTYPE:dance-single;
#DESCRIPTION:;
#CHARTSTYLE:;
#DIFFICULTY:Hard;
#METER:17;
#RADARVALUES:0.943397,1.102458,0.653499,0.343947,0.335348,768.000000,692.000000,76.000000,40.000000,0.000000,0.000000,0.000000,0.000000,0.000000,0.943397,1.102458,0.653499,0.343947,0.335348,768.000000,692.000000,76.000000,40.000000,0.000000,0.000000,0.000000,0.000000,0.000000;
#CREDIT:MILEN;
#NOTES:
0000
0000
0000
0000
,
0000
0000
0000
0000
,
0000
0000
0000
0000
,
0000
0000
0000
0000
,
0000
0000
0000
0000
,
0000
0000
0000
0000
,
0000
0000
0000
0000
,
0000
0000
0000
0000
,
1010
0000
0000
0011
0000
0000
0101
0000
,
0000
1100
0000
0000
1001
0000
0000
0220
,
0300
0130
0100
0001
0100
0010
1000
0010
,
0100
0001
0010
0100
1000
0010
0100
0010
,
0110
0100
0001
0010
0001
1000
0100
1000
,
1010
0010
0100
0101
0000
0001
1000
0001
,
0110
0010
1000
0010
0100
0001
0100
0010
,
1000
0100
0010
0001
0100
0010
0100
0001
,
1001
1000
0010
1000
0001
0100
0001
0010
,
0011
0001
1000
1100
0000
0100
0010
0100
,
0220
0300
2000
3000
,
0032
0000
0000
0203
0000
0000
0000
0320
,
0000
1030
1001
0000
0001
0010
0100
0000
,
0010
0001
0100
0000
0001
0010
0100
0110
,
0000
0010
0100
0000
1000
0010
0100
0000
,
0101
0000
0001
1001
0000
1000
0010
0110
,
0000
0001
1001
0000
1000
0010
0100
0000
,
0010
1000
0100
0000
1000
0010
0100
0110
,
0000
0010
0100
0000
0001
0010
0100
0000
,
1100
0000
1000
1001
0000
0001
0010
0110
,
0000
1000
1010
0000
0010
0100
0001
0000
,
0010
0001
0100
0000
1000
0100
0010
0110
,
0000
0100
0001
0000
0010
0100
1000
0000
,
1100
0000
0010
0101
0000
1000
0010
0110
,
0000
0001
0011
0000
0010
0100
1000
0000
,
0010
1000
0100
0000
0001
0100
0010
0110
,
0000
0100
1000
0000
0010
0100
0001
0000
,
0101
0000
0010
1100
0000
0001
0010
0110
,
1000
0010
0100
0001
0010
0100
1000
0010
,
0100
0001
0100
0000
0001
0000
0010
0000
0100
0000
0010
0000
0001
0000
1001
0000
,
1000
0010
1000
0000
0100
0000
0010
0000
0100
0000
1000
0000
0010
0000
0100
0000
,
0001
0010
0001
0000
1000
0000
0010
0000
0100
0000
0001
0000
0010
0000
0011
0000
,
0001
0010
0001
0000
0100
0000
0010
0000
0100
0000
0001
0000
0010
0000
0100
0000
,
1000
0100
1000
0000
0010
0000
0100
0000
0001
0000
1000
0000
0100
0000
0010
0000
,
0110
0000
0100
0000
0010
0001
0010
0000
0100
0000
0010
0000
0100
1000
0100
0000
,
1000
1000
0010
0010
0100
0100
0001
0001
,
0011
0010
0001
0100
0101
0100
0001
1001
,
1010
0010
1000
0100
1100
0100
1000
0001
,
1001
1000
0100
0010
0011
0001
0100
0110
,
1010
0000
1000
0000
0100
0000
1000
0000
1001
0000
0001
0000
0010
0000
0001
0100
,
0010
0010
1000
1000
0001
0001
0100
0100
,
0010
1000
0100
0000
0100
0000
0010
0000
0001
0100
0010
0000
0010
0000
1000
0010
,
0100
0000
0100
0000
0001
0000
0010
0000
0100
1000
0100
0000
0010
0000
1001
0000
,
0001
0000
1000
0000
0010
0100
0020
0000
0130
0000
0001
0000
0010
0000
0100
0000
,
1000
0000
0010
0000
0100
0001
0100
0001
2000
0000
3010
0000
0100
0001
2000
0000
,
3010
0000
0100
0000
0001
0010
0100
0000
0010
0000
0001
0010
0100
0000
2000
0000
,
0000
0000
3010
0000
0110
0000
0100
0000
0001
0000
0010
0000
0100
1000
0100
0000
,
0010
0100
0010
0000
0001
0010
0001
0010
0002
0000
0103
0000
0100
0000
0010
0000
,
1000
0000
0001
0000
0010
0100
0010
0100
0020
0000
0130
0000
0100
0000
1000
0000
,
0010
0000
0100
0000
0001
0100
0010
0000
1000
0000
0001
0010
0100
0000
1000
0000
,
0001
0100
0010
0000
1000
0010
0100
0000
0002
0000
0000
0000
1003
0000
0100
0000
,
1100
0000
0000
0000
1000
0010
0100
0000
0001
0000
1000
0000
0200
0000
0000
0000
,
0310
0000
0000
0000
0001
0100
0010
0000
1000
0000
0001
0000
0020
0000
0000
0000
,
0130
0000
0000
0000
1000
0100
0010
0000
0001
0000
0100
0000
0020
0000
0000
0000
,
1030
0000
0000
0000
0001
0010
0100
0000
1000
0000
0010
0000
0200
0000
0000
0000
,
0301
0000
0001
0010
0001
0010
1000
0010
,
1000
0010
0001
0100
0001
0100
1000
0100
,
1000
0100
0001
0010
0110
0000
1000
0100
,
0110
0000
0011
0001
1001
1000
1200
0000
,
0320
0000
0000
0000
0031
0100
0010
0000
0100
0001
0020
0000
0130
0000
1000
0000
,
0010
0000
0100
0000
0010
1000
0100
0000
1000
0010
0200
0000
0301
0000
1000
0000
,
0100
0000
0010
0000
0001
0100
0001
0100
0020
0000
1030
0000
0001
0100
0001
0100
,
0020
1030
0200
0000
0300
0000
0110
0000
,
1001
0000
0000
0000
0001
0010
0100
0000
0010
0000
0001
0000
0100
0000
0010
0000
,
1010
0000
0001
0000
1000
0100
0010
0000
0100
0000
1000
0000
0010
0000
0100
0000
,
0101
0000
1000
0000
0100
0010
0001
0000
0100
0000
0010
0000
1000
0100
0010
0000
,
0001
0000
0100
0000
0010
1000
0010
1000
0001
1000
0001
1000
0001
0100
0001
0100
,
0002
0003
0011
0001
1000
1100
0000
0100
,
0010
0000
1100
1000
0001
0011
0000
0010
,
0100
0000
1010
0010
0100
0101
0000
0100
,
0010
0000
0101
0100
0010
1010
0000
1000
,
0001
0000
0100
0010
1000
0000
0001
0000
0010
0000
0010
0000
0100
0000
0100
0000
,
1000
1000
0010
0010
0001
0001
0100
0100
,
1000
0000
1000
0000
0010
0100
0001
0000
0100
0000
0010
0000
0100
0010
1000
0000
,
0010
0000
0100
0000
0001
0010
0001
0010
0100
0010
0100
0010
0100
1000
0100
1000
,
0100
2000
0000
3010
0010
0000
1000
0100
,
0010
0000
0100
0000
0001
0100
1000
0000
,
0100
0000
0010
0000
0100
1000
0010
0000
,
0100
0001
0021
0000
0230
0000
2300
0000
,
3010
0110
0100
0001
0010
1000
0001
0100
,
1000
0001
1001
1000
0100
0001
1000
0010
,
0001
1000
1020
0000
0000
0000
0230
0000
,
0301
0010
0100
0000
1100
0000
1010
0000
,
0011
0000
0101
0100
0010
0100
1000
0100
,
0001
1000
0010
0001
0010
1000
0020
0000
,
0100
0000
0130
0000
0100
0001
0010
0001
0100
0000
0010
0000
1000
0100
1000
0100
,
0010
0001
0100
0001
2000
0000
0000
3020
0000
0000
0230
0000
0302
0000
0000
0000
,
1003
0000
1000
0010
0100
0000
1000
0000
0100
0010
0100
0001
0010
0000
0001
0000
,
0010
0001
0010
0100
1000
0000
0010
0000
0001
0010
0100
0010
0100
0010
1000
0000
,
0100
0000
0001
0000
2000
0000
3010
0000
0001
0010
0100
1000
0010
0000
0001
0000
,
0010
0100
0010
1000
0200
0000
0000
0000
0310
0000
1001
0000
0000
0000
0000
0000
;

//---------------dance-double - ----------------
#NOTEDATA:;
#CHARTNAME:;
#STEPSTYPE:dance-double;
#DESCRIPTION:;
#CHARTSTYLE:;
#DIFFICULTY:Hard;
#METER:17;
#RADARVALUES:0.905318,1.102458,0.515920,0.300954,0.305253,737.000000,677.000000,60.000000,35.000000,0.000000,0.000000,0.000000,0.000000,0.000000,0.905318,1.102458,0.515920,0.300954,0.305253,737.000000,677.000000,60.000000,35.000000,0.000000,0.000000,0.000000,0.000000,0.000000;
#CREDIT:MILEN;
#NOTES:
00000000
00000000
00000000
00000000
,
00000000
00000000
00000000
00000000
,
00000000
00000000
00000000
00000000
,
00000000
00000000
00000000
00000000
,
00000000
00000000
00000000
00000000
,
00000000
00000000
00000000
00000000
,
00000000
00000000
00000000
00000000
,
00000000
00000000
00000000
00000000
,
00011000
00000000
00000000
00010100
00000000
00000000
00101000
00000000
,
00000000
00010010
00000000
00000000
01001000
00000000
00000000
00022000
,
00003000
00001000
00031000
00010000
00000100
00001000
00000010
00001000
,
00000100
00010000
00001000
00000100
00000010
00001000
00000100
00010000
,
00010000
00001000
00100000
00010000
01000000
00001000
00010000
00001000
,
01000000
00010000
00100000
00110000
00000000
00100000
00001000
00010000
,
00011000
00001000
00010000
00001000
01000000
00010000
00100000
00010000
,
01000000
00001000
00010000
01000000
00100000
00010000
01000000
00001000
,
00001000
00010000
00000010
00001000
00000100
00010000
00001000
00010000
,
00000100
00001000
00000010
00001010
00000000
00000010
00010000
00001000
,
00021000
00000000
00230000
00000000
,
20300000
00000000
00000000
32000000
00000000
00000000
00000000
03020000
,
00000000
00031000
00011000
00000000
00010000
00000100
00001000
00000000
,
00000100
00010000
00001000
00000000
00010000
00000100
00001000
00001100
,
00000000
00000100
00000010
00000000
00000001
00000100
00001000
00000000
,
00011000
00000000
00010000
00010010
00000000
00010000
00001000
00101000
,
00000000
00100000
01000000
00000000
10000000
00100000
01000000
00000000
,
00100000
10000000
01000000
00000000
10000000
01000000
00010000
00011000
,
00000000
00001000
00100000
00000000
00001000
00010000
00000010
00000000
,
00001010
00000000
00000001
00000101
00000000
00000100
00001000
00011000
,
00000000
00100000
01100000
00000000
10000000
01000000
00010000
00000000
,
00001000
00010000
01000000
00000000
00010000
00001000
00000100
00000101
,
00000000
00000001
00000010
00000000
00000001
00000100
00000010
00000000
,
00001010
00000000
00010000
00011000
00000000
00001000
01000000
01100000
,
00000000
00010000
10010000
00000000
10000000
00100000
01000000
00000000
,
00010000
00100000
01000000
00000000
00010000
00001000
00000100
00000110
,
00000000
00000010
00001000
00000000
00000100
00000010
00000001
00000000
,
00000101
00000000
00001000
00001010
00000000
00000010
00010000
00011000
,
00001000
00100000
01000000
00100000
00010000
01000000
00100000
00010000
,
00001000
00010000
00001000
00000000
00010000
00000000
00000100
00000000
00000010
00000000
00000100
00000000
00001000
00000000
00000010
00000000
,
00000100
00000001
00000100
00000000
00000010
00000000
00010000
00000000
00001000
00000000
00100000
00000000
00010000
00000000
01000000
00000000
,
00100000
10000000
00100000
00000000
01000000
00000000
00010000
00000000
00100000
00000000
01000000
00000000
00010000
00000000
00001000
00000000
,
00000100
00000010
00000100
00000000
00000001
00000000
00000010
00000000
00001000
00000000
00010000
00000000
00100000
00000000
10000000
00000000
,
01000000
00100000
01000000
00000000
00010000
00000000
00001000
00000000
00000100
00000000
00000001
00000000
00001000
00000000
00000100
00000000
,
00000010
00000000
00000001
00000000
00000100
00001000
00000100
00000000
00001000
00000000
00010000
00000000
01000000
00010000
01000000
00000000
,
10000000
00100000
00010000
00001000
00010000
00100000
00010000
00001000
,
00000010
00000001
00000100
00000010
00000110
00000100
00000010
00010000
,
00011000
00001000
00100000
01000000
01100000
00100000
01000000
10000000
,
10100000
00100000
00010000
00001000
00011000
00010000
00001000
00000100
,
00000101
00000000
00000001
00000000
00001000
00000000
00000010
00000000
00000110
00000000
00000100
00000000
00000001
00000000
00000010
00000100
,
00000010
00001000
00010000
00001000
00000010
00001000
00010000
00100000
,
01000000
00100000
01000000
00000000
00100000
00000000
10000000
00000000
01000000
00000000
00010000
00000000
00001000
00000000
00010000
00001000
,
00010000
00000000
00000100
00000000
00000010
00000000
00000001
00000000
00000010
00000100
00000010
00000000
00001000
00000000
00011000
00000000
,
00010000
00000000
00001000
00000000
00010000
00001000
00020000
00000000
00030100
00000000
00000100
00000000
00000010
00000000
00000001
00000000
,
00000100
00000000
00001000
00000000
00010000
00001000
00010000
00000000
02000000
00000000
03100000
00000000
00100000
01000000
20000000
00000000
,
30100000
00000000
00010000
00000000
00001000
00010000
00001000
00000000
00000010
00000000
00001000
00010000
00001000
00000000
00000020
00000000
,
00000000
00000000
00000130
00000000
00000110
00000000
00000001
00000000
00000100
00000000
00001000
00000000
00010000
00001000
00010000
00000000
,
00001000
00100000
00001000
00000000
00100000
00010000
00100000
00000000
02000000
00000000
13000000
00000000
01000000
00000000
00100000
00000000
,
00001000
00000000
00010000
00000000
00000100
00001000
00000100
00000000
00000020
00000000
00000031
00000000
00000001
00000000
00000100
00000000
,
00001000
00000000
00010000
00000000
00000100
00001000
00000100
00000000
00000010
00000000
00000100
00010000
00000100
00000000
00000010
00000000
,
00000001
00000100
00001000
00000000
00000100
00001000
00010000
00000000
00200000
00000000
00000000
00000000
01300000
00000000
00100000
00000000
,
10100000
00000000
00000000
00000000
10000000
01000000
00100000
00000000
01000000
00000000
00010000
00000000
00001000
00000000
00000000
00000000
,
00100000
00000000
00000000
00000000
00010000
01000000
00001000
00000000
00010000
00000000
00000100
00000000
00000010
00000000
00000000
00000000
,
00000001
00000000
00000000
00000000
00000100
00000010
00001000
00000000
00000100
00000000
00010000
00000000
00001000
00000000
00000000
00000000
,
00100000
00000000
00000000
00000000
01000000
10000000
00100000
00000000
01000000
00000000
00001000
00000000
00010000
00000000
00000000
00000000
,
00000100
00000000
00000010
00000001
00000100
00000010
00001000
00000100
,
00010000
00001000
00100000
00010000
01000000
00100000
10000000
01000000
,
00010000
00001000
00000010
00000001
00001001
00000000
00001000
00000010
,
00010010
00000000
00011000
00001000
00100000
01000000
21000000
00000000
,
30200000
00000000
00000000
00000000
00310000
00001000
00010000
00000000
00001000
00010000
00002000
00000000
00003100
00000000
00000100
00000000
,
00000001
00000000
00000010
00000000
00000100
00000010
00000100
00000000
00000010
00000100
00000020
00000000
00001030
00000000
00001000
00000000
,
00010000
00000000
01000000
00000000
10000000
00100000
10000000
00000000
00020000
00000000
01030000
00000000
00001000
00010000
00001000
00000000
,
00000200
00000301
00000020
00000000
00000030
00000000
00000110
00000000
,
00001001
00000000
00000000
00000000
00000001
00001000
00000100
00000000
00010000
00000000
00001000
00000000
00100000
00000000
01000000
00000000
,
11000000
00000000
10000000
00000000
00010000
10000000
00100000
00000000
00010000
00000000
00001000
00000000
00000100
00000000
00000001
00000000
,
00000011
00000000
00000010
00000000
00000100
00001000
00000100
00000000
00010000
00000000
00001000
00000000
00100000
00010000
00100000
00000000
,
01000000
00000000
10000000
00000000
00100000
01000000
00100000
01000000
00010000
00100000
00010000
00100000
00001000
00010000
00001000
00010000
,
00002000
00003000
00010000
00001000
00000100
00000101
00000000
00000010
,
00010000
00000000
00001000
00010000
00100000
10100000
00000000
01000000
,
00001000
00000000
00010000
00001000
00000010
00000011
00000000
00000100
,
00010000
00000000
00001000
00010000
01000000
11000000
00000000
10000000
,
00100000
00000000
00010000
00001000
00010000
00000000
00000100
00000000
00000010
00000000
00000010
00000000
00000001
00000000
00000001
00000000
,
00000100
00000100
00001000
00001000
00010000
00010000
01000000
01000000
,
10000000
00000000
10000000
00000000
00100000
01000000
00010000
00000000
00100000
00000000
00001000
00000000
00010000
00000100
00001000
00000000
,
00000100
00000000
00000010
00000000
00000001
00000100
00000001
00000100
00000010
00001000
00000010
00001000
00000100
00001000
00000100
00001000
,
00000100
00020000
00000000
00001000
00031000
00000000
00001000
00000000
,
00100000
01000000
10000000
00100000
,
00010000
00001000
00000100
00000001
,
00000010
00000210
00020300
00032000
,
00103000
01100000
01000000
10000000
00100000
00010000
00001000
00000100
,
00000001
00000010
00000110
00000001
00000100
00001000
00010000
00100000
,
10000000
01000000
01200000
00000000
00000000
00000000
00302000
00000000
,
00013000
00001000
00000010
00000000
00000011
00000000
00010100
00000000
,
01001000
00000000
10100000
10000000
01000000
00010000
00001000
00100000
,
01000000
00010000
00001000
00000010
00000100
00001000
00000002
00000000
,
00000100
00000000
00000000
00000103
00000000
00000000
00000100
00000000
00000010
00000000
00001000
00000000
00000100
00000000
00010000
00000000
00001000
00000000
00100000
00000000
00010000
00000000
01000000
00000000
,
00100000
00000000
00000000
00000000
10000000
00000000
00000000
00000000
01000000
00000000
00000000
00000000
00200000
00000000
00000000
00000000
00000000
00000000
00000000
00000000
00000000
00302000
00000000
00000000
00000000
00000000
00000000
00000000
00000000
00000000
00023000
00000000
00000000
00000000
00000000
00000000
00030200
00000000
00000000
00000000
00000000
00000000
00000000
00000000
00000000
00000000
00000000
00000000
,
00001300
00000000
00001000
00000001
00001000
00000000
00000010
00000000
00010000
00001000
00010000
00000000
00100000
00000000
10000000
00000000
,
01000000
00100000
01000000
00000000
00010000
00000000
00000100
00000000
00000010
00000100
00000010
00000000
00000001
00000100
00001000
00000000
,
01000000
00000000
00010000
00000000
00200000
00000000
01300000
00000000
10000000
01000000
00100000
00010000
00100000
00000000
00001000
00000000
,
00010000
00001000
00000100
00000010
00000200
00000000
00000000
00000000
00000301
00000000
00001001
00000000
00000000
00000000
00000000
00000000
;

//---------------dance-single - ----------------
#NOTEDATA:;
#CHARTNAME:;
#STEPSTYPE:dance-single;
#DESCRIPTION:;
#CHARTSTYLE:;
#DIFFICULTY:Medium;
#METER:14;
#RADARVALUES:0.712462,0.763240,0.343947,0.223566,0.047293,580.000000,540.000000,40.000000,26.000000,0.000000,0.000000,0.000000,0.000000,0.000000,0.712462,0.763240,0.343947,0.223566,0.047293,580.000000,540.000000,40.000000,26.000000,0.000000,0.000000,0.000000,0.000000,0.000000;
#CREDIT:MILEN;
#NOTES:
0000
0000
0000
0000
,
0000
0000
0000
0000
,
0000
0000
0000
0000
,
0000
0000
0000
0000
,
0000
0000
0000
0000
,
0000
0000
0000
0000
,
0000
0000
0000
0000
,
0000
0000
0000
0000
,
1010
0000
0000
0101
0000
0000
0011
0000
,
0000
1100
0000
0000
2002
0000
3003
1001
,
0000
0100
0100
0000
0010
1000
0010
0000
,
0100
0001
0100
0000
0001
0010
0001
0001
,
1000
0100
1000
0000
0001
0010
0001
0000
,
0100
0010
0100
0010
0000
1000
0001
1000
,
2002
0000
3003
0000
0001
0100
0010
0000
,
1000
0010
0100
0000
0001
0010
0100
0100
,
1000
0100
0010
0000
0001
0010
0100
0000
,
1000
0010
0100
0010
0000
0100
0010
0100
,
0102
0000
2003
0000
,
3020
0000
0000
0230
0000
0000
0301
1001
,
0000
1000
0100
0000
1000
0010
0100
0000
,
0010
1000
0100
0000
1000
0100
0010
0001
,
0000
0100
0001
0000
0010
0001
0100
0000
,
0110
0000
0001
1001
0000
1000
0010
0100
,
0000
0001
0100
0000
0010
0100
0001
0000
,
0010
0001
0100
0000
0001
0010
0100
1000
,
0000
0010
0100
0000
0010
1000
0001
0000
,
0101
0000
1000
1010
0000
0010
0100
0001
,
0000
0010
0001
0000
0010
0100
1000
0000
,
0100
1000
0010
0000
0100
0001
1000
0010
,
0000
0100
0001
0000
0010
0100
1000
0000
,
1010
0000
0001
0011
0000
0010
0100
1000
,
0000
0010
0100
0000
0001
1000
0100
0000
,
0010
0001
0100
0000
0010
1000
0001
0100
,
0000
0001
0010
0000
0100
1000
0010
0000
,
0110
0000
1000
1001
0000
0001
0100
1000
,
0100
0001
0010
0100
0010
0100
1000
0000
,
0010
1000
0100
0010
0100
0010
0001
0000
,
1000
0010
0100
0010
0100
0001
0010
0000
,
0001
0100
0010
0100
0010
1000
0100
0000
,
1000
0001
0010
0000
0001
1000
0100
0000
,
1000
0010
0100
0000
0001
0100
0010
0000
,
1000
0100
0010
0001
0100
0010
0100
0000
,
0001
0010
0100
1000
0010
0100
0010
0000
,
0110
0000
1000
0100
0001
0100
0010
0001
,
0000
0010
0010
0001
0100
1000
0100
0010
,
1000
0000
0001
0010
1000
0010
0100
1000
,
0000
0000
0100
0000
0100
0000
1000
0000
0010
0000
0001
0000
0010
0000
0100
0010
,
0100
0001
0010
1000
,
0001
0000
0000
0000
0100
0000
0000
0000
1000
0000
0000
0000
0010
0000
0100
0010
,
0100
0000
1001
0000
0001
1000
0010
0110
,
0100
0100
0001
0010
0100
1000
0000
0010
,
0001
0000
1000
0100
0010
0001
0000
0100
,
1000
0000
0010
0100
0001
0000
0100
0010
,
1000
0000
0001
0100
0010
1000
0010
0100
,
0102
0000
1003
0100
0010
0001
0100
0000
,
0010
1010
1100
0011
,
0101
0000
1000
0010
0001
0010
1000
0100
,
0010
0001
0100
1000
0100
0001
0010
0100
,
1000
0000
0001
0100
0010
1000
0000
0100
,
0001
0000
1000
0010
0100
0001
0000
0010
,
1000
0000
0100
0010
0001
0000
1000
0100
,
0010
0000
0001
0010
0100
1000
0100
0010
,
0012
0000
1003
0010
0100
1000
0100
0001
,
1000
0010
0001
0010
0100
0001
0010
0100
,
0001
0100
1000
0001
0010
1000
0010
0100
,
1000
0010
0100
0000
0001
1000
0000
0100
,
0010
0001
1000
0010
0001
0010
2000
0000
,
0000
0000
3001
0100
1000
0100
0002
0000
,
0000
0000
1003
0010
0001
0010
0100
1000
,
0100
0001
0020
0000
0230
0000
1300
0010
,
0100
0000
1000
0100
0001
0010
0100
0010
,
0001
0101
1100
0011
,
1010
0000
1000
0100
0001
1000
0010
0001
,
0100
0000
0000
0000
1000
0000
0100
0000
0001
0000
0010
0000
0100
1000
0100
1000
,
0100
1100
0010
0100
,
0001
0011
0100
0010
,
1000
1010
0010
0100
,
0001
0101
1000
0100
,
0010
0000
0001
0100
0001
0100
0010
1000
,
0010
1000
0100
1000
0100
0010
0001
0010
,
0001
0100
0010
1000
0001
0010
0100
0001
,
1000
0010
0001
1000
0100
0001
1000
0010
,
0100
2000
0000
0000
0000
0000
0000
0000
,
0000
3020
0000
0032
,
0000
0203
0000
0000
,
1300
0010
0220
0000
0030
0000
0302
0000
,
0000
0000
1003
0010
0100
0001
1000
0100
,
0010
0001
0100
1000
0001
0010
1000
0100
,
0001
0000
0100
0000
0020
0000
0000
0000
0000
0000
0000
0000
0031
0000
0000
0100
,
0000
0010
1000
0000
1100
0000
0001
0000
,
0101
0000
1000
0010
0100
1000
0100
0010
,
1000
0100
0010
1000
0010
0001
0100
0000
,
0010
0000
1000
0000
0100
1000
0100
0000
0010
0000
0001
0000
0100
0000
0000
0010
,
0000
0000
1000
0000
0001
0000
0000
0010
0000
0000
0100
0000
2000
0000
0000
0000
,
0000
0000
3010
0100
0001
0000
0000
0000
0011
0000
0000
0000
0010
0100
0010
0000
,
0200
0000
0000
0000
1300
0000
0000
0000
1010
0000
0000
0000
0010
0100
0010
0000
,
0200
0000
0301
0010
0100
0001
1000
0010
,
0100
1000
0020
0000
0130
0110
0000
0000
;

//---------------dance-single - ----------------
#NOTEDATA:;
#CHARTNAME:;
#STEPSTYPE:dance-single;
#DESCRIPTION:;
#CHARTSTYLE:;
#DIFFICULTY:Easy;
#METER:10;
#RADARVALUES:0.395539,0.508827,0.189171,0.146177,0.000000,322.000000,300.000000,22.000000,17.000000,0.000000,0.000000,0.000000,0.000000,0.000000,0.395539,0.508827,0.189171,0.146177,0.000000,322.000000,300.000000,22.000000,17.000000,0.000000,0.000000,0.000000,0.000000,0.000000;
#CREDIT:MILEN;
#NOTES:
0000
0000
0000
0000
,
0000
0000
0000
0000
,
0000
0000
0000
0000
,
0000
0000
0000
0000
,
0000
0000
0000
0000
,
0000
0000
0000
0000
,
0000
0000
0000
0000
,
0000
0000
0000
0000
,
0000
0000
0000
0000
,
0000
0000
0000
0000
,
0000
1000
0010
0100
,
0010
1000
0010
0000
,
0100
0001
0100
0010
,
0100
0000
0000
0001
0000
0000
0100
0000
,
0110
0001
0010
0100
,
0010
0001
0010
0000
,
0100
1000
0100
0010
,
0100
0000
0000
1000
0000
0000
0100
0000
,
0220
0000
0000
0000
,
0000
0000
0000
0330
,
0001
0100
0001
0000
,
1000
0010
1000
0000
,
0001
0010
0001
0000
,
1000
0100
1000
0000
,
0001
0100
0010
0000
,
1000
0010
0100
0000
,
0001
0010
0100
0000
,
1000
0100
0010
0000
,
0001
0100
0001
0100
,
0001
0010
0001
0010
,
0001
0100
0001
0010
,
0100
1000
0010
0000
,
1000
0100
1000
0100
,
1000
0010
1000
0010
,
1000
0100
0010
0001
,
1000
0000
0010
0100
,
0110
0001
0100
0000
,
0010
1000
0100
0000
,
1000
0001
0010
0000
,
0001
1000
0100
0000
,
1000
0010
0100
0000
,
0001
0100
0010
0000
,
1000
0100
0010
0000
,
0001
0010
0100
0000
,
1000
0010
0100
0010
,
0100
0010
1000
0000
,
0001
0100
0010
0100
,
0010
0100
0001
0000
,
1000
0100
0010
0100
,
1000
0001
0010
0100
,
0010
0000
0001
0000
0100
0000
0010
0020
,
0000
1030
0001
0101
,
0000
1000
0001
0101
,
0000
1000
0001
0101
,
0001
2000
0000
3010
,
0010
1000
0100
0001
,
0100
1000
0010
0001
,
0010
1000
0100
0010
,
0001
1001
0000
0010
,
0010
0001
1000
1100
,
0000
0001
1000
1100
,
0000
0001
1000
1100
,
1000
0002
0000
2003
,
0000
3001
0100
0001
,
0100
1000
0100
1000
,
0100
0001
0010
1000
,
0010
2002
3003
0001
,
0100
0010
1000
1001
,
0000
0100
0001
1001
,
0000
0010
1000
1001
,
0001
0200
0000
0310
,
1000
0100
0001
1000
,
0010
0001
0100
1000
,
0001
0010
1000
0100
,
0010
0002
0000
2003
,
0000
3010
0100
0001
,
0011
0010
0001
0100
,
0110
0010
1000
0100
,
1100
2000
0000
3010
,
0010
0100
0001
0010
,
1000
0010
0001
0100
,
1000
0100
0001
0010
,
0100
2000
0000
3001
,
1001
1000
0100
0001
,
0000
0001
0010
1000
,
0000
0001
0100
1000
,
0000
1000
0010
0001
,
0000
0001
0010
0100
,
0001
0100
0010
1000
,
0010
0200
0000
0301
,
0001
1000
0002
0000
0000
0000
0013
0000
,
0010
0100
0001
0100
,
1000
0100
0001
0200
,
0000
0310
1000
0010
,
0001
0010
1000
0020
,
0000
0031
0100
0010
,
1010
1000
0010
0100
,
0101
0001
0010
0100
,
1000
0000
1001
0000
0000
0110
0000
0000
;

//---------------dance-single - ----------------
#NOTEDATA:;
#CHARTNAME:;
#STEPSTYPE:dance-single;
#DESCRIPTION:;
#CHARTSTYLE:;
#DIFFICULTY:Beginner;
#METER:4;
#RADARVALUES:0.157233,0.254736,0.025796,0.017197,0.000000,128.000000,125.000000,3.000000,2.000000,0.000000,0.000000,0.000000,0.000000,0.000000,0.157233,0.254736,0.025796,0.017197,0.000000,128.000000,125.000000,3.000000,2.000000,0.000000,0.000000,0.000000,0.000000,0.000000;
#CREDIT:MILEN;
#NOTES:
0000
0000
0000
0000
,
0000
0000
0000
0000
,
0000
0000
0000
0000
,
0000
0000
0000
0000
,
0000
0000
0000
0000
,
0000
0000
0000
0000
,
0000
0000
0000
0000
,
0000
0000
0000
0000
,
0000
0000
0000
0000
,
0000
0000
0000
0000
,
0100
0000
0000
0000
,
0100
0000
0000
0000
,
0100
0000
0000
0000
,
0100
0000
0100
0000
,
0010
0000
0000
0000
,
0010
0000
0000
0000
,
0010
0000
0000
0000
,
0010
0000
0010
0000
,
0200
0000
0000
0000
,
0000
0000
0000
0300
,
0100
0000
0001
0000
,
1000
0000
0000
0000
,
0100
0000
1000
0000
,
0001
0000
0000
0000
,
0010
0000
0001
0000
,
1000
0000
0000
0000
,
0010
0000
1000
0000
,
0001
0000
0000
0000
,
0100
0000
0001
0000
,
0010
0000
0000
0000
,
0100
0000
1000
0000
,
0010
0000
0000
0000
,
1000
0000
0001
0000
,
0010
0000
0000
0000
,
0001
0000
1000
0000
,
0100
0000
0100
0100
,
0100
0000
0000
0000
,
1000
0000
0000
0000
,
0010
0000
0000
0000
,
1000
0000
0000
0000
,
0001
0000
0000
0000
,
0100
0000
0000
0000
,
0001
0000
0000
0000
,
0010
0000
0000
0000
,
0100
0000
0000
0000
,
1000
0000
0000
0000
,
0010
0000
0000
0000
,
0100
0000
0000
0000
,
0010
0000
0010
0000
,
1000
0000
1000
0000
,
0001
0000
0100
0100
,
0000
1001
0000
0000
,
0000
1000
0000
0000
,
0000
0010
0000
0000
,
0000
0001
0000
0000
,
0000
0100
0000
0000
,
0000
1000
0000
0000
,
0000
0001
0000
0000
,
0000
0010
0000
0000
,
0000
0100
0000
0010
,
0000
0100
0000
0010
,
0000
0100
0000
0100
,
0000
0100
0000
0000
,
0000
1000
0000
0001
,
0000
1000
0000
0001
,
0000
1000
0000
1000
,
0000
1000
0000
0000
,
0000
1001
0000
0000
,
0000
0010
0000
0000
,
0000
0001
0000
0000
,
0000
0100
0000
0000
,
0000
1000
0000
0000
,
0000
0010
0000
0000
,
0000
0100
0000
0000
,
0000
0001
0001
0001
,
0000
1000
0000
0000
,
0000
0010
0000
0000
,
0000
0001
0000
0000
,
0000
0100
0000
0000
,
0000
1000
0000
0001
,
0000
0100
0000
0010
,
0000
1000
0000
0001
,
0000
0100
0000
0010
,
0010
0020
0000
0000
,
0000
0000
0030
0010
,
0000
1000
0000
0000
,
0000
0001
0000
0100
,
0000
0010
0000
1000
,
0000
0100
0000
0010
,
0000
0001
0000
1000
,
0000
0001
0000
0000
,
0000
1000
0000
0000
,
0000
0010
0000
0000
,
0000
0001
0000
0000
,
0000
0100
0000
0000
,
0000
1000
0000
1000
,
0000
0001
0000
0001
,
0000
0100
0000
0010
,
0000
0100
0000
0110
;

//---------------dance-double - ----------------
#NOTEDATA:;
#CHARTNAME:;
#STEPSTYPE:dance-double;
#DESCRIPTION:;
#CHARTSTYLE:;
#DIFFICULTY:Medium;
#METER:14;
#RADARVALUES:0.680524,0.720838,0.318151,0.214967,0.012898,554.000000,517.000000,37.000000,25.000000,0.000000,0.000000,0.000000,0.000000,0.000000,0.680524,0.720838,0.318151,0.214967,0.012898,554.000000,517.000000,37.000000,25.000000,0.000000,0.000000,0.000000,0.000000,0.000000;
#CREDIT:MILEN;
#NOTES:
00000000
00000000
00000000
00000000
,
00000000
00000000
00000000
00000000
,
00000000
00000000
00000000
00000000
,
00000000
00000000
00000000
00000000
,
00000000
00000000
00000000
00000000
,
00000000
00000000
00000000
00000000
,
00000000
00000000
00000000
00000000
,
00000000
00000000
00000000
00000000
,
00101000
00000000
00000000
00010010
00000000
00000000
01001000
00000000
,
00000000
00010100
00000000
00000000
00022000
00000000
00033000
00011000
,
00000000
00010000
01000000
00000000
10000000
00100000
01000000
00000000
,
00100000
10000000
01000000
00000000
00010000
00001000
01000000
00000000
,
00001000
00010000
00000100
00000000
00001000
00000100
00000010
00000000
,
00000001
00000100
00001000
00010000
00000000
00001000
00010000
00001000
,
00022000
00000000
00033000
00000000
00010000
00000100
00001000
00000000
,
00000100
00000010
00000001
00000000
00000100
00001000
00010000
00000000
,
00001000
00010000
01000000
00000000
10000000
00100000
01000000
00000000
,
10000000
01000000
00010000
00100000
00000000
01000000
00010000
00001000
,
00021000
00000000
00030200
00000000
,
00000320
00000000
00000000
00000032
00000000
00000000
00001003
00001001
,
00000000
00000001
00000100
00000000
00000010
00001000
00000100
00000000
,
00010000
00001000
00100000
00000000
00010000
00100000
01000000
10000000
,
00000000
00100000
01000000
00000000
00010000
00100000
00001000
00000000
,
00011000
00000000
00000000
00010100
00000000
00000100
00001000
00000010
,
00000000
00000100
00000001
00000000
00000010
00001000
00010000
00000000
,
00001000
00100000
00010000
00000000
00100000
01000000
10000000
00100000
,
00000000
01000000
00001000
00000000
00010000
00000100
00001000
00000000
,
00001100
00000000
00000000
00000011
00000000
00000001
00000100
00001000
,
00000000
00010000
00000100
00000000
00001000
00000010
00010000
00000000
,
00001000
00100000
01000000
00000000
10000000
00100000
00010000
00001000
,
00000000
00100000
01000000
00000000
10000000
00010000
00100000
00000000
,
00101000
00000000
00000000
00010010
00000000
00010000
00001000
00000100
,
00000000
00000001
00000010
00000000
00000100
00000010
00000001
00000000
,
00000100
00001000
00010000
00000000
00100000
10000000
01000000
00100000
,
00000000
01000000
00010000
00000000
00001000
00000010
00000100
00000000
,
00000110
00000000
00000000
00001001
00000000
00000001
00000100
00001000
,
00010000
00100000
10000000
01000000
10000000
01000000
00100000
00000000
,
00010000
01000000
00001000
00010000
00001000
00010000
00000100
00000000
,
00001000
00000010
00010000
00001000
00010000
00001000
00100000
00000000
,
00001000
00000010
00000001
00000100
00000001
00000100
00001000
00000000
,
00010000
00001000
00000100
00000000
00001000
00010000
01000000
00000000
,
00010000
00001000
00000010
00000000
00001000
00010000
00100000
00000000
,
10000000
01000000
00100000
00010000
01000000
00010000
01000000
00000000
,
00001000
00010000
00000100
00000010
00000001
00000010
00000001
00000000
,
00000101
00000000
00001000
00000010
00010000
00001000
00100000
01000000
,
00000000
10000000
10000000
00100000
00010000
00001000
00010000
00100000
,
01000000
00000000
00010000
01000000
00001000
00010000
00000100
00000010
,
00000000
00000001
00000001
00000100
00001000
00010000
00001000
00000100
,
00000010
00010000
00001000
00100000
,
00010000
01000000
10000000
00100000
,
00010000
00000000
00011000
00000000
00001100
00000000
00000001
00000101
,
00001000
00001000
00000010
00010000
00001000
00100000
00000000
00010000
,
01000000
00000000
01000000
00001000
00010000
00000100
00000000
00001000
,
00000010
00000000
00000100
00000001
00000010
00000000
00001000
00000000
,
00010000
00000000
00100000
10000000
01000000
10000000
00100000
01000000
,
01020000
00000000
10030000
01000000
00010000
00001000
00010000
00000000
,
00000100
00001100
00001000
00000011
,
00000001
00000000
00001000
00000010
00010000
00001000
00100000
00010000
,
01000000
00001000
00010000
00000100
00001000
00000010
00010000
00001000
,
00100000
00000000
01000000
10000000
00100000
00010000
00000000
00001000
,
00010000
00000000
00000100
00000010
00000001
00000100
00000000
00001000
,
00010000
00000000
00000010
00010000
00001000
00000000
01000000
00000000
,
00100000
00000000
10000000
00010000
01000000
00001000
00010000
00001000
,
00021000
00000000
00030100
00000100
00000010
00000001
00001000
00000100
,
00000010
00000000
00000001
00000100
00001000
00010000
00100000
10000000
,
01000000
00000000
00100000
01000000
10000000
00010000
00100000
01000000
,
00010000
00000000
00011000
00000000
00001000
00000010
00000000
00000001
,
00000010
00000100
00010000
00001000
00000010
00001000
00020000
00000000
,
00000000
00000000
00031000
00010000
00100000
00010000
00002000
00000000
,
00000000
00000000
00013000
00001000
00000100
00001000
00010000
01000000
,
00010000
00001000
00000020
00000000
00000230
00000000
00000310
00000001
,
00000100
00000000
00001000
00010000
00100000
10000000
01000000
10000000
,
00100000
00010000
00001000
00000000
01001000
00000000
00010000
00000000
,
00010100
00000000
00000100
00001000
00000100
00000010
00000001
00001000
,
00000100
00000000
00000010
00001000
00010000
00100000
10000000
10000000
,
10000000
11000000
00100000
00010000
,
00001000
00011000
00010000
00001000
,
00000100
00000011
00000001
00000100
,
00001000
00011000
00010000
00100000
,
10000000
00000000
01000000
00100000
01000000
00010000
00001000
00010000
,
00000100
00000000
00000010
00000001
00000100
00001000
00000100
00001000
,
00010000
00000000
00000010
00001000
00000010
00010000
00001000
00010000
,
00100000
00000000
10000000
01000000
00010000
00001000
00010000
00001000
,
00000100
00000002
00000000
00000000
00000000
00000000
00000000
00000000
,
00000000
00000023
00000000
00002030
,
00000000
00203000
00000000
00000000
,
00310000
00100000
02000000
00000000
00000000
00000000
23000000
00000000
,
00000000
00000000
30100000
00010000
00001000
00100000
01000000
00010000
,
00001000
00000010
00000100
00000010
00000001
00000100
00001000
00010000
,
00100000
00000000
10000000
00000000
02000000
00000000
00000000
00000000
00000000
00000000
00000000
00000000
03100000
00000000
00000000
00010000
,
00000000
00001000
00001000
00000000
00001010
00000000
00000001
00000000
,
00000101
00000000
00000100
00001000
00010000
00001000
00000100
00000010
,
00000100
00001000
00010000
00100000
01000000
00100000
00010000
00000000
,
00100000
00000000
10000000
00000000
01000000
00000000
01000000
00000000
00100000
00000000
00010000
00000000
01000000
00000000
00000000
00001000
,
00000000
00000000
00010000
00000000
00000100
00000000
00000000
00001000
00000000
00000000
00000100
00000000
00000020
00000000
00000000
00000000
,
00000000
00000031
00000001
00000000
00001100
00000000
00010000
00010000
,
02000000
00000000
13000000
00000000
10100000
00000000
00010000
00010000
,
00000200
00000000
00000310
00000001
00000010
00000100
00001000
00010000
,
00100000
01000000
20000000
00000000
30010000
10010000
00000000
00000000
;

//---------------dance-double - ----------------
#NOTEDATA:;
#CHARTNAME:;
#STEPSTYPE:dance-double;
#DESCRIPTION:;
#CHARTSTYLE:;
#DIFFICULTY:Easy;
#METER:11;
#RADARVALUES:0.384484,0.508827,0.180572,0.137579,0.000000,313.000000,292.000000,21.000000,16.000000,0.000000,0.000000,0.000000,0.000000,0.000000,0.384484,0.508827,0.180572,0.137579,0.000000,313.000000,292.000000,21.000000,16.000000,0.000000,0.000000,0.000000,0.000000,0.000000;
#CREDIT:MILEN;
#NOTES:
// measure 0
00000000
00000000
00000000
00000000
,  // measure 1
00000000
00000000
00000000
00000000
,  // measure 2
00000000
00000000
00000000
00000000
,  // measure 3
00000000
00000000
00000000
00000000
,  // measure 4
00000000
00000000
00000000
00000000
,  // measure 5
00000000
00000000
00000000
00000000
,  // measure 6
00000000
00000000
00000000
00000000
,  // measure 7
00000000
00000000
00000000
00000000
,  // measure 8
00000000
00000000
00000000
00000000
,  // measure 9
00000000
00000000
00000000
00000000
,  // measure 10
00000000
00001000
00100000
00010000
,  // measure 11
00100000
00001000
00100000
00000000
,  // measure 12
00010000
00100000
01000000
00100000
,  // measure 13
00010000
00000000
00000000
00100000
00000000
00000000
00001000
00000000
,  // measure 14
00011000
00010000
00000010
00001000
,  // measure 15
00000010
00010000
00000010
00000000
,  // measure 16
00001000
00000010
00000100
00000010
,  // measure 17
00001000
00000000
00000000
00000010
00000000
00000000
00010000
00000000
,  // measure 18
00022000
00000000
00000000
00000000
,  // measure 19
00000000
00000000
00000000
00033000
,  // measure 20
00001000
00010000
01000000
00000000
,  // measure 21
00010000
01000000
10000000
00000000
,  // measure 22
10000000
00100000
00010000
00000000
,  // measure 23
00100000
00010000
00001000
00000000
,  // measure 24
00010000
00001000
00000100
00000000
,  // measure 25
00001000
00000100
00000001
00000000
,  // measure 26
00000001
00000010
00001000
00000000
,  // measure 27
00000010
00001000
00010000
00000000
,  // measure 28
00001000
00100000
00001000
00100000
,  // measure 29
00010000
01000000
00010000
01000000
,  // measure 30
00001000
00100000
00010000
01000000
,  // measure 31
00001000
00010000
00001000
00000000
,  // measure 32
00010000
00000100
00010000
00000100
,  // measure 33
00001000
00000010
00001000
00000010
,  // measure 34
00010000
00000100
00001000
00000010
,  // measure 35
00010000
00000000
00001000
00010000
,  // measure 36
00011000
00000000
01000000
00000000
,  // measure 37
00100000
00000000
01000000
00000000
,  // measure 38
00001000
00000000
00010000
00000000
,  // measure 39
00000010
00000000
00000100
00000000
,  // measure 40
00000010
00000000
00010000
00000000
,  // measure 41
00001000
00000000
00100000
00000000
,  // measure 42
01000000
00000000
00010000
00000000
,  // measure 43
00001000
00000000
00000010
00000000
,  // measure 44
00000100
00000010
00000001
00000010
,  // measure 45
00000001
00000100
00001000
00000000
,  // measure 46
01000000
00100000
10000000
00100000
,  // measure 47
10000000
01000000
00010000
00000000
,  // measure 48
00001000
00010000
01000000
00010000
,  // measure 49
00001000
00000100
00001000
00010000
,  // measure 50
00100000
00000000
00010000
00000000
00001000
00000000
00000010
00000020
,  // measure 51
00000000
00000031
00001000
00001100
,  // measure 52
00000000
00000001
00001000
00001100
,  // measure 53
00000000
00000001
00001000
00001100
,  // measure 54
00001000
00000002
00000000
00000013
,  // measure 55
00000010
00001000
00010000
00100000
,  // measure 56
00010000
00001000
00000100
00001000
,  // measure 57
00010000
01000000
00010000
00001000
,  // measure 58
00010000
00011000
00000000
00100000
,  // measure 59
00100000
00010000
10000000
11000000
,  // measure 60
00000000
00010000
10000000
11000000
,  // measure 61
00000000
00010000
10000000
11000000
,  // measure 62
10000000
00020000
00000000
02030000
,  // measure 63
00000000
03001000
00010000
00100000
,  // measure 64
00010000
00001000
00000010
00001000
,  // measure 65
00010000
01000000
00010000
00001000
,  // measure 66
00000100
00000020
00000030
00000100
,  // measure 67
00000001
00000010
00001000
00011000
,  // measure 68
00000000
01000000
00010000
00011000
,  // measure 69
00000000
00000010
00001000
00011000
,  // measure 70
00010000
02000000
00000000
13000000
,  // measure 71
00100000
00010000
00001000
00100000
,  // measure 72
01000000
00010000
00001000
00000010
,  // measure 73
00000100
00001000
00000010
00000001
,  // measure 74
00000010
00000200
00000000
00000320
,  // measure 75
00000000
00010030
00001000
00100000
,  // measure 76
01100000
01000000
10000000
00100000
,  // measure 77
00011000
00000100
00000001
00000010
,  // measure 78
00000110
00000200
00000000
00000310
,  // measure 79
00000010
00000001
00000100
00010000
,  // measure 80
00000100
00001000
00010000
00100000
,  // measure 81
00001000
00100000
10000000
01000000
,  // measure 82
00100000
00002000
00000000
00013000
,  // measure 83
00011000
00001000
00100000
01000000
,  // measure 84
00000000
00010000
00001000
00000010
,  // measure 85
00000000
00001000
00010000
00100000
,  // measure 86
00000000
00010000
00000100
00000010
,  // measure 87
00000000
00000001
00000100
00001000
,  // measure 88
00010000
00001000
00010000
00100000
,  // measure 89
10000000
02000000
00000000
03010000
,  // measure 90
00010000
00001000
00020000
00000000
00000000
00000000
00030100
00000000
,  // measure 91
00000100
00000010
00000001
00001000
,  // measure 92
00000100
00000010
00001000
00020000
,  // measure 93
00000000
00130000
10000000
01000000
,  // measure 94
00100000
00010000
01000000
00002000
,  // measure 95
00000000
00013000
00000100
00001000
,  // measure 96
00001001
00000001
00000100
00001000
,  // measure 97
00011000
00010000
00100000
10000000
,  // measure 98
01000000
00000000
01100000
00000000
00000000
01100000
00000000
00000000
;
