#TITLE:Critical;
#SUBTITLE:;
#ARTIST:encX;
#TITLETRANSLIT:;
#SUBTITLETRANSLIT:;
#ARTISTTRANSLIT:;
#GENRE:VARIETY;
#CREDIT:MUINELIM;
#BANNER:Critical.png;
#BACKGROUND:Critical-bg.png;
#LYRICSPATH:;
#CDTITLE:;
#MUSIC:Critical.mp3;
#OFFSET:-0.125000;
#SAMPLESTART:69.458336;
#SAMPLELENGTH:14.626663;
#SELECTABLE:YES;
#BPMS:0.000000=180;
#STOPS:76.000000=0.667;
#BGCHANGES:;
#KEYSOUNDS:;
#ATTACKS:;

//---------------dance-single - ----------------
#NOTES:
     dance-single:
     :
     Challenge:
     17:
     1.048493,1.187882,0.679579,0.713558,0.981142,864.000000,784.000000,80.000000,84.000000,0.000000,0.000000,1.048493,1.187882,0.679579,0.713558,0.981142,864.000000,784.000000,80.000000,84.000000,0.000000,0.000000:
0000
0000
0000
0000
,
0000
0000
0000
0000
,
0000
0000
0000
0000
,
0000
0000
0000
0000
,
0010
1000
0200
0000
0310
0100
2000
0000
,
3001
0010
0200
0000
0310
0001
0200
0000
,
0310
1000
0002
0000
0013
0001
2000
0000
,
3100
1000
0020
0000
0130
0001
0020
0000
,
0130
1000
2020
3030
0100
0001
0022
0033
,
0100
1000
2200
3300
1000
0010
0202
0303
,
1001
0100
0220
0330
1001
0010
0220
0330
,
0100
0000
0001
0000
1000
0000
0010
0000
0100
0001
0100
0001
0100
0001
0100
0001
,
0010
0100
1000
0001
0100
0010
1000
0001
,
0010
0100
1000
0010
0200
0001
0302
1000
,
1003
0100
0010
0001
1000
0010
0100
0001
,
0010
0100
1000
0010
0200
0001
0302
0010
,
0013
0100
1000
0010
0001
0010
1000
0010
,
0100
0001
0100
1000
0200
0010
0320
1000
,
1030
0000
0001
0000
0101
0000
1000
0100
0010
0000
0100
0010
0001
0100
0010
2000
,
0002
0000
3003
0000
1001
0000
0010
0100
0010
0000
0110
0000
0000
0000
0101
0000
,
0101
0000
0011
0011
0000
1010
1010
0000
,
1100
1100
0000
0101
0000
2002
3003
0110
,
0110
0000
1010
1010
0000
1100
1100
0000
,
0101
0101
0000
0011
0000
2002
3003
1010
,
1010
0000
0011
0011
0000
0101
0101
0000
,
1100
1100
0000
0110
0110
2002
3003
1010
,
0101
0000
0011
0010
0100
1100
0000
1001
,
0001
0100
0000
0010
0100
0000
0010
1000
0100
0000
0110
0000
0010
0000
0001
0000
,
0101
0010
1000
1100
0100
0010
0011
0001
,
0100
1010
1000
0110
0010
0101
0001
1000
,
1100
0100
0010
0011
0001
1000
0110
1000
,
0001
0100
0010
0000
0100
1000
0000
0100
0010
0000
1010
0000
1000
0000
0001
0000
,
0011
0100
1000
1010
0010
0100
0101
0001
,
0010
1100
1000
0010
0110
0110
0100
1001
,
1001
0001
0110
1000
0110
0001
1001
1000
,
0010
0100
0010
0100
0010
0100
0010
0100
0001
0000
0010
0000
0100
0000
1000
0000
,
0001
0100
0010
1000
0001
0010
0100
1000
,
0010
0200
0001
0301
1000
0100
0010
0001
,
1000
0010
0100
0001
0010
0100
1000
0010
,
0100
0001
0100
0001
0100
0001
0100
0001
1000
0000
0010
0000
0100
0000
1000
0000
,
0100
0001
0100
0010
1000
0010
0001
0010
,
0100
0002
0010
0013
0100
1000
0010
0001
,
1000
0100
0001
0010
0100
1000
0001
0100
,
0010
1000
0010
1000
0200
0000
0310
0001
0200
0000
0010
0000
0320
0000
1000
0000
,
2030
0001
3002
0010
0023
0100
0230
1000
,
2300
0000
0010
0000
3020
0000
0100
0000
0200
0000
0030
0000
0301
0010
0001
0010
,
0100
1000
0100
1000
0001
0100
0001
0100
0010
1000
0010
1000
0001
0010
0100
1000
,
0001
0100
0010
1000
0001
0010
0100
1000
0010
0100
0010
0000
1000
0000
0001
0000
,
0100
0010
0100
0000
0001
0000
1000
0000
0010
1000
0100
0000
1000
0000
0001
0000
,
0010
0001
0100
0000
0001
0000
1000
0000
0010
0100
0001
0000
0010
0001
0100
0000
,
0010
1000
0100
0000
1000
0010
0100
0000
0001
0010
0100
0000
1000
0100
0010
0000
,
0001
0000
0000
1000
0000
0000
0001
0000
0000
1000
0000
0000
0001
0000
0000
1000
0000
0000
0001
0000
0000
1000
0000
0000
0010
0000
0000
0000
0010
0000
0000
0000
0100
0000
0000
0000
0001
0000
0000
0000
0010
0000
0000
0000
0100
0000
0000
0000
,
0010
0001
1000
0010
0100
0001
1000
1000
0100
0010
0001
1000
,
0010
0100
0001
0010
0100
1000
0001
0001
0100
0010
1000
0010
,
0100
0001
0010
0100
1000
0010
0100
0100
0001
1000
0100
0010
,
0100
1000
0010
0100
0001
1000
1100
0100
0010
0001
1000
0010
,
0100
0001
0010
0100
1000
0001
0101
0100
0010
1000
0001
0010
,
0100
1000
0010
0100
0001
1000
1010
0010
0100
0001
0100
1000
,
0100
0010
1000
0010
0100
0001
0011
0010
0100
0001
0100
1000
,
0010
0000
0000
0000
0100
0000
0000
0000
0001
0000
0000
0000
0010
0000
0000
0000
0100
0000
0000
0000
1000
0000
0000
0000
0010
0000
0000
0200
0000
0000
0000
0000
0000
0310
0000
0000
2000
0000
0000
0000
0000
0000
3010
0000
0000
0200
0000
0000
,
0000
0310
0002
0000
0013
0200
0000
0301
0020
0000
0130
2000
0000
3010
0200
0000
,
0301
2000
0000
3100
0020
0000
0031
0000
0001
2000
0000
3001
0200
0000
0301
0020
,
0000
0031
2000
0000
3100
0020
0000
0031
0200
0000
0310
0002
0000
0013
2000
0000
,
3100
0002
0000
0103
2000
0000
3010
0000
0010
0100
0001
0100
0020
0000
1030
0000
,
1000
0100
0010
0100
2000
0000
3001
0000
0001
0100
0001
0100
0010
1000
0010
1000
,
0001
0000
0000
0100
0000
0000
0010
0000
0000
1000
0000
0000
0001
0000
0000
0010
0000
0000
0100
0000
0000
1000
0000
0000
0002
0000
0000
0000
0003
0000
0000
0000
0010
0000
0000
0000
1010
0000
0000
0000
0000
0000
0000
0000
0000
0000
0000
0000
,
2000
3000
0100
0101
0000
0000
0001
0010
1000
0010
0100
1000
,
0100
0000
0000
0000
0001
0000
0000
0000
0100
0000
0000
0000
0010
0000
0000
0000
0001
0000
0000
0000
0100
0000
0000
0000
0010
0000
0000
1000
0000
0000
0100
0000
0000
0000
0000
0000
0020
0000
0000
0000
0000
0000
0130
0000
0000
0000
0000
0000
,
1000
0010
0100
0000
2000
0000
3100
0000
0010
1000
0100
0000
0010
0100
1000
0000
,
0001
0010
0100
0000
0010
0001
0100
0000
0010
1000
0001
0000
0200
0000
0310
0000
,
1000
0001
0100
0000
0020
0000
1030
0000
1000
0100
0010
0000
0100
0010
0001
0000
,
1000
0010
0100
0000
0001
0100
0010
0000
0001
0010
0100
0000
0002
0000
0013
0000
,
0100
0010
0001
0000
0200
0000
0310
0000
0001
0010
0100
0000
0001
0010
0100
0000
,
1000
0010
0100
0000
0010
1000
0100
0000
0001
0100
2000
0000
3010
0000
0001
0000
,
0010
1000
0200
0000
0301
0000
0100
0000
1000
0010
1000
0010
0100
0001
0100
0001
,
1000
0010
0100
0001
1000
0100
0010
0001
0100
0010
1000
0010
0100
0000
0001
0000
,
0010
0100
1000
0100
0010
0000
0001
0000
1000
0010
0100
0000
1000
0100
0001
0000
,
1000
0010
0001
0000
0010
0100
0001
0000
1000
0010
0100
1000
0100
0000
0010
0000
,
0100
0001
0010
0100
0010
0000
0001
0000
1000
0010
1000
0010
0100
0001
0100
0001
,
0010
0100
1000
0010
0100
0001
1000
0100
0010
0001
0100
0010
0100
0000
0010
0000
,
1000
0100
0010
0100
0001
0000
0100
0000
1000
0010
0100
0000
0001
0010
1000
0000
,
0001
0100
1000
0000
0010
0100
0001
0000
1000
0100
1000
0100
1000
0100
1000
0100
,
1000
0100
1000
0100
1000
0100
1000
0100
0010
0001
0010
0001
0010
0001
0010
0001
,
0100
0010
1000
0001
0010
0100
1000
0000
2200
0000
3300
0000
0022
0000
0033
0000
,
0101
1010
0000
0220
0000
0000
0330
0000
;

//---------------dance-double - ----------------
#NOTES:
     dance-double:
     :
     Challenge:
     17:
     0.945342,1.187882,0.407747,0.645600,0.976894,779.000000,731.000000,48.000000,76.000000,0.000000,0.000000,0.945342,1.187882,0.407747,0.645600,0.976894,779.000000,731.000000,48.000000,76.000000,0.000000,0.000000:
00000000
00000000
00000000
00000000
,
00000000
00000000
00000000
00000000
,
00000000
00000000
00000000
00000000
,
00000000
00000000
00000000
00000000
,
10000000
01000000
00010000
00000000
01000000
00010000
00001000
00000000
,
00010000
00001000
00000010
00000000
00001000
00000010
00000001
00000000
,
00000010
00000001
00000100
00000000
00000001
00000100
00001000
00000000
,
00000100
00001000
00010000
00000000
00001000
00010000
00100000
00000000
,
00010000
00100000
20000000
00000000
31000000
00010000
00002000
00000000
,
00003010
00000001
00000200
00000000
00001300
00010000
00200000
00000000
,
10300000
01000000
00020000
00000000
00031000
00000010
00000002
00000000
,
00000103
00000000
00000010
00000000
00001000
00000000
00000100
00000000
00010000
00001000
00010000
00001000
00010000
00001000
00010000
00001000
,
00100000
00010000
01000000
00100000
10000000
00010000
00100000
01000000
,
10000000
00100000
01000000
00010000
00200000
00302000
00023000
00030200
,
00000310
00000010
00000001
00001000
00000010
00000100
00000001
00000010
,
00000100
00001000
00000010
00010000
00002000
00203000
02300000
23000000
,
30100000
00100000
00010000
00001000
00000010
00000001
00000100
00001000
,
00010000
01000000
10000000
00100000
00020000
00032000
00203000
02300000
,
03010000
00000000
00010000
00000000
00011000
00000000
00001000
01000000
00001000
00000000
00010000
00000100
00010000
00000100
00010000
00002000
,
00020000
00000000
00033000
00000000
00011000
00000000
00001000
00010000
00001000
00000000
00001100
00000000
00000000
00000000
00000100
00000000
,
00000101
00000000
00000001
00000011
00000000
00000010
00001010
00000000
,
00001000
00011000
00000000
00010100
00000000
02002000
03003000
01000000
,
01010000
00000000
00010000
10010000
00000000
10000000
11000000
00000000
,
01000000
01100000
00000000
00101000
00000000
00020020
00030030
00000010
,
00001010
00000000
00001000
00001001
00000000
00000001
00000011
00000000
,
00000010
00000110
00000000
00000100
00010000
00022000
00033000
00001000
,
01001000
00000000
00001000
00010000
00000010
00010010
00000000
00011000
,
00001000
01000000
00000000
00001000
00010000
00000000
00001000
00100000
00002000
00000000
00013000
00000000
00010000
00000000
02000000
00000000
,
13000000
10000000
00100000
02000000
03010000
00200000
00301000
00001000
,
00010000
00000200
00000310
00000002
00000103
00000100
00000010
00002000
,
00003100
00010000
00002000
00103000
01000000
10000000
00200000
00310000
,
00010000
00001000
00100000
00000000
00001000
00010000
00000000
00001000
01000000
00000000
01100000
00000000
00100000
00000000
10000000
00000000
,
11000000
01000000
00100000
00101000
00001000
00010000
00010100
00000100
,
00000010
00000011
00000001
00000100
00000120
00001030
00001000
00001200
,
00010300
00010000
00012000
01003000
00021000
00030100
00011000
00011000
,
00001000
00100000
00001000
00100000
00001000
00100000
00001000
00100000
01000000
00000000
10000000
00000000
00100000
00000000
00010000
00000000
,
00100000
10000000
01000000
00010000
01000000
10000000
00100000
00010000
,
00001000
00200000
01000000
01300000
00100000
00001000
00010000
01000000
,
00010000
00001000
00100000
01000000
00100000
00001000
00010000
00000100
,
00000010
00000001
00000010
00000001
00000010
00000001
00000010
00000001
00001000
00000000
00000010
00000000
00000100
00000000
00000001
00000000
,
00000010
00001000
00000010
00000001
00000100
00001000
00000100
00000001
,
00000010
00000200
00010000
00010300
00000100
00001000
00000010
00010000
,
00000100
00000010
00000100
00010000
00000010
00000100
00001000
00000100
,
00000001
00000010
00000001
00000010
00000200
00000000
00010300
00001000
00020000
00000000
00130000
00000000
00200000
00000000
10300000
00000000
,
20000000
31000000
02000000
03010000
00020000
00031000
00002000
00003010
,
00000020
00000000
00000031
00000000
00000002
00000000
00000100
00000000
00002000
00000000
00000003
00000000
00003001
00000100
00000001
00000100
,
00000010
00001000
00000010
00001000
00000100
00010000
00000100
00010000
00001000
00100000
00001000
00100000
00010000
01000000
00010000
01000000
,
00100000
10000000
00100000
10000000
01000000
00100000
00010000
01000000
00200000
00000000
10300000
00000000
10000000
00000000
01000000
00000000
,
00020000
00031000
00001000
00000010
00000002
00000103
00000100
00001000
,
00020000
00000000
01030000
00000000
01000000
00000000
20000000
00000000
30100000
01000000
00010000
00000000
00100000
00001000
00010000
00000000
,
00000100
00010000
00001000
00000000
00000100
00000010
00001000
00000000
00000001
00000010
00000100
00000000
00001000
00000100
00010000
00000000
,
00001000
00000000
00000000
01000000
00000000
00000000
00001000
00000000
00000000
01000000
00000000
00000000
00001000
00000000
00000000
01000000
00000000
00000000
00001000
00000000
00000000
01000000
00000000
00000000
00010000
00000000
00000000
00000000
00000000
00000000
00000000
00000000
00010000
00000000
00000000
00000000
10000000
00000000
00000000
00000000
00000000
00000000
00000000
00000000
10000000
00000000
00000000
00000000
,
01000000
00000000
01000000
00100000
00000000
00100000
00101000
00000000
00001000
00010000
00000000
00010000
,
00000100
00000000
00000100
00000010
00000000
00000010
00000011
00000000
00000001
00001000
00000000
00001000
,
00000010
00000000
00000010
00010000
00000000
00010000
00011000
00000000
00001000
00100000
00000000
00100000
,
01000000
00000000
01000000
10000000
00000000
10000000
10100000
00100000
01000000
00010000
00100000
00010000
,
01000000
00100000
00010000
00001000
00000100
00000010
00001000
00000100
00001000
00000010
00000100
00001000
,
00010000
00100000
10000000
01000000
00100000
00001000
00010000
00001000
00100000
00010000
01000000
00100000
,
00010000
00001000
00000100
00000010
00010000
00001000
00010000
00000010
00000100
00001000
00000100
00000001
,
00000010
00000000
00000000
00000000
00000100
00000000
00000000
00000000
00010000
00000000
00000000
00000000
00001000
00000000
00000000
00000000
00100000
00000000
00000000
00000000
01000000
00000000
00000000
00000000
10000000
00000000
00000000
00100000
00000000
00000000
00000000
00000000
00000000
00100000
00000000
00000000
01000000
00000000
00000000
00000000
00000000
00000000
01000000
00000000
00000000
00010000
00000000
00000000
,
00000000
00010000
00100000
00000000
00100000
01000000
00000000
01000000
00010000
00000000
00010000
00001000
00000000
00001000
00000010
00000000
,
00000010
00000001
00000000
00000001
00000200
00000000
00000310
00000000
00000010
00001000
00000000
00001000
00000100
00000000
00000100
00000010
,
00000000
00000010
00001000
00000000
00001000
00010000
00000000
00010000
00100000
00000000
00100000
01000000
00000000
01000000
00010000
00000000
,
00010000
00100000
00000000
00100000
02000000
00000000
13000000
00000000
10000000
00100000
01000000
00000000
00020000
00000000
00130000
00000000
,
00100000
00001000
00010000
00000000
00000200
00000000
00000310
00000000
00000010
00000001
00000010
00000001
00001000
00000100
00001000
00000100
,
00010000
00000000
00000000
00001000
00000000
00000000
00100000
00000000
00000000
00001000
00000000
00000000
00010000
00000000
00000000
00001000
00000000
00000000
00100000
00000000
00000000
00001000
00000000
00000000
00020000
00000000
00000000
00000000
00030000
00000000
00000000
00000000
00000010
00000000
00000000
00000000
00000110
00000000
00000000
00000000
00000000
00000000
00000000
00000000
00000000
00000000
00000000
00000000
,
00002000
00003000
01000000
01100000
00000000
00000000
00010000
00001000
00000010
00000001
00000100
00001000
,
00010000
00100000
10000000
01000000
00010000
00001000
00100000
00000000
00100000
01000000
00000000
01000000
,
10000000
00000000
10000000
00100000
00000000
00100000
01000000
00010000
00100000
01000000
00010000
01000000
,
00100000
00010000
01000000
00002000
00000000
00000000
00013000
00000000
00010000
00000100
00000000
00000100
,
00000010
00000000
00000010
00000001
00000000
00000001
00000100
00001000
00000100
00000010
00000100
00001000
,
00000100
00000001
00000010
00000200
00000000
00000000
00010300
00000000
00010000
00001000
00000000
00001000
,
01000000
00000000
01000000
00100000
00000000
00100000
00010000
00100000
10000000
01000000
00010000
01000000
,
10000000
00100000
01000000
20000000
00000000
00000000
31000000
00000000
01000000
00010000
00000000
00010000
,
00001000
00000000
00001000
00000010
00000000
00000010
00000100
00001000
00000010
00001000
00000100
00000010
,
00001000
00000100
00000010
00000001
00000100
00001000
00010000
00100000
01000000
01200000
00000000
00000000
,
10300000
01000000
00100000
02100000
00000000
00000000
03010000
00001000
00010000
00100000
00010000
00001000
,
00000010
00000001
00001000
00000020
00000000
00000000
00000130
00000001
00000010
00000210
00000000
00000000
,
00001300
00000000
00000000
00000000
00000010
00000000
00000000
00000000
00000100
00000000
00000000
00000000
00000120
00000000
00000000
00000000
00000000
00000000
00000000
00000000
00000000
00000000
00000000
00000000
00000130
00000000
00000000
00000001
00000000
00000000
00001000
00000000
00000000
00000000
00000000
00000000
00000100
00000000
00000000
00010000
00000000
00000000
00001000
00000000
00000000
00000000
00000000
00000000
,
00010000
00000000
00000000
00001000
00000000
00000000
00100000
00000000
00000000
00000000
00000000
00000000
01000000
00000000
00000000
10000000
00000000
00000000
00100000
00000000
00000000
00000000
00000000
00000000
01000000
00000000
00000000
00000000
00010000
00000000
00000000
00000000
00100000
00000000
00000000
00000000
01000000
00000000
00000000
00000000
00010000
00000000
00000000
00000000
01000000
00000000
00000000
00000000
,
10000000
00100000
00010000
00001000
00100000
00010000
00001000
00000100
00010000
00001000
00000100
00000001
,
00000010
00000000
00000000
00000000
00000100
00000000
00000000
00000000
00000001
00000000
00000000
00000000
00000100
00000000
00000000
00000000
00001000
00000000
00000000
00000000
00000010
00000000
00000000
00000000
00010000
00000000
00000000
00001000
00000000
00000000
00010000
00000000
00000000
00001000
00000000
00000000
00010000
00000000
00000000
00001000
00000000
00000000
00010000
00000000
00000000
00001000
00000000
00000000
,
00010000
00001000
00010000
00001000
00010000
00001000
00010000
00001000
00100000
01000000
00100000
01000000
00100000
01000000
00100000
01000000
,
10000000
00100000
01000000
00010000
00100000
00001000
00010000
00000200
00000020
00000000
00000330
00000000
00002002
00000000
00003003
00000000
,
00011000
10010000
00000000
02200000
00000000
00000000
03300000
00000000
;

//---------------dance-single - ----------------
#NOTES:
     dance-single:
     :
     Beginner:
     5:
     0.219650,0.358902,0.076453,0.033979,0.000000,181.000000,172.000000,9.000000,4.000000,0.000000,0.000000,0.219650,0.358902,0.076453,0.033979,0.000000,181.000000,172.000000,9.000000,4.000000,0.000000,0.000000:
// measure 0
0000
0000
0000
0000
,  // measure 1
0000
0000
0000
0000
,  // measure 2
0000
0000
0000
0000
,  // measure 3
0000
0000
0000
0000
,  // measure 4
0100
0000
0100
0000
,  // measure 5
0001
0000
0001
0000
,  // measure 6
1000
0000
1000
0000
,  // measure 7
0010
0000
0010
0000
,  // measure 8
0100
0000
0001
0000
,  // measure 9
1000
0000
0010
0000
,  // measure 10
0100
0000
0001
0000
,  // measure 11
1000
0000
0010
0010
,  // measure 12
0010
0000
0001
0000
,  // measure 13
0100
0000
1000
0000
,  // measure 14
0010
0000
0001
0000
,  // measure 15
0100
0000
1000
0000
,  // measure 16
0010
0000
0001
0000
,  // measure 17
0100
0000
1000
0000
,  // measure 18
0010
0000
0100
0100
,  // measure 19
0110
0000
1000
0000
,  // measure 20
0001
0000
1000
0000
,  // measure 21
0001
0000
0010
0000
,  // measure 22
0100
0000
0010
0000
,  // measure 23
0100
0000
1000
0000
,  // measure 24
0010
0000
1000
0000
,  // measure 25
0010
0000
0100
0000
,  // measure 26
0001
0000
0100
0000
,  // measure 27
0001
0000
0010
0000
,  // measure 28
0100
0000
1000
0000
,  // measure 29
0001
0000
0100
0000
,  // measure 30
0010
0000
1000
0000
,  // measure 31
0100
0000
0010
0000
,  // measure 32
0001
0000
1000
0000
,  // measure 33
0010
0000
0100
0000
,  // measure 34
0001
0000
1000
0000
,  // measure 35
0010
0010
0110
0000
,  // measure 36
0001
0000
0100
0000
,  // measure 37
1000
0000
0100
0000
,  // measure 38
0001
0000
0100
0000
,  // measure 39
1000
0000
0100
0000
,  // measure 40
0001
0000
0010
0000
,  // measure 41
1000
0000
0010
0000
,  // measure 42
0001
0000
0010
0000
,  // measure 43
1000
0000
0010
0000
,  // measure 44
0001
0000
0100
0000
,  // measure 45
0010
0000
1000
0000
,  // measure 46
0001
0001
0001
0001
,  // measure 47
0001
0001
0200
0000
,  // measure 48
0000
0000
0000
0000
,  // measure 49
0300
0000
0020
0000
,  // measure 50
0000
0000
0000
0000
,  // measure 51
0030
0000
1000
0000
,  // measure 52
0001
0000
1000
0000
,  // measure 53
0001
0000
0010
0000
,  // measure 54
0100
0000
0010
0000
,  // measure 55
0100
0000
1000
0000
,  // measure 56
0010
0000
1000
0000
,  // measure 57
0010
0000
0100
0000
,  // measure 58
0001
0000
0100
0000
,  // measure 59
0001
0000
1000
1000
,  // measure 60
0000
0000
0100
0100
,  // measure 61
0000
0000
0001
0001
,  // measure 62
0000
0000
0010
0010
,  // measure 63
0000
0000
1000
1000
,  // measure 64
0001
0001
1000
0001
,  // measure 65
1000
0001
1001
0000
,  // measure 66
1001
0000
2002
0000
,  // measure 67
3003
0000
0001
0000
,  // measure 68
0100
0000
1000
0000
,  // measure 69
0010
0000
1000
0000
,  // measure 70
0100
0000
0001
0000
,  // measure 71
1000
0000
1000
0000
,  // measure 72
0010
0000
0001
0000
,  // measure 73
0100
0000
0001
0000
,  // measure 74
0010
0000
1000
0000
,  // measure 75
0001
0000
0001
0100
,  // measure 76
0010
0000
0100
0001
,  // measure 77
0010
0000
0100
1000
,  // measure 78
0010
0000
1000
0100
,  // measure 79
0010
0000
0010
0001
,  // measure 80
0100
0000
0010
1000
,  // measure 81
0100
0000
0001
0000
,  // measure 82
0010
0000
1000
0000
,  // measure 83
0001
0000
1001
1001
,  // measure 84
0000
0110
0110
0000
;

//---------------dance-single - ----------------
#NOTES:
     dance-single:
     :
     Easy:
     9:
     0.350711,0.466573,0.059463,0.152905,0.000000,289.000000,282.000000,7.000000,18.000000,0.000000,0.000000,0.350711,0.466573,0.059463,0.152905,0.000000,289.000000,282.000000,7.000000,18.000000,0.000000,0.000000:
0000
0000
0000
0000
,
0000
0000
0000
0000
,
0000
0000
0000
0000
,
0000
0000
0000
0000
,
1000
0000
1000
0000
,
0001
0000
0001
0000
,
0100
0000
0100
0000
,
0010
0000
0010
0000
,
1000
0000
0001
0000
,
0100
0000
0010
0000
,
1000
0000
0001
0000
,
0100
0100
0010
0010
,
1000
0001
0010
0001
,
1000
0001
0010
0000
,
0001
1000
0100
1000
,
0001
1000
0100
0000
,
1000
0010
0100
0010
,
1000
0010
0100
0000
,
0001
0100
0010
0100
,
0220
0330
0010
1000
,
0100
0000
0010
0001
,
0100
0000
0010
1000
,
0001
0000
0010
0001
,
1000
0000
0100
1000
,
0001
0000
0100
0001
,
1000
0000
0010
0100
,
0001
0000
0010
0001
,
0100
0100
0010
1000
,
0010
0001
0010
1000
,
0010
0000
0100
0001
,
0100
1000
0100
0001
,
0100
0000
0010
1000
,
0100
0010
0100
1000
,
0010
0000
0100
0001
,
0010
0100
0010
0001
,
1000
1001
0001
0100
,
0010
1000
0001
0100
,
0010
1000
0001
0010
,
0100
1000
0001
0010
,
0100
1000
0001
0010
,
1000
0010
0001
0010
,
1000
0010
0100
1000
,
0100
0001
0100
1000
,
0100
0010
0001
0100
,
0010
1000
0001
0010
,
0100
1000
0020
0230
,
0302
2003
3200
0320
,
0032
2003
3020
0000
,
0000
0000
0000
0000
,
0000
0000
0200
0000
,
0000
0000
0000
0000
,
0000
0330
0100
0001
,
0010
0001
0100
0001
,
0010
0001
0100
1000
,
0010
1000
0100
1000
,
0010
0001
1000
0001
,
0100
0001
1000
0001
,
0100
1000
0001
1000
,
0010
1000
0001
1000
,
0010
0001
0100
0100
,
0100
0100
0100
0100
,
0100
0100
0100
0000
0010
0000
0010
0000
,
0010
0010
0010
0010
,
0010
0010
0010
0000
1000
0100
1000
0000
,
0001
0100
0001
0000
1000
0010
1000
0000
,
0001
0010
0001
0000
1000
0000
0001
0000
,
1000
0001
2002
0000
,
0000
3003
1000
0100
,
1000
0100
0001
0100
,
0001
0100
1000
0010
,
1000
0010
0001
0010
,
0001
0010
1000
0100
,
0001
0100
1000
0010
,
0001
0010
1000
0100
,
0001
1000
0010
0001
,
1000
0200
0310
0010
,
0001
0000
0001
0000
0100
0010
0100
0000
,
0010
0100
0010
0000
1000
0000
1000
0000
,
0100
0000
0100
0000
0010
0100
0010
0000
,
0100
0010
0100
0000
0010
0000
0001
0000
,
0100
0010
1000
0001
,
0010
0100
2000
0000
,
0000
0000
3002
0000
,
0203
0300
0110
0110
,
0000
1001
1001
0000
;

//---------------dance-single - ----------------
#NOTES:
     dance-single:
     :
     Medium:
     11:
     0.480559,0.611939,0.127421,0.084947,0.000000,396.000000,381.000000,15.000000,10.000000,0.000000,0.000000,0.480559,0.611939,0.127421,0.084947,0.000000,396.000000,381.000000,15.000000,10.000000,0.000000,0.000000:
0000
0000
0000
0000
,
0000
0000
0000
0000
,
0000
0000
0000
0000
,
0000
0000
0000
0000
,
1000
0010
1000
0100
,
1000
0010
1000
0100
,
0001
0010
0001
0100
,
0001
0010
0001
0100
,
1000
0001
1000
0010
,
1000
0001
1000
0010
,
0001
1000
0001
0100
,
0001
1000
0001
1001
,
1000
0100
0010
0001
,
1000
0000
0100
0000
0010
0100
0010
0000
,
0001
0010
0100
1000
,
0001
0000
0010
0000
0100
0010
0100
0000
,
1000
0010
0100
0001
,
1000
0000
0010
0000
0001
1000
0001
0000
,
0100
1000
0010
0100
,
0220
0000
0330
0000
0010
1000
0000
0100
,
1000
0000
0010
1000
0000
0100
1000
0000
,
0001
1000
0000
0001
0000
0100
0000
0010
,
0100
0000
0001
0100
0000
0010
0100
0000
,
0001
0100
0000
0010
0000
1000
0000
0001
,
0010
0000
0100
0010
0000
0001
0010
0000
,
0100
0010
0000
0001
0100
0010
0000
1000
,
0010
0000
0100
0010
1000
0010
0000
0100
,
0002
0000
2003
0000
3100
0010
0000
0100
,
0001
0000
0100
0010
0000
0100
1000
0000
,
0010
0100
0000
0001
0000
1000
0000
0100
,
0010
0000
1000
0010
0000
0100
0010
0000
,
0001
0010
0000
0100
1000
0010
0000
0100
,
0001
0000
0010
0001
0000
0100
0001
0000
,
0010
0100
0000
1000
0010
0100
0000
0001
,
1000
0000
0100
0010
0001
0010
0000
0001
,
0200
0320
1030
1000
,
0001
0001
1000
0001
,
1000
1001
0010
0010
,
0100
0100
0010
0010
,
0100
0010
0100
0000
0010
0000
0010
0000
,
1000
1000
0010
1000
,
0010
1010
0100
0100
,
0001
0001
0100
0001
,
0100
0001
0100
0000
0001
0000
1000
0000
,
0001
1000
0001
1000
,
0001
0000
1000
0000
1001
0000
0001
0010
,
0100
0000
1000
0010
0100
0000
0001
0010
,
0100
1000
0010
0100
0002
0000
0000
0000
,
0000
0000
0000
0000
,
0000
0000
2000
0000
,
0000
0000
0000
0000
,
0000
3003
1000
0100
,
0001
0010
1000
0100
,
0001
0010
0001
0100
,
1000
0010
0001
0100
,
1000
1000
0001
0010
,
1000
0100
0001
0010
,
1000
0100
1000
0010
,
0001
0100
1000
0010
,
0001
0000
0001
0000
1000
0010
1000
0000
,
0001
0010
0001
0000
1000
0010
1000
0000
,
0001
0010
0001
0000
1000
0100
1000
0000
,
0001
0100
0001
0000
1000
0100
1000
0000
,
0001
0100
0001
0000
1000
0100
0010
0000
,
0100
0010
0001
0000
1000
0100
0010
0001
,
0010
0100
1000
0000
0010
0000
0110
0000
,
0001
1001
1010
0101
,
1100
0000
0011
0000
0001
0100
0010
0000
,
0100
0000
0001
0000
1000
0010
0100
0000
,
0010
0000
1000
0000
0001
0010
0100
0000
,
0010
0000
0001
0000
1000
0100
0010
0000
,
0100
0000
1000
0000
0010
0100
0001
0000
,
1000
0000
0100
0000
0010
0001
0100
0000
,
0010
0000
1000
0000
0001
0010
0100
0000
,
1000
0000
0010
0000
0100
0001
0010
0000
,
0100
1000
0010
0000
0100
0001
0100
0001
,
1000
0000
0100
0000
0010
0001
0100
0000
,
0010
1000
0100
0000
0010
0100
0010
0100
,
1000
0000
0010
0000
0100
0001
0010
0000
,
0100
1000
0010
0000
0100
0001
1000
0010
,
0100
0001
1000
0000
0001
0010
0100
1000
,
0001
0010
0100
0000
1000
0010
1000
0010
,
0100
0001
0100
0001
1000
0010
0100
0001
,
1000
0100
0010
0000
0110
0000
0110
0000
,
0000
1001
0000
2002
0000
0000
3003
0000
;

//---------------dance-single - ----------------
#NOTES:
     dance-single:
     :
     Hard:
     15:
     0.786370,0.863914,0.263337,0.169895,0.526673,648.000000,617.000000,31.000000,20.000000,0.000000,0.000000,0.786370,0.863914,0.263337,0.169895,0.526673,648.000000,617.000000,31.000000,20.000000,0.000000,0.000000:
0000
0000
0000
0000
,
0000
0000
0000
0000
,
0000
0000
0000
0000
,
0000
0000
0000
0000
,
1000
0100
0010
0000
0001
0010
0100
0000
,
1000
0100
0010
0000
0001
0010
0100
0000
,
1000
0010
0100
0000
0001
0100
0010
0000
,
1000
0010
0100
0000
0001
0100
0010
0000
,
1000
0100
0001
0000
0001
0100
1000
0000
,
1000
0100
0001
0000
0001
0100
1000
0000
,
0001
0010
1000
0000
1000
0010
0001
0000
,
0001
0010
1000
0010
0001
0010
0100
1000
,
0110
0010
1000
0100
0010
0100
1000
0010
,
0100
0010
1000
0100
0010
0100
2000
0000
,
3010
0100
0001
0010
0100
0010
0001
0100
,
0010
0100
0001
0010
0100
0010
0002
0000
,
0103
0010
1000
0001
0100
1000
0100
0001
,
0010
0100
1000
0010
0001
0010
1000
0100
,
0010
0000
0010
0000
0010
0000
0001
0100
0001
0000
1000
0100
0000
0100
0000
0000
,
0220
0000
0330
0000
0001
0001
0000
0100
,
0100
0000
1000
1000
0000
0010
0010
0000
,
0001
1000
0000
1001
0000
0110
0000
1000
,
1000
0000
0100
0100
0000
0001
0001
0000
,
0010
0010
0000
1001
0000
0110
0000
0100
,
0100
0000
0001
0001
0000
0010
0010
0000
,
1000
1000
0000
0100
0010
0110
0000
0001
,
1001
0000
0010
0100
0010
0110
0000
1000
,
1001
0000
0000
0101
0000
0000
1100
0000
1000
0000
0100
0000
0010
0000
1000
0000
,
0100
0010
1000
0100
0001
1000
0100
0001
,
1000
1000
1000
0000
0001
0010
0100
0001
,
0010
0100
0001
0010
1000
0001
0010
1000
,
0001
0001
0001
0000
0100
0010
1000
0100
,
0010
1000
0100
0001
0010
0100
0001
0010
,
0100
0100
0100
0000
0010
0001
0100
0010
,
0001
0100
1000
0010
0100
1000
0010
0100
,
0010
0100
0000
0010
0100
0010
0000
0000
0110
0000
1000
0000
0100
0000
0010
0000
,
0001
0100
0010
1000
0100
0010
0001
0100
,
0010
1000
0001
0000
0110
0001
0010
0100
,
1000
0010
0100
0001
0010
0100
1000
0010
,
0100
0001
1000
0000
0110
0001
1000
0001
,
0110
1000
0001
1000
0110
0001
1000
0001
,
0100
1000
0010
0010
0110
1000
0001
1000
,
0110
0001
1000
0001
0110
1000
0001
1000
,
0010
0001
0100
0100
0110
1000
1000
0100
,
0100
0010
0010
0001
0001
0100
0100
0010
,
0010
0000
1000
0000
1000
0000
0001
0000
0020
0000
0000
0000
0130
1000
0100
0000
,
1000
0010
1000
0000
0010
0100
0010
0000
0100
0001
0100
0000
0001
0010
0001
0000
,
0010
0100
0010
0000
0100
1000
0100
0000
2000
0000
0000
0000
0010
0000
0000
0000
,
0001
0100
0010
0001
,
0100
0010
0002
0000
,
0000
0000
0000
0000
,
0000
0000
0000
3003
0000
0000
1001
0000
0001
0100
0000
0100
,
0010
0000
0010
1000
0000
1000
0200
0000
0310
0001
0000
0001
,
0100
0000
0100
0010
0000
0010
2000
0000
3001
0010
0000
0010
,
0100
0000
0100
1000
0000
1000
0020
0000
0130
0001
0000
0001
,
0010
0000
0010
0100
0000
0100
2000
0000
3010
0100
0000
0100
,
1000
0000
1000
0100
0000
0100
0002
0000
0013
0100
0000
0100
,
0001
0000
0001
0100
0000
0100
2000
0000
3010
0001
0000
0001
,
0010
0000
0010
0100
0000
0100
0002
0000
0013
1000
0000
1000
,
0010
0000
0000
0000
0000
0000
0000
0000
0010
0000
0000
0000
0100
0000
0000
0000
0000
0000
0000
0000
0100
0000
0000
0000
1000
0000
0000
0010
0000
0000
0000
0000
0000
0010
0000
0000
0100
0000
0000
0000
0000
0000
0100
0000
0000
0001
0000
0000
,
0000
0001
0010
0000
0010
0100
0000
0100
1000
0000
1000
0010
0000
0010
0100
0000
,
0100
0001
0000
0001
2000
0000
3010
0000
0010
0100
0000
0100
0001
0000
0001
1000
,
0000
1000
0100
0000
0100
0010
0000
0010
0001
0000
0001
0100
0000
0100
0010
0000
,
0010
0000
0000
1000
0000
0000
0000
0000
0000
1000
0000
0000
0002
0000
0000
0000
0000
0000
1003
0000
0000
0000
0000
0000
1000
0000
0000
0000
0010
0000
0000
0000
1000
0000
0000
0000
0010
0000
0000
0000
0000
0000
0000
0000
0010
0000
0000
0000
,
0100
0001
0100
0001
0000
0001
0010
0100
0010
0100
1000
0001
,
1000
0001
0010
0100
1000
0010
0200
0000
0301
0010
0000
0000
,
0020
0000
1030
0100
0000
0000
0100
0001
0010
0100
1000
0010
,
0100
0000
0000
0000
0001
0000
0000
0000
1000
0000
0000
0000
0100
0000
0000
0000
0010
0000
0000
0000
0001
0000
0000
0000
0100
0000
0000
0010
0000
0000
0100
0000
0000
0000
0000
0000
0001
0000
0000
0000
0000
0000
0010
0000
0000
0000
0000
0000
,
0100
0000
1000
0000
0010
0000
0100
0000
0001
1000
0001
0000
0100
0000
0010
0000
,
1000
0000
0001
0000
0010
0000
0100
0000
1000
0010
1000
0000
0001
0000
0100
0000
,
0010
0000
1000
0000
0100
0000
0010
0000
0001
0100
0001
0000
1000
0000
0010
0000
,
0100
0000
0001
0000
1001
0000
0000
0000
1000
0010
1000
0000
0100
0000
0010
0000
,
0100
0000
1000
0000
0010
0000
0100
0000
0001
0010
0001
0000
1000
0000
0010
0000
,
0100
0000
0001
0000
0010
0000
0100
0000
1000
0100
1000
0000
0010
0000
0100
0000
,
0001
0000
0100
0000
0010
0000
1000
0000
0001
0100
0001
0000
0010
0000
0100
0000
,
1000
0000
0010
0000
0110
0000
0000
0100
0001
0000
0000
0001
0010
0000
0000
0010
,
0100
0000
0000
0100
1000
0000
0010
0100
0010
0000
0100
0000
0001
0000
0010
0100
,
0010
0000
0100
0000
1100
0000
0000
1000
0010
0000
0000
0010
0100
0000
0000
0100
,
0001
0000
0000
0001
0010
0000
0100
0000
1000
0001
1000
0000
0001
1000
0001
0000
,
1000
0001
1000
0000
0010
0000
0100
0000
0101
0000
0000
0001
0010
0000
0000
0010
,
0100
0000
0000
0100
1000
0000
0000
1000
0010
0000
0000
0010
0001
0000
0000
0001
,
0010
0000
0000
0010
0100
0000
0001
0000
0010
0001
0010
0000
0001
0010
0001
0000
,
0010
0001
0010
0000
0001
0000
1000
0000
0010
1000
0010
0000
1000
0010
1000
0000
,
0010
1000
0010
0000
1000
0000
0001
0000
0011
0000
0000
0000
1100
0000
0000
0000
,
1010
0101
0000
2002
0000
0000
3003
0000
;

//---------------dance-double - ----------------
#NOTES:
     dance-double:
     :
     Easy:
     9:
     0.336149,0.394793,0.101937,0.101937,0.000000,277.000000,265.000000,12.000000,12.000000,0.000000,0.000000,0.336149,0.394793,0.101937,0.101937,0.000000,277.000000,265.000000,12.000000,12.000000,0.000000,0.000000:
00000000
00000000
00000000
00000000
,
00000000
00000000
00000000
00000000
,
00000000
00000000
00000000
00000000
,
00000000
00000000
00000000
00000000
,
00001000
00000000
00001000
00000000
,
00010000
00000000
00010000
00000000
,
00000100
00000000
00000100
00000000
,
00000010
00000000
00000010
00000000
,
00001000
00000000
00010000
00000000
,
01000000
00000000
00100000
00000000
,
00001000
00000000
00010000
00000000
,
00000100
00001000
00000001
00001000
,
00000100
00010000
00001000
00010000
,
00000100
00010000
00001000
00000000
,
01000000
00001000
00010000
00001000
,
01000000
00001000
00010000
00000000
,
00000010
00010000
00001000
00010000
,
00000010
00010000
00001000
00000000
,
00100000
00001000
00010000
00001000
,
00022000
00033000
00010000
00000000
,
01000000
00000000
10000000
00000000
,
00100000
00000000
00010000
00000000
,
00001000
00000000
00000100
00000000
,
00000001
00000000
00000010
00000000
,
00001000
00000000
00010000
00000000
,
00100000
00000000
10000000
00000000
,
01000000
00000000
00010000
00001000
,
00010000
00011000
00100000
00010000
,
00100000
10000000
00100000
00010000
,
00001000
00000000
00000010
00001000
,
00000010
00000001
00000010
00001000
,
00010000
00000000
01000000
00010000
,
01000000
10000000
01000000
00010000
,
00001000
00000000
00000100
00001000
,
00000100
00000001
00000100
00001000
,
00010000
00011000
00001000
00100000
,
01000000
10000000
00010000
01000000
,
00100000
10000000
00010000
00100000
,
01000000
00010000
00001000
00000100
,
00000010
00001000
00000001
00000010
,
00000100
00010000
00001000
00100000
,
01000000
10000000
00100000
01000000
,
00010000
00100000
00001000
00010000
,
00000100
00001000
00000010
00000100
,
00000001
00001000
00000100
00000010
,
00000001
00000100
00001000
00010000
,
01000000
10000000
00100000
00010000
,
00001000
00010000
00020200
00000000
,
00000000
00000000
00000000
00000000
,
00000000
00030300
02002000
00000000
,
00000000
00000000
00000000
00000000
,
00000000
03003000
01000000
00001000
,
00100000
00001000
01000000
00001000
,
00100000
00001000
00010000
00000100
,
00010000
00000010
00010000
00000100
,
00010000
00000010
00001000
00000100
,
00010000
00001000
00100000
00010000
,
01000000
00001000
00010000
00000010
,
00001000
00000100
00010000
00001000
,
00100000
01000000
00010000
00001000
,
00010000
01000000
00010000
00001000
,
00010000
00011000
00001000
00010000
,
00001000
00000010
00001000
00010000
,
00001000
00011000
00001000
00010000
,
01000000
00010000
00001000
00000100
,
00001000
00010000
00100000
10000000
,
01000000
00010000
00022000
00000000
,
00000000
00033000
00001000
00100000
,
00001000
00100000
01000000
10000000
,
01000000
10000000
00100000
00010000
,
00100000
00010000
00001000
00000010
,
00001000
00000010
00000001
00000100
,
00001000
00000100
00000001
00000010
,
00001000
00010000
00100000
10000000
,
01000000
00010000
01000000
10000000
,
00100000
00020000
00031000
00001000
,
00100000
00100000
00010000
01000000
,
10000000
01000000
00010000
00010000
,
00100000
00100000
01000000
00010000
,
00001000
00000010
00000001
00001000
,
00000100
00010000
01000000
10000000
,
00100000
00001000
00000020
00000000
,
00000000
00000000
00020030
00000000
,
00002000
00033000
00101000
00101000
,
00000000
00010010
00010010
00000000
;

//---------------dance-double - ----------------
#NOTES:
     dance-double:
     :
     Medium:
     11:
     0.476919,0.611939,0.127421,0.084947,0.000000,393.000000,378.000000,15.000000,10.000000,0.000000,0.000000,0.476919,0.611939,0.127421,0.084947,0.000000,393.000000,378.000000,15.000000,10.000000,0.000000,0.000000:
00000000
00000000
00000000
00000000
,
00000000
00000000
00000000
00000000
,
00000000
00000000
00000000
00000000
,
00000000
00000000
00000000
00000000
,
00001000
00100000
01000000
00100000
,
00001000
00100000
01000000
00010000
,
00001000
00000010
00001000
00010000
,
00001000
00000010
00000100
00010000
,
00001000
01000000
00100000
01000000
,
00001000
01000000
00100000
00010000
,
00001000
00000100
00001000
00010000
,
00001000
00000100
00000001
00001001
,
00001000
00000010
00010000
00001000
,
00100000
00000000
00010000
00000000
10000000
01000000
10000000
00000000
,
00010000
01000000
00001000
00010000
,
00000100
00000000
00001000
00000000
00000001
00000100
00000001
00000000
,
00001000
00000010
00010000
00001000
,
00100000
00000000
00010000
00000000
10000000
00100000
10000000
00000000
,
01000000
00100000
00001000
00010000
,
00022000
00000000
00033000
00000000
00001000
00100000
00000000
00100000
,
00010000
00000000
00010000
01000000
00000000
01000000
00100000
00000000
,
00100000
10000000
00000000
01000000
00000000
00100000
00000000
00010000
,
01000000
00000000
01000000
00001000
00000000
00001000
00010000
00000000
,
00010000
00000100
00000000
00000010
00000000
00000001
00000000
00000100
,
00000010
00000000
00000010
00010000
00000000
00010000
00001000
00000000
,
00001000
00100000
00000000
00100000
00010000
01000000
00000000
01000000
,
00100000
00000000
00100000
10000000
01000000
00100000
00000000
00100000
,
00002000
00003000
00020000
00000000
00030100
00001000
00000000
00001000
,
00000010
00000000
00000010
00000100
00000000
00000100
00000001
00000000
,
00000001
00001000
00000000
00000100
00000000
00000010
00000000
00001000
,
00010000
00000000
00010000
00000100
00000000
00000100
00001000
00000000
,
00001000
00000010
00000000
00000010
00010000
00001000
00000000
00001000
,
00100000
00000000
00100000
01000000
00000000
01000000
10000000
00000000
,
10000000
00100000
00000000
00100000
00010000
00001000
00000000
00001000
,
00010000
00000000
00010000
00001000
00000100
00000010
00000000
00000010
,
00002000
00003002
00000103
00000100
,
00001000
00001000
00010000
00010000
,
01000000
01000000
10000000
10000000
,
00100000
00100000
00010000
00010000
,
00001000
00010000
00001000
00000000
00010000
00000000
00010000
00000000
,
00100000
00100000
10000000
10000000
,
01000000
01000000
00010000
00010000
,
00001000
00001000
00000010
00000010
,
00000001
00000100
00000001
00000000
00001000
00000000
00000100
00000000
,
00000010
00001000
00010000
01000000
,
00100000
00000000
00010000
00000000
10010000
00000000
10000000
00100000
,
01000000
00000000
00100000
01000000
00010000
00000000
00100000
01000000
,
00010000
00001000
00000010
00000100
00002000
00000000
00000000
00000000
,
00000000
00000000
00000000
00000000
,
00000000
00000000
00000002
00000000
,
00000000
00000000
00000000
00000000
,
00000000
00003003
00000001
00000100
,
00001000
00010000
00000100
00001000
,
00010000
00100000
00001000
00010000
,
00100000
10000000
01000000
00010000
,
00001000
00011000
10000000
01000000
,
00010000
00001000
00100000
00010000
,
00001000
00000100
00010000
00001000
,
00000100
00000001
00000010
00001000
,
00010000
00000000
00011000
00000000
00000001
00000100
00000010
00000000
,
00000100
00000010
00001000
00000000
00010000
01000000
00100000
00000000
,
01000000
00100000
10000000
00000000
10000000
01000000
00100000
00000000
,
01000000
00100000
00010000
00000000
00001000
00000100
00000010
00000000
,
00000100
00000010
00000001
00000000
00000100
00001000
00010000
00000000
,
00100000
00010000
00001000
00000000
00000010
00001000
00010000
00000000
,
01000000
00010000
00001000
00000000
00010000
00000000
00010100
00000000
,
00001000
01001000
00010010
00011000
,
00101000
00000000
00011000
00000000
00010000
01000000
10000000
00000000
,
01000000
00000000
00010000
00000000
01000000
00010000
00001000
00000000
,
00010000
00000000
00001000
00000000
00010000
00001000
00000010
00000000
,
00001000
00000000
00000010
00000000
00000001
00000010
00001000
00000000
,
00000010
00000000
00001000
00000000
00010000
01000000
10000000
00000000
,
00100000
00000000
00010000
00000000
00001000
00000100
00000001
00000000
,
00000010
00000000
00001000
00000000
00010000
00100000
10000000
00000000
,
01000000
00000000
00010000
00000000
00001000
00000010
00000001
00000000
,
00000100
00001000
00010000
00001000
00010000
00001000
00010000
01000000
,
10000000
00100000
01000000
10000000
,
01000000
00000000
00010000
00000000
00100000
01000000
00100000
01000000
,
00010000
00001000
00000010
00000000
00000001
00000000
00000100
00000000
,
00001000
00000000
00010000
00000000
00100000
10000000
01000000
10000000
,
00100000
10000000
01000000
00000000
00010000
00001000
00000010
00001000
,
00010000
00001000
00000010
00000000
00000001
00000100
00000010
00000100
,
00000001
00000100
00001000
00010000
00100000
10000000
00100000
01000000
,
00100000
00010000
00001000
00000000
00101000
00000000
00101000
00000000
,
00000000
00010010
00000000
00020020
00000000
00000000
00030030
00000000
;

//---------------dance-double - ----------------
#NOTES:
     dance-double:
     :
     Hard:
     14:
     0.745109,0.863914,0.161400,0.178389,0.352531,614.000000,595.000000,19.000000,21.000000,0.000000,0.000000,0.745109,0.863914,0.161400,0.178389,0.352531,614.000000,595.000000,19.000000,21.000000,0.000000,0.000000:
00000000
00000000
00000000
00000000
,
00000000
00000000
00000000
00000000
,
00000000
00000000
00000000
00000000
,
00000000
00000000
00000000
00000000
,
10000000
01000000
00100000
00000000
01000000
00100000
00010000
00000000
,
00100000
00001000
00010000
00000000
00001000
00010000
00000100
00000000
,
00001000
00000100
00000010
00000000
00000100
00000010
00000001
00000000
,
00000001
00000100
00001000
00000000
00000100
00001000
00010000
00000000
,
00001000
00010000
00100000
00000000
00010000
00100000
10000000
00000000
,
10000000
01000000
00010000
00000000
01000000
00010000
00001000
00000000
,
00010000
00001000
00000010
00000000
00001000
00000010
00000001
00000000
,
00000100
00001000
00010000
00001000
00000100
00001000
00010000
00100000
,
10000000
01000000
00100000
01000000
10000000
00100000
01000000
00010000
,
00100000
01000000
00100000
00001000
00010000
00000100
00000020
00000000
,
00000031
00000010
00000100
00000010
00000001
00000100
00000010
00001000
,
00000100
00000010
00000100
00010000
00001000
00100000
02000000
00000000
,
13000000
00100000
00010000
00100000
10000000
01000000
00010000
00001000
,
00000010
00000001
00000100
00001000
00000100
00000001
00000010
00001000
,
00010000
00000000
00010000
00000000
00010000
00000000
00001000
01000000
00001000
00000000
00010000
00000100
00010000
00001000
00000000
00000000
,
00022000
00000000
00033000
00000000
00010000
01000000
00000000
01000000
,
10000000
00000000
10000000
00100000
00000000
00100000
00010000
00000000
,
00010000
10000000
00000000
10010000
00000000
00011000
00000000
00001000
,
00000100
00000000
00000100
00000001
00000000
00000001
00000010
00000000
,
00000010
00001000
00000000
00011000
00000000
00001001
00000000
00000001
,
00000100
00000000
00000100
00001000
00000000
00001000
00010000
00000000
,
00010000
00100000
00000000
00100000
10000000
11000000
00000000
01000000
,
01100000
00000000
00100000
00001000
00010000
00011000
00000000
00000100
,
00001100
00000000
00000000
00001010
00000000
00000000
00000101
00000000
00000001
00000000
00000010
00000000
00000100
00000000
00001000
00000000
,
00000010
00010000
00001000
00100000
00010000
01000000
00100000
00010000
,
00100000
10000000
01000000
00000000
10000000
01000000
00100000
00010000
,
01000000
00001000
00010000
00000100
00001000
00000010
00000100
00001000
,
00000100
00000001
00000010
00000000
00000100
00010000
00001000
00000010
,
00001000
00010000
00100000
00010000
00001000
00000100
00001000
00010000
,
01000000
00010000
00001000
00000000
00100000
01000000
10000000
00100000
,
00010000
00001000
00000010
00000001
00000100
00001000
00010000
00000100
,
00001000
00000010
00000000
00010000
00001000
00100000
00010000
00000000
00010000
00000000
10000000
00000000
01000000
00000000
00100000
00000000
,
00010000
01000000
00100000
00010000
00001000
00000100
00000010
00001000
,
00000100
00000010
00000001
00000000
00001000
00000001
00000010
00000100
,
00001000
00000010
00000100
00001000
00010000
00100000
01000000
00010000
,
00100000
01000000
10000000
00000000
00100000
00010000
00001000
00010000
,
01000000
00010000
00001000
00010000
00100000
00010000
00001000
00010000
,
01000000
00010000
00001000
00001000
00000100
00001000
00010000
00001000
,
00000010
00001000
00010000
00001000
00000100
00001000
00010000
00001000
,
00000010
00001000
00010000
00010000
00100000
10000000
01000000
00010000
,
00001000
00000010
00000001
00000100
00001000
00010000
01000000
10000000
,
00100000
00010000
00001000
00000010
00000002
00000000
00000013
00000100
,
00001000
00010000
00100000
01000000
10000000
01000000
00100000
00010000
,
00001000
00000100
00000010
00000001
00002001
00000000
00003200
00000000
,
00020300
00032000
00203000
02300000
,
23000000
30200000
00320000
00000000
,
00000000
00000000
00002000
00000000
,
00000000
00000000
00000000
00033000
00000000
00000000
00011000
00000000
00001000
00100000
00000000
00100000
,
01000000
00000000
01000000
10000000
00000000
10000000
00100000
00000000
00100000
00010000
00000000
00010000
,
00001000
00000000
00001000
00000010
00000000
00000010
00000001
00000000
00000001
00001000
00000000
00001000
,
00000010
00000000
00000010
00010000
00000000
00010000
00001000
00000000
00001000
01000000
00000000
01000000
,
00100000
00000000
00100000
10000000
00000000
10000000
01000000
00000000
01000000
00100000
00000000
00100000
,
00010000
00000000
00010000
01000000
00000000
01000000
00001000
00000000
00001000
00010000
00000000
00010000
,
00000100
00000000
00000100
00000010
00000000
00000010
00000001
00000000
00000001
00001000
00000000
00001000
,
00000010
00000000
00000010
00010000
00000000
00010000
00001000
00000000
00001000
00100000
00000000
00100000
,
01000000
00000000
00000000
00000000
00000000
00000000
00000000
00000000
01000000
00000000
00000000
00000000
10000000
00000000
00000000
00000000
00000000
00000000
00000000
00000000
10000000
00000000
00000000
00000000
00100000
00000000
00000000
01000000
00000000
00000000
00000000
00000000
00000000
00010000
00000000
00000000
00100000
00000000
00000000
00000000
00000000
00000000
00001000
00000000
00000000
00010000
00000000
00000000
,
00000000
00000100
00001000
00000000
00000010
00000100
00000000
00000001
00001000
00000000
00000100
00000010
00000000
00000001
00000100
00000000
,
00000010
00001000
00000000
00000100
00020000
00000000
00031000
00000000
00001000
00100000
00000000
01000000
10000000
00000000
00100000
01000000
,
00000000
00010000
01000000
00000000
00001000
00010000
00000000
00000100
00000010
00000000
00000001
00000100
00000000
00000010
00010000
00000000
,
00001000
00000000
00000000
00100000
00000000
00000000
00000000
00000000
00000000
00010000
00000000
00000000
20000000
00000000
00000000
00000000
00000000
00000000
31000000
00000000
00000000
00000000
00000000
00000000
11000000
00000000
00000000
00000000
00000000
00000000
00000000
00000000
10000000
00000000
00000000
00000000
00100000
00000000
00000000
00000000
00000000
00000000
00000000
00000000
00100000
00000000
00000000
00000000
,
00010000
00000000
00010000
00001000
00000000
00001000
00000010
00000000
00000010
00000001
00000000
00000001
,
00000100
00000000
00000100
00001000
00000000
00001000
00020000
00000000
01030000
00100000
00000000
00000000
,
00002000
00000000
00003010
00000100
00000000
00000000
00010000
00001000
00100000
01000000
00100000
00001000
,
00010000
00000000
00000100
00000000
00000010
00000000
00000100
00000000
00010000
00000000
00001000
00000000
00100000
00000000
00000000
00100000
00000000
00000000
01000000
00000000
00000000
10000000
00000000
00000000
,
00100000
00010000
00100000
01000000
00010000
00100000
01000000
00010000
,
00001000
00000010
00000100
00001000
00000100
00000001
00001000
00000010
,
00000001
00000010
00000100
00001000
00000010
00000001
00000010
00000100
,
00001000
00010000
01000000
00100000
00010000
10000000
00100000
00010000
,
00100000
01000000
00010000
00100000
01000000
00010000
00001000
00000010
,
00000100
00001000
00000001
00000100
00001000
00000100
00000010
00001000
,
00000010
00000001
00000010
00000100
00000001
00000010
00001000
00010000
,
00100000
10000000
01000000
00100000
00001000
00010000
01000000
00010000
,
00001000
00010000
01000000
00100000
00010000
10000000
01000000
00100000
,
10000000
00100000
00010000
01000000
00100000
00010000
00001000
00000010
,
00001000
00010000
00001000
00000010
00000100
00001000
00000010
00000001
,
00000010
00000100
00000001
00000010
00000100
00000001
00000100
00001000
,
00000010
00010000
00100000
00001000
00000100
00010000
01000000
10000000
,
00100000
00000000
01000000
00000000
00100000
00000000
00010000
00000000
00001000
00100000
00001000
00000000
00100000
00001000
00100000
00000000
,
00001000
00100000
00001000
00000000
00010000
00000000
00001000
00000000
00010000
00000010
00010000
00000000
00000010
00010000
00000010
00000000
,
00010000
00000010
00010000
00000000
00001000
00000000
00010000
00000000
00010100
00000000
00000000
00000000
01001000
00000000
00000000
00000000
,
00010010
00101000
00000000
00022000
00000000
00000000
00033000
00000000
;
