#TITLE:Continue;
#SUBTITLE:;
#ARTIST:Trident;
#TITLETRANSLIT:;
#SUBTITLETRANSLIT:;
#ARTISTTRANSLIT:;
#GENRE:J-MUSIC;
#CREDIT:MUINELIM;
#BANNER:Continue.png;
#BACKGROUND:Continue-bg.png;
#LYRICSPATH:;
#CDTITLE:;
#MUSIC:Continue.ogg;
#OFFSET:0.037000;
#SAMPLESTART:66.862999;
#SAMPLELENGTH:11.679996;
#LASTBEATHINT:393.341125;
#SELECTABLE:YES;
#BPMS:0.000000=200;
#STOPS:
;
#BGCHANGES:0.000=Continue.avi=1.000=0=0=0=StretchNoLoop====,
99999=-nosongbg-=1.000=0=0=0 // don't automatically add -songbackground-
;
#KEYSOUNDS:;
#ATTACKS:;

//---------------dance-single - ----------------
#NOTES:
     dance-single:
     :
     Challenge:
     14:
     0.724169,0.774103,0.659688,0.381925,0.082461,584.000000,508.000000,76.000000,44.000000,0.000000,0.000000,0.724169,0.774103,0.659688,0.381925,0.082461,584.000000,508.000000,76.000000,44.000000,0.000000,0.000000:
0000
0000
0000
0000
,
0000
0000
0000
0000
,
0000
0000
0000
0000
,
0000
0000
0000
0000
,
0000
0000
0000
0000
,
0000
0000
0000
0000
,
0000
0000
0000
0000
,
0000
0000
0100
1010
0000
0101
0000
2002
,
3003
1001
0000
1000
0100
0010
0001
0000
,
0100
0010
1000
0100
0010
0001
0100
0010
,
1000
1000
0000
0001
0010
0100
1000
0000
,
0010
0100
0001
0010
0100
1000
0010
0100
,
0001
0001
0000
1000
0100
0010
0001
0000
,
1000
0010
0100
0001
0010
0100
1000
0010
,
0100
0100
0000
0001
0011
0000
1010
0000
,
0101
0000
1100
0000
1001
0100
0000
0110
,
0001
2000
0000
3001
0100
0010
1000
0100
,
0010
0001
0100
0010
1000
0001
0010
0100
,
0010
0010
0000
1000
0010
0100
0001
0010
,
0100
1000
0010
0100
0001
1000
0100
0010
,
0100
0100
0000
0001
0010
0100
1000
0010
,
0100
0001
1000
0100
0010
0001
0100
0010
,
1000
1000
0000
1100
0001
0000
0011
0000
,
1010
0000
0101
0000
1100
0010
0000
0110
,
0001
1000
2002
0000
3003
0000
0001
0000
,
0000
0100
0000
1000
,
0000
0000
0010
0020
0000
0000
0000
0000
,
0230
0000
0001
0302
0000
0000
1000
2000
,
0000
0000
3003
1001
,
0000
0000
0000
0000
0110
0000
0000
0000
0000
0000
0010
0100
0010
0000
1000
0000
,
0000
1100
0000
0100
0010
0001
1000
0100
,
0010
0001
0100
0010
1000
0001
0010
0010
,
0000
0110
0000
1000
0100
0010
0001
1000
,
0100
0101
0000
1100
0000
0101
0000
1100
,
0000
2002
0000
0000
3003
0000
1000
0001
,
0010
1010
0000
0011
0000
1010
0000
0011
,
0000
2002
0000
0000
3003
0000
0001
1000
,
0100
0101
0000
1100
0000
0011
0000
1010
,
0000
2002
3003
0000
0001
0010
0100
1000
,
0001
0000
0000
0100
0000
0000
0010
0000
0000
1000
0000
0000
0100
0000
0000
0010
0000
0000
0001
0000
0100
0000
0001
0000
,
0100
0001
0100
0020
0000
0000
0000
0000
0000
1000
0000
0000
,
0000
0001
0000
1000
,
0000
0000
0001
0000
0000
1030
0000
1000
,
0200
0000
0000
0010
,
0310
2002
0000
3000
,
0203
2300
3002
0023
,
2030
3200
0000
0000
,
0000
0000
0000
0000
0300
0000
0000
0000
0110
0000
0010
0100
0010
0000
0000
0001
,
0000
0000
0100
0000
0000
1000
0000
0000
1020
0000
0000
0000
0130
0000
0000
0000
,
0201
0310
1200
0310
,
0021
0130
1200
0301
,
0021
0000
0000
0000
1030
0000
0000
0000
1001
0000
0000
0000
0001
1000
0001
0000
,
0100
0000
0010
0000
1000
0000
0000
1000
0100
0000
1000
0000
0010
0000
0000
1000
,
0100
0000
1000
0000
0001
0000
0000
1000
0100
0000
1000
0000
0010
0000
0000
1000
,
0100
1000
0001
0001
0010
0100
0001
0100
,
0010
1000
0010
0100
1000
0001
1001
1001
,
0000
0220
0300
1000
1030
0100
0001
0100
,
1000
0010
0001
0010
1000
0100
0001
0100
,
0010
0011
0000
0001
0100
1000
0001
0010
,
1000
0000
0100
0000
0010
0000
0100
0000
1000
0000
0100
0000
0010
0001
0010
0000
,
0000
0220
0300
0001
0031
0100
1000
0100
,
0001
0010
1000
0010
0001
0100
1000
0100
,
0010
1010
0000
1000
0100
0001
1000
0010
,
0001
0000
0100
0000
0010
0000
0100
0000
0001
0000
0100
0000
0010
1000
0010
0000
,
1000
2002
3000
0100
0103
0010
1000
0100
,
0001
1000
0010
0001
0100
1000
0001
0010
,
0100
0110
0000
0001
0100
1000
0000
0001
,
0010
1000
0000
1000
0100
0001
0000
1000
,
0010
0001
0000
0100
0110
0010
1000
0001
,
0020
0000
0031
1000
0200
0000
1300
0001
,
0100
0110
0000
0010
1000
0100
0001
0010
,
0100
0001
0010
0100
1000
0010
0100
0001
,
1000
1001
0000
0001
0100
1000
0010
0100
,
1000
0010
0100
0001
1000
0100
0010
0001
,
0100
1010
0000
0202
0000
0000
0000
0000
,
0303
0000
0000
0000
0001
0010
0001
0000
0100
0000
0010
1000
0020
0000
0000
0000
,
0030
1001
0000
0001
0100
1000
0001
0000
,
1000
0100
0001
0010
0100
0001
0100
1000
,
0010
0010
0000
1000
0010
0001
1000
0000
,
0001
0010
1000
0100
0010
1000
0010
0001
,
0100
0100
0000
1000
0100
0001
0010
0000
,
1000
0010
0001
0100
1000
0001
0010
0100
,
0001
0010
0000
1000
1010
0000
0011
0000
,
1100
0000
0101
0000
1010
0001
0000
0011
,
0100
0110
0000
1000
0010
0001
0100
1000
,
0001
0010
0000
1000
0100
0001
1000
0010
,
0001
0100
0000
1000
0100
0001
0010
0100
,
0001
0100
0000
0010
0001
0100
1000
0100
,
0010
0110
0000
0001
0010
1000
0100
0001
,
1000
0000
0010
0000
0000
0000
0001
0100
0001
0000
1000
0000
0100
0010
0100
0000
,
0010
0001
0000
0100
1100
0000
0101
0000
,
1010
0000
0011
0000
1100
0001
0000
0101
,
0100
2002
0000
0000
0000
0000
0000
0000
,
0000
0000
0000
0000
3003
0000
1001
1001
;

//---------------dance-double - ----------------
#NOTES:
     dance-double:
     :
     Challenge:
     14:
     0.717969,0.774103,0.624967,0.338524,0.065101,579.000000,507.000000,72.000000,39.000000,0.000000,0.000000,0.717969,0.774103,0.624967,0.338524,0.065101,579.000000,507.000000,72.000000,39.000000,0.000000,0.000000:
00000000
00000000
00000000
00000000
,
00000000
00000000
00000000
00000000
,
00000000
00000000
00000000
00000000
,
00000000
00000000
00000000
00000000
,
00000000
00000000
00000000
00000000
,
00000000
00000000
00000000
00000000
,
00000000
00000000
00000000
00000000
,
00000000
00000000
01000000
01001000
00000000
00010100
00000000
00022000
,
00033000
00011000
00000000
00001000
00100000
00010000
01000000
00000000
,
00001000
00010000
00100000
01000000
00001000
00100000
00010000
01000000
,
00001000
00001000
00000000
00010000
00001000
00000100
00000010
00000000
,
00010000
00000100
00001000
00000010
00010000
00001000
00000100
00000010
,
00010000
00010000
00000000
00001000
00010000
01000000
10000000
00000000
,
00010000
01000000
00001000
00010000
00100000
01000000
00010000
00100000
,
01000000
10000000
00000000
00100000
00110000
00000000
00011000
00000000
,
00001010
00000000
00000011
00000000
00000101
00001000
00000000
00011000
,
00010000
00002000
00000000
00013000
00000100
00001000
00000010
00010000
,
00001000
00000100
00000010
00010000
00000100
00001000
00000010
00010000
,
00100000
01000000
00000000
00001000
01000000
00010000
00100000
00001000
,
00010000
01000000
00100000
00001000
01000000
00010000
00100000
00001000
,
00000010
00000100
00000000
00010000
00001000
00000010
00000001
00001000
,
00000100
00000010
00000001
00000100
00001000
00010000
00100000
10000000
,
01000000
00100000
00000000
00110000
10000000
00000000
11000000
00000000
,
01010000
00000000
00011000
00000000
00001010
00000001
00000000
00000101
,
00000100
00001000
00022000
00000000
00033000
00000000
00010000
00000000
,
00000000
01000000
00000000
10000000
,
00000000
00000000
00100000
00200000
00000000
00000000
00000000
00000000
,
00320000
00000000
00001000
00032000
00000000
00000000
00010000
00020000
,
00000000
00000000
00033000
00011000
,
00000000
00000000
00000000
00000000
00001010
00000000
00000000
00000000
00000000
00000000
00000010
00000100
00000010
00000000
00000001
00000000
,
00000000
00000101
00000000
00000100
00001000
00010000
00001000
00000100
,
00001000
00010000
01000000
10000000
00100000
01000000
00010000
00010000
,
00000000
00110000
00000000
10000000
01000000
00100000
00010000
00001000
,
00000100
00000010
00000000
00000101
00000000
00001100
00000000
00011000
,
00000000
00202000
00000000
00000000
00303000
00000000
00001000
00010000
,
00100000
01000000
00000000
10100000
00000000
00110000
00000000
00011000
,
00000000
00020200
00000000
00000000
00030300
00000000
00010000
00001000
,
00000010
00000001
00000000
00001100
00000000
00011000
00000000
00110000
,
00000000
20200000
30300000
00000000
10000000
01000000
00010000
00001000
,
00000010
00000000
00000000
00000001
00000000
00000000
00000100
00000000
00000000
00001000
00000000
00000000
00010000
00000000
00000000
00100000
00000000
00000000
10000000
00000000
01000000
00000000
10000000
00000000
,
01000000
10000000
01000000
00200000
00000000
00000000
00000000
00000000
00000000
00001000
00000000
00000000
,
00000000
00010000
00000000
10000000
,
00000000
00000000
00010000
00000000
00000000
00301000
00000000
00001000
,
00020000
00000000
00000000
00000100
,
00030100
00022000
00000000
00030000
,
00003020
00000032
00000203
00002300
,
00023000
02030000
00000000
00000000
,
00000000
00000000
00000000
00000000
03000000
00000000
00000000
00000000
11000000
00000000
10000000
00100000
10000000
00000000
00000000
01000000
,
00000000
00000000
00010000
00000000
00000000
00001000
00000000
00000000
00011000
00000000
00000000
00000000
00100000
00000000
00000000
00000000
,
00011000
00000100
00011000
01000000
,
00011000
00000010
00011000
10000000
,
00011000
00000000
00000000
00000000
00000001
00000000
00000000
00000000
00011000
00000000
00000000
00000000
00001000
00010000
00001000
00000000
,
00010000
00100000
10000000
00000000
10000000
01000000
00010000
00000000
,
00001000
00000010
00000001
00000000
00000001
00000100
00001000
00000000
,
00010000
00001000
00011000
00010000
00000010
00010000
00001000
01000000
,
00001000
00010000
00000100
00010000
00001000
00100000
00001000
00011000
,
00000000
00022000
00003000
00000010
00030010
00010000
00001000
00000100
,
00000001
00000010
00001000
00000010
00000001
00000100
00001000
00000100
,
00000010
00001010
00000000
00000001
00000100
00001000
00010000
00100000
,
10000000
00000000
01000000
00000000
00100000
00000000
01000000
00000000
10000000
00000000
01000000
00000000
00010000
00001000
00010000
00000000
,
00000000
00022000
00030000
00100000
00103000
00001000
00010000
01000000
,
10000000
00100000
00010000
00100000
10000000
01000000
00010000
01000000
,
00100000
01100000
00000000
10000000
01000000
00010000
00001000
00000010
,
00000001
00000000
00000100
00000000
00000010
00000000
00000100
00000000
00000001
00000000
00000100
00000000
00001000
00010000
00001000
00000000
,
00010000
00022000
00003000
00100000
00130000
10000000
01000000
00010000
,
00001000
00000010
00000001
00000100
00001000
00010000
00100000
10000000
,
01000000
01100000
00000000
00010000
00001000
00000010
00000000
00001000
,
00010000
00100000
00000000
00010000
00001000
00000100
00000000
00001000
,
00010000
01000000
00000000
10000000
10100000
00100000
00010000
00001000
,
00000020
00000000
00001030
00010000
00200000
00000000
00310000
00001000
,
00000010
00000011
00000000
00001000
00000100
00000010
00001000
00010000
,
00000010
00001000
00010000
00001000
00000100
00000010
00000001
00000100
,
00001000
00011000
00000000
00010000
01000000
00100000
00010000
00001000
,
00100000
00010000
00001000
00010000
01000000
00100000
10000000
01000000
,
00010000
00010100
00000000
00202000
00000000
00000000
00000000
00000000
,
00303000
00000000
00000000
00000000
00001000
00010000
00001000
00000000
00010000
00000000
00001000
00010000
00002000
00000000
00000000
00000000
,
00003000
00011000
00000000
00010000
00000100
00001000
00000001
00000100
,
00001000
00000100
00000010
00010000
00000100
00001000
00000010
00010000
,
00100000
01000000
00000000
00001000
01000000
00010000
10000000
01000000
,
00010000
01000000
00100000
00001000
01000000
00010000
00100000
00001000
,
00000010
00000100
00000000
00010000
00001000
00000010
00000001
00001000
,
00000010
00000100
00000001
00000010
00001000
00010000
00100000
10000000
,
01000000
00100000
00000000
00110000
01000000
00000000
10100000
00000000
,
00110000
00000000
00011000
00000000
00001100
00000010
00000000
00000101
,
00001000
00000200
00000000
00000310
00000001
00000100
00001000
00010000
,
00100000
10000000
00000000
01000000
10000000
00100000
00010000
00001000
,
00000100
00000001
00000000
00000010
00000001
00000100
00001000
00010000
,
01000000
10000000
00000000
00100000
10000000
01000000
00010000
00001000
,
00000100
00000101
00000000
00000001
00000010
00000100
00001000
00010000
,
01000000
00000000
10000000
00000000
00000000
00000000
01000000
00100000
01000000
00000000
00100000
00000000
00010000
00001000
00010000
00000000
,
00001000
00000100
00000000
00000001
00000011
00000000
00001010
00000000
,
00011000
00000000
00110000
00000000
10100000
01000000
00000000
01001000
,
00010000
00020200
00000000
00000000
00000000
00000000
00000000
00000000
,
00000000
00000000
00000000
00000000
00030300
00000000
00011000
00011000
;

//---------------dance-single - ----------------
#NOTES:
     dance-single:
     :
     Hard:
     12:
     0.584047,0.733360,0.373244,0.277763,0.026040,471.000000,428.000000,43.000000,32.000000,0.000000,0.000000,0.584047,0.733360,0.373244,0.277763,0.026040,471.000000,428.000000,43.000000,32.000000,0.000000,0.000000:
0000
0000
0000
0000
,
0000
0000
0000
0000
,
0000
0000
0000
0000
,
0000
0000
0000
0000
,
0000
0000
0000
0000
,
0000
0000
0000
0000
,
0000
0000
0000
0000
,
0000
0000
0100
0010
0000
0110
0000
0100
,
0000
2002
3003
0001
0100
0010
1000
0000
,
0001
0000
0010
0000
0100
0000
1000
0010
,
0100
0001
0000
1000
0100
0010
0001
0000
,
0100
0000
0010
0000
1000
0000
0001
0010
,
0100
1000
0000
0010
0100
0001
1000
0000
,
0100
0000
0010
0000
0001
0000
0100
0010
,
1000
0001
0000
0001
0100
0000
0110
0000
,
1000
0000
0110
0000
0001
0010
0000
0100
,
0010
0110
0000
1000
0010
0100
0001
0000
,
1000
0000
0100
0000
0010
0000
0001
0100
,
0010
1000
0000
0001
0010
0100
1000
0000
,
0010
0000
0100
0000
0001
0000
1000
0100
,
0010
0001
0000
0100
0010
1000
0001
0000
,
0010
0000
0100
0000
1000
0000
0010
0100
,
0001
1000
0000
1000
0010
0000
0110
0000
,
0001
0000
0110
0000
1000
0010
0000
0001
,
0010
0100
0120
0000
0000
0000
1000
0000
,
0000
0230
0000
0001
,
0000
0000
0310
0010
0000
0000
0000
0000
,
1001
0000
0001
0020
0000
0000
0130
2000
,
0000
3020
0000
0001
,
0000
0000
0230
0000
0000
0000
1000
1300
,
0000
0110
0000
0000
0010
1000
0010
0100
,
0001
0100
0010
1000
0010
0100
0001
1000
,
0000
2002
3003
0000
0001
0010
0100
0000
,
0100
1000
0010
0000
0010
0100
0001
0000
,
0001
1000
0100
0000
1000
0010
0100
0000
,
0100
0001
0010
0000
0010
0100
1000
0000
,
1000
0001
0010
0000
0100
0010
0001
0000
,
0001
0100
1000
0000
1000
0100
0010
0000
,
0010
1001
0000
1000
0100
0000
0001
0010
,
0000
0110
0000
1000
0100
0010
0001
0010
,
0100
0010
0002
0000
0000
0000
0100
0000
,
0000
2003
0000
0010
,
0000
0000
3200
0000
0000
0320
0000
0001
,
0001
0000
0000
0130
,
0100
2000
0000
0000
,
3010
0010
0001
0100
,
1000
2002
0000
0000
,
0000
0000
0000
0000
0000
0000
0000
0000
3003
0000
0000
0000
0001
0000
0000
0100
,
0000
0000
0010
0000
0000
1000
0000
0000
1100
0000
0000
0000
0000
0000
0000
0000
,
0101
0000
1010
0000
,
0011
0000
1001
0000
,
0110
0000
0000
0000
1001
0000
0001
0010
,
0100
0000
1000
0000
0001
0000
0000
0001
0000
0000
0001
0000
0100
0000
0000
0100
,
0000
0000
0100
0000
0010
0000
0000
0010
0000
0000
0010
0000
1000
0000
0000
1000
,
0000
1000
0002
0100
0103
0000
2000
0010
,
3010
0000
0001
0100
1000
0001
0010
0100
,
0000
0220
0330
0000
1000
0100
0010
0000
,
0010
0001
0100
0000
0100
1000
0010
0000
,
0001
0101
0000
0000
1000
0100
0010
0001
,
0100
0010
0000
2010
0000
0000
3001
1000
,
0010
0220
0330
0000
0001
0100
0010
0000
,
0010
1000
0100
0000
0100
0001
0010
0000
,
1000
1100
0000
0000
0001
0100
0010
1000
,
0100
0010
0000
0012
0000
0000
1003
0001
,
0010
0220
0330
0000
0100
1000
0010
0000
,
0010
0001
0100
0000
0010
1000
0100
0000
,
0100
0101
0000
0001
1000
0200
0000
1300
,
0001
0020
0000
0031
1000
0100
0010
0001
,
1000
0100
0000
0001
0001
0000
0010
0100
,
1000
0000
0010
0001
0100
0000
1000
0100
,
0010
0011
0000
0000
0001
0100
0010
1000
,
0010
0100
0001
0100
0010
1000
0100
0010
,
0001
0100
0000
0100
1000
0010
0100
0001
,
0010
0000
0010
1000
0100
0010
0100
0010
,
0001
1001
0000
2002
0000
0000
0000
0000
,
0000
0000
0000
0000
0000
0000
0000
3003
,
0000
1001
0000
0001
0100
1000
0010
0000
,
1000
0000
0100
0000
0001
0000
0010
0100
,
0010
0001
0000
1000
0010
0001
0100
0000
,
0001
0000
0010
0000
1000
0000
0100
0010
,
0100
1000
0000
0001
0010
1000
0100
0000
,
1000
0000
0010
0000
0001
0000
0100
0010
,
0100
0110
0000
0001
1000
0000
1010
0000
,
0001
0000
0011
0000
1000
0010
0000
0001
,
0100
0110
0000
0010
1000
0100
0000
0010
,
1000
0100
0000
0010
0001
0100
0000
0010
,
0001
0100
0000
1000
0001
0100
0000
1000
,
0001
0100
0000
0001
1000
0010
0000
0001
,
1000
0010
0000
1000
0100
0010
0001
0010
,
0100
1000
0000
0001
0010
1000
0001
0100
,
0010
0110
0000
1000
1001
0000
0101
0000
,
1100
0000
1010
0000
0011
0001
0000
0100
,
0010
2000
0000
0000
0000
0000
0000
0000
,
0000
0000
0000
0000
0000
0000
0001
3001
;

//---------------dance-double - ----------------
#NOTES:
     dance-double:
     :
     Hard:
     12:
     0.577847,0.733360,0.338524,0.277763,0.026040,466.000000,427.000000,39.000000,32.000000,0.000000,0.000000,0.577847,0.733360,0.338524,0.277763,0.026040,466.000000,427.000000,39.000000,32.000000,0.000000,0.000000:
00000000
00000000
00000000
00000000
,
00000000
00000000
00000000
00000000
,
00000000
00000000
00000000
00000000
,
00000000
00000000
00000000
00000000
,
00000000
00000000
00000000
00000000
,
00000000
00000000
00000000
00000000
,
00000000
00000000
00000000
00000000
,
00000000
00000000
00001000
00010000
00000000
00011000
00000000
00001000
,
00000000
00022000
00033000
00010000
00000100
00010000
00001000
00000000
,
00100000
00000000
00010000
00000000
01000000
00000000
00100000
10000000
,
00100000
01000000
00000000
00001000
00100000
00001000
00010000
00000000
,
00000100
00000000
00001000
00000000
00000010
00000000
00000100
00000001
,
00000100
00000010
00000000
00010000
00001000
00000010
00001000
00000000
,
00010000
00000000
00100000
00000000
10000000
00000000
01000000
00100000
,
01000000
00010000
00000000
00010000
00001000
00000000
01001000
00000000
,
00010000
00000000
00010100
00000000
00000100
00001000
00000000
00000010
,
00010000
00011000
00000000
00001000
01000000
00001000
00010000
00000000
,
00000010
00000000
00001000
00000000
00000100
00000000
00000010
00000001
,
00000010
00000100
00000000
00010000
00000010
00010000
00001000
00000000
,
01000000
00000000
00010000
00000000
00100000
00000000
01000000
10000000
,
01000000
00100000
00000000
00001000
00010000
00100000
00010000
00000000
,
00001000
00000000
00000010
00000000
00000001
00000000
00000100
00000010
,
00000100
00001000
00000000
00001000
00010000
00000000
00010100
00000000
,
00001000
00000000
01001000
00000000
01000000
00010000
00000000
00100000
,
00001000
00010000
00000200
00000000
00000000
00000000
00000010
00000000
,
00000000
00002300
00000000
00000001
,
00000000
00000000
00003010
00000010
00000000
00000000
00000000
00000000
,
00000110
00000000
00000100
00002000
00000000
00000000
00013000
00200000
,
00000000
20300000
00000000
01000000
,
00000000
00000000
30020000
00000000
00000000
00000000
01000000
01030000
,
00000000
01100000
00000000
00000000
00100000
10000000
01000000
00100000
,
00010000
01000000
00010000
01000000
00001000
00010000
00000100
00001000
,
00000000
00002002
00003003
00000000
00000001
00000100
00000010
00000000
,
00000010
00001000
00000100
00000000
00000100
00010000
00001000
00000000
,
00001000
00100000
00010000
00000000
10000000
00100000
01000000
00000000
,
01000000
00010000
00100000
00000000
00100000
00001000
00010000
00000000
,
00010000
00000100
00001000
00000000
00000100
00000010
00000001
00000000
,
00000001
00000100
00001000
00000000
00001000
00010000
00100000
00000000
,
00100000
10000000
00000000
10000000
01000000
00000000
01000000
00010000
,
00000000
00011000
00000000
00001000
00000010
00000001
00000100
00001000
,
00000100
00000010
00000200
00000000
00000000
00000000
00001000
00000000
,
00000000
00002300
00000000
00010000
,
00000000
00000000
00023000
00000000
00000000
00230000
00000000
10000000
,
10000000
00000000
00000000
10300000
,
10000000
02000000
00000000
00000000
,
03010000
00010000
00001000
00000010
,
00000001
00002002
00000000
00000000
,
00000000
00000000
00000000
00000000
00000000
00000000
00000000
00000000
00003003
00000000
00000000
00000000
00001000
00000000
00000000
00000010
,
00000000
00000000
00010000
00000000
00000000
00001000
00000000
00000000
00101000
00000000
00000000
00000000
00000000
00000000
00000000
00000000
,
00010010
00000000
01001000
00000000
,
00010100
00000000
00001010
00000000
,
00011000
00000000
00000000
00000000
00110000
00000000
00100000
10000000
,
00100000
00000000
10000000
00000000
01000000
00000000
00000000
01000000
00000000
00000000
00010000
00000000
00001000
00000000
00000000
00001000
,
00000000
00000000
00000010
00000000
00000001
00000000
00000000
00000001
00000000
00000000
00000100
00000000
00001000
00000000
00000000
00001000
,
00000000
00010000
00002000
00000000
01003000
00000000
00020000
00000000
,
00030100
00000000
00010000
00001000
00000100
00000001
00001000
00000010
,
00000000
00000220
00000330
00000000
00000001
00000010
00000100
00000000
,
00000100
00010000
00001000
00000000
00001000
00010000
01000000
00000000
,
10000000
10100000
00000000
00000000
00100000
01000000
00010000
10000000
,
01000000
00100000
00000000
00102000
00000000
00000000
00013000
00001000
,
01000000
02200000
03300000
00000000
10000000
00100000
01000000
00000000
,
01000000
00001000
00010000
00000000
00010000
00001000
00000100
00000000
,
00000001
00000011
00000000
00000000
00000010
00000100
00001000
00000001
,
00000100
00000010
00000000
00020010
00000000
00000000
00031000
00010000
,
00000100
00000220
00000330
00000000
00000001
00000100
00001000
00000000
,
00001000
00010000
01000000
00000000
01000000
10000000
00100000
00000000
,
00010000
00011000
00000000
00001000
00010000
00200000
00000000
00310000
,
00001000
00000020
00000000
00001030
00010000
01000000
10000000
00010000
,
00100000
01000000
00000000
10000000
10000000
00000000
00100000
00010000
,
00001000
00000000
00010000
00001000
00000010
00000000
00001000
00000010
,
00000001
00001001
00000000
00000000
00001000
00000100
00000010
00000001
,
00000010
00000100
00010000
00001000
00100000
01000000
10000000
01000000
,
00100000
00010000
00000000
01000000
00001000
00010000
00000100
00001000
,
00000010
00000000
00010000
00001000
00100000
00010000
01000000
00001000
,
00010000
00011000
00000000
00022000
00000000
00000000
00000000
00000000
,
00000000
00000000
00000000
00000000
00000000
00000000
00000000
00033000
,
00000000
00011000
00000000
00001000
00010000
01000000
10000000
00000000
,
00010000
00000000
10000000
00000000
01000000
00000000
00010000
00001000
,
00100000
00001000
00000000
00010000
00001000
00000010
00000001
00000000
,
00001000
00000000
00000001
00000000
00000010
00000000
00001000
00010000
,
00000100
00010000
00000000
00001000
00010000
00100000
10000000
00000000
,
01000000
00000000
00010000
00000000
00001000
00000000
00000010
00000001
,
00001000
00001001
00000000
00000100
00000010
00000000
00001010
00000000
,
00010000
00000000
00011000
00000000
00100000
00010000
00000000
10000000
,
00100000
01100000
00000000
10000000
01000000
00010000
00000000
01000000
,
00010000
00001000
00000000
00010000
00001000
00000100
00000000
00001000
,
00000100
00000001
00000000
00000001
00000010
00001000
00000000
00000010
,
00001000
00010000
00000000
00001000
00010000
00100000
00000000
00010000
,
00100000
10000000
00000000
10000000
01000000
00100000
00001000
00010000
,
00000100
00000010
00000001
00000100
00001000
00010000
00100000
10000000
,
00010000
10010000
00000000
01000000
01100000
00000000
00010000
00000000
,
00011000
00000000
00000100
00000000
00000110
00000001
00000000
00000001
,
00000100
00002000
00000000
00000000
00000000
00000000
00000000
00000000
,
00000000
00000000
00000000
00000000
00000000
00000000
00010000
00013000
;

//---------------dance-single - ----------------
#NOTES:
     dance-single:
     :
     Beginner:
     4:
     0.135162,0.244128,0.017360,0.000000,0.000000,109.000000,107.000000,2.000000,0.000000,0.000000,0.000000,0.135162,0.244128,0.017360,0.000000,0.000000,109.000000,107.000000,2.000000,0.000000,0.000000,0.000000:
0000
0000
0000
0000
,
0000
0000
0000
0000
,
0000
0000
0000
0000
,
0000
0000
0000
0000
,
0000
0000
0000
0000
,
0000
0000
0000
0000
,
0000
0000
0000
0000
,
0000
0000
0000
0000
,
0000
0000
1000
0000
,
1000
0000
1000
0000
,
0000
0000
0001
0000
,
0001
0000
0001
0000
,
0000
0000
1000
0000
,
1000
0000
1000
0000
,
0000
0000
0001
0001
,
0000
0001
0000
0001
,
0000
0000
0100
0000
,
0100
0000
0100
0000
,
0000
0000
0010
0000
,
0010
0000
0010
0000
,
0000
0000
0100
0000
,
0100
0000
0100
0000
,
0000
0000
0010
0010
,
0000
0010
0000
0010
,
0000
0010
0000
0000
,
0000
0000
0000
0000
,
0000
1000
0000
0000
,
0000
0000
0000
0000
,
0000
0001
0000
0000
,
0000
0000
0000
0100
,
0000
0100
0000
0001
,
0000
1000
0000
0001
,
0000
0100
0000
0100
,
0000
0010
0000
0010
,
0000
0010
0000
0000
,
0000
1000
0000
1000
,
0000
1000
0000
0000
,
0000
0001
0000
0001
,
0000
0001
0000
0000
,
0000
0100
0000
0000
,
0000
0010
0000
0000
,
0000
0000
0000
0000
,
0000
1000
0000
0000
,
0000
0000
0000
0000
,
0000
0100
0000
0000
,
0000
0000
0000
0000
,
0000
0010
0000
0000
,
0000
0000
0000
0000
,
0000
0001
0000
0000
,
0000
1000
0000
0000
,
0000
0001
0000
0000
,
0000
1000
0000
0000
,
0000
0001
0000
0001
,
0000
0001
0000
0001
,
0000
0001
0000
0001
,
0000
0001
0001
0000
,
0000
0000
0000
1000
,
0000
0000
0000
0100
,
0000
0000
0000
0010
,
0000
0000
0000
0001
,
0000
0000
0000
0100
,
0000
0000
0000
0010
,
0000
0000
0000
1000
,
0000
0000
0000
0001
,
0000
0000
0000
0010
,
0000
0000
0000
0100
,
0000
0000
0000
1000
,
0000
0000
0000
0010
,
0000
0000
0000
0100
,
0000
0000
0000
0010
,
0000
0000
0000
0100
,
0000
0000
0000
0010
,
0000
0000
0000
1000
,
0000
0000
0000
0001
,
0000
0001
0001
0000
,
0000
0000
0000
0000
,
0000
0000
1000
0000
,
1000
0000
1000
0000
,
0000
0000
0100
0000
,
0100
0000
0100
0000
,
0000
0000
0010
0000
,
0010
0000
0010
0000
,
0000
0000
0001
0001
,
0000
0001
0000
0001
,
0000
0000
0000
0100
,
0000
0000
0000
0010
,
0000
0000
0000
1000
,
0000
0000
0000
0001
,
0000
0000
0000
0010
,
0000
0000
0000
0100
,
0000
0000
0010
0010
,
0000
0010
0000
0010
,
0000
1001
0000
0000
,
0000
0000
0000
1001
;

//---------------dance-single - ----------------
#NOTES:
     dance-single:
     :
     Easy:
     7:
     0.281483,0.406880,0.104161,0.034720,0.000000,227.000000,215.000000,12.000000,4.000000,0.000000,0.000000,0.281483,0.406880,0.104161,0.034720,0.000000,227.000000,215.000000,12.000000,4.000000,0.000000,0.000000:
0000
0000
0000
0000
,
0000
0000
0000
0000
,
0000
0000
0000
0000
,
0000
0000
0000
0000
,
0000
0000
0000
0000
,
0000
0000
0000
0000
,
0000
0000
0000
0000
,
0000
0000
0000
0000
,
0000
0000
1000
0000
,
1000
0000
1000
0010
,
1000
0000
0001
0000
,
0001
0000
0001
0010
,
0001
0000
1000
0000
,
1000
0000
1000
0100
,
1000
1000
0000
0001
,
0000
1000
0000
0001
,
0100
0001
0001
0000
,
0001
0000
0001
0010
,
0001
0000
1000
0000
,
1000
0000
1000
0100
,
1000
0000
0001
0000
,
0001
0000
0001
0100
,
0001
0001
0000
1000
,
0000
0001
0000
1000
,
0100
0010
0000
0010
,
0000
0010
0000
0010
,
0000
0001
0000
0000
,
0100
0100
0000
1000
,
0000
0010
0000
0010
,
0000
0010
0000
0010
,
0100
0010
0000
0100
,
0000
0010
0000
1001
,
0000
0001
0000
1000
,
0000
0100
1000
0001
,
1000
0100
0000
1000
,
0000
0010
0100
0001
,
0100
0010
0000
1000
,
0000
0001
0100
0010
,
0100
0001
0000
0001
,
0000
1000
0100
0010
,
0001
0010
0000
0010
,
0000
0010
0000
0010
,
0000
0001
0000
0100
,
0000
1000
0000
0000
,
0000
0010
0000
0000
,
0000
0010
0000
0001
,
0000
0100
0000
0000
,
0000
0000
1000
1000
,
0010
1001
0000
1001
,
0000
1001
0000
1001
,
0000
1001
0000
1001
,
0000
1001
0000
1001
,
0001
1000
0000
0010
,
0000
0100
0000
0001
,
0000
1000
0010
0100
,
0001
1000
1000
0020
,
0030
0100
0000
0001
,
0000
0100
0010
0100
,
0000
0010
0000
1000
,
0000
0010
0100
0010
,
0000
0100
0000
0001
,
0000
1000
0000
0010
,
0000
0100
0010
0100
,
0010
1000
0001
1000
,
0000
0010
0000
1000
,
0000
0010
0100
0001
,
0000
0100
0000
0001
,
0000
0100
0010
1000
,
0000
0100
0000
0010
,
0000
0001
0000
1000
,
0000
0100
0010
0100
,
0010
0001
1000
0001
,
0000
0010
0000
0100
,
0000
1000
0001
1000
,
0010
0200
0000
0000
,
0000
0000
0000
0000
,
0300
0110
0010
0000
,
0010
0000
0010
1000
,
0010
0000
0100
0000
,
0100
0000
0100
0001
,
0100
0000
0010
0000
,
0010
0000
0010
1000
,
0010
0010
0000
0100
,
0000
0010
0000
0100
,
0010
0100
0001
1000
,
0000
0100
1000
0001
,
0000
0010
0001
1000
,
0000
0010
1000
0001
,
0000
1000
0100
0010
,
0001
0010
0100
1000
,
0000
0010
0100
0010
,
0100
0001
1000
0001
,
1000
2002
0000
0000
,
0000
0000
3003
1001
;

//---------------dance-double - ----------------
#NOTES:
     dance-double:
     :
     Easy:
     7:
     0.276523,0.406880,0.112841,0.034720,0.000000,223.000000,210.000000,13.000000,4.000000,0.000000,0.000000,0.276523,0.406880,0.112841,0.034720,0.000000,223.000000,210.000000,13.000000,4.000000,0.000000,0.000000:
00000000
00000000
00000000
00000000
,
00000000
00000000
00000000
00000000
,
00000000
00000000
00000000
00000000
,
00000000
00000000
00000000
00000000
,
00000000
00000000
00000000
00000000
,
00000000
00000000
00000000
00000000
,
00000000
00000000
00000000
00000000
,
00000000
00000000
00000000
00000000
,
00000000
00000000
00001000
00000000
,
00001000
00000000
00001000
00100000
,
00001000
00000000
00010000
00000000
,
00010000
00000000
00010000
00000010
,
00010000
00000000
00001000
00000000
,
00001000
00000000
00001000
01000000
,
00001000
00001000
00000000
00010000
,
00000000
00001000
00000000
00010000
,
00001000
00010000
00010000
00000000
,
00010000
00000000
00010000
00000100
,
00010000
00000000
00001000
00000000
,
00001000
00000000
00001000
01000000
,
00001000
00000000
00010000
00000000
,
00010000
00000000
00010000
00000010
,
00010000
00010000
00000000
00001000
,
00000000
00010000
00000000
00001000
,
00010000
00001000
00000000
00001000
,
00000000
00000010
00000000
00000010
,
00000000
00000001
00000000
00000000
,
00000100
00000100
00000000
00001000
,
00000000
00010000
00000000
00010000
,
00000000
00010000
00000000
00010000
,
00010000
00100000
00000000
10000000
,
00000000
00010000
00000000
10010000
,
00000000
10000000
00000000
01000000
,
00000000
00100000
00001000
00100000
,
00001000
00010000
00000000
00000100
,
00000000
00001000
00000010
00001000
,
00000010
00000100
00000000
00000001
,
00000000
00000010
00000100
00000010
,
00000100
00010000
00000000
00001000
,
00000000
01000000
00100000
01000000
,
00100000
10000000
00000000
10000000
,
00000000
10000000
00000000
10000000
,
00000000
01000000
00000000
00010000
,
00000000
00001000
00000000
00000000
,
00000000
00010000
00000000
00000000
,
00000000
00001000
00000000
00000010
,
00000000
00000001
00000000
00000000
,
00000000
00000000
00000100
00001000
,
00010000
00011000
00000000
00011000
,
00000000
00011000
00000000
00011000
,
00000000
00011000
00000000
00011000
,
00000000
00011000
00000000
00011000
,
00010000
00001000
00000000
00100000
,
00000000
01000000
00000000
10000000
,
00000000
00100000
01000000
00100000
,
01000000
00001000
00010000
00002000
,
00003000
00100000
00000000
00010000
,
00000000
01000000
00000000
10000000
,
00000000
01000000
00000000
00010000
,
00000000
00100000
01000000
00100000
,
00000000
00010000
00000000
01000000
,
00000000
10000000
00000000
00010000
,
00000000
00001000
00010000
00001000
,
00000000
00010000
00001000
00011000
,
00000000
00000010
00000000
00001000
,
00000000
00000100
00000000
00000001
,
00000000
00000100
00000000
00001000
,
00000000
00000010
00000100
00000010
,
00000000
00001000
00000000
00000100
,
00000000
00000001
00000000
00001000
,
00000000
00010000
00001000
00010000
,
00000000
00001000
00010000
00001000
,
00000000
00100000
00000000
01000000
,
00000000
10000000
00000000
00100000
,
00010000
00002000
00000000
00000000
,
00000000
00000000
00000000
00000000
,
00003000
00011000
01000000
00000000
,
01000000
00000000
01000000
00001000
,
00010000
00000000
00000100
00000000
,
00000100
00000000
00000100
00010000
,
00001000
00000000
00100000
00000000
,
00100000
00000000
00100000
00001000
,
00010000
00010000
00000000
00001000
,
00000000
00010000
00000000
00001000
,
00010000
00001000
00000100
00000010
,
00000000
00000010
00000100
00000001
,
00000000
00000001
00000010
00000100
,
00000000
00000100
00010000
00001000
,
00000000
00001000
00100000
00010000
,
01000000
00100000
10000000
01000000
,
00000000
00010000
00001000
01000000
,
00001000
00010000
00000100
00010000
,
00001000
00022000
00000000
00000000
,
00000000
00000000
00033000
00011000
;

//---------------dance-single - ----------------
#NOTES:
     dance-single:
     :
     Medium:
     10:
     0.473686,0.570391,0.269083,0.208322,0.000000,382.000000,351.000000,31.000000,24.000000,0.000000,0.000000,0.473686,0.570391,0.269083,0.208322,0.000000,382.000000,351.000000,31.000000,24.000000,0.000000,0.000000:
0000
0000
0000
0000
,
0000
0000
0000
0000
,
0000
0000
0000
0000
,
0000
0000
0000
0000
,
0000
0000
0000
0000
,
0000
0000
0000
0000
,
0000
0000
0000
0000
,
0000
0000
0100
0010
0000
0100
0000
0010
,
0000
2002
3003
0000
1000
0000
0100
0000
,
1000
0010
0100
0001
,
0010
0001
0000
0000
0001
0000
0100
0000
,
0001
0010
0100
1000
,
0010
1000
0000
0000
0100
0000
0010
0000
,
0001
1000
0100
0010
,
0001
0100
0000
0000
0010
0000
0110
0000
,
0100
0000
0110
0000
0010
1000
0000
0001
,
1000
0002
0000
0000
1003
0000
0010
0000
,
1000
0100
0010
0001
,
0100
0001
0000
0000
0001
0000
0010
0000
,
0001
0100
0010
1000
,
0100
1000
0000
0000
0010
0000
0100
0000
,
0001
1000
0010
0100
,
0001
0010
0000
0000
0100
0000
0110
0000
,
0010
0000
0110
0000
0100
1000
0000
1000
,
0100
0010
0002
0000
0000
0000
0103
0000
,
0000
2000
0000
3010
,
0000
0000
0001
0001
0000
0000
0000
0000
,
1001
0000
1000
0100
0000
0000
0001
0020
,
0000
0000
0030
0002
,
0000
0000
2003
0000
0000
0000
3010
0010
,
0000
0110
0000
0000
1000
0000
0100
0000
,
0010
0000
0001
0000
0100
0000
0010
0100
,
0000
1001
0000
0000
1000
0010
1000
0000
,
0001
0010
0001
0000
1000
0010
1000
0000
,
0001
0000
0001
0000
0000
0000
1000
0100
,
1000
0000
0001
0100
0001
0000
1000
0100
,
1000
0000
0001
0000
0000
0000
0100
0010
,
0100
0000
0001
1000
0001
0000
0100
0010
,
0100
0001
0000
0000
0001
0000
0010
0000
,
0100
0000
1000
0000
0010
0000
0100
0001
,
0000
0021
0000
0230
,
0000
2300
0000
3020
,
0000
0000
0230
0000
0000
0301
0000
0001
,
2000
0000
0000
3100
,
0010
0002
0000
0000
,
0103
0010
1000
0001
,
0100
0220
0000
0000
,
0000
0000
0330
2002
,
0000
3003
1010
0000
,
0101
0000
0011
0000
,
1100
0000
0110
0000
,
1001
0000
0110
0010
,
0100
0000
1000
0010
1000
0000
0010
1000
,
0001
0000
0100
0001
0100
0000
0001
1000
,
0100
0010
0100
0000
0010
0000
0001
0000
,
0100
0000
0010
0000
1000
0000
0001
0001
,
0000
2002
3003
0000
1000
0000
0010
0000
,
0100
0001
0000
0010
0000
0010
0000
0100
,
0000
0100
0000
1000
0010
1000
0001
0000
,
0100
0000
0010
0000
1000
0000
0100
0010
,
0000
1001
0000
0000
0001
0000
0100
0000
,
0010
1000
0000
1000
0000
0100
0000
0100
,
0000
0010
0000
0000
0001
0010
0100
0000
,
1000
0100
0010
0000
0001
0100
0010
0100
,
0000
1001
0000
0000
0001
0000
0100
0000
,
0010
1000
0000
1000
0000
0001
0000
0001
,
0000
0100
0000
0010
1000
0100
0000
0010
,
0001
0100
0000
0010
0100
0000
0010
0000
,
0110
0000
1000
0010
0100
0000
0001
0100
,
0010
0000
1000
0100
0010
0000
0001
0000
,
0100
0010
0000
0000
1000
0000
0001
0000
,
0100
0110
0010
0110
,
0100
0000
0001
0010
0100
0000
1000
0010
,
0100
0000
0001
0010
0100
0000
1000
0010
,
0000
0100
0000
2002
0000
0000
0000
0000
,
0000
0000
0000
0000
0000
0000
0000
3003
,
0000
1001
0000
0001
0100
0000
1000
0000
,
0100
0000
0001
0000
0010
0000
0100
0010
,
0100
0100
0000
1000
0010
0000
0001
0000
,
0010
0000
1000
0000
0100
0000
0010
0100
,
0010
0010
0000
0001
0100
0000
1000
0000
,
0010
0000
0001
0000
0100
0000
0010
1000
,
0010
0010
0000
0000
0100
0000
0101
0000
,
0010
0000
1010
0000
0100
0000
0001
0010
,
0000
0110
0000
1000
0100
0000
0001
0000
,
0100
0000
1000
0010
0100
0000
0001
0000
,
0010
0001
0000
0001
0100
0000
1000
0100
,
0010
0000
1000
0000
0001
0000
0100
0010
,
0001
0010
0000
0010
1000
0000
0100
0000
,
0001
0000
0100
0010
0100
0000
0010
0000
,
0001
0100
0000
1000
0100
0000
0101
0000
,
0010
0000
1010
0000
0001
0010
0000
0001
,
1000
0200
0000
0000
0000
0000
0000
0000
,
0000
0000
0000
0000
0000
0000
0010
0310
;

//---------------dance-double - ----------------
#NOTES:
     dance-double:
     :
     Medium:
     10:
     0.466246,0.570391,0.269083,0.243043,0.000000,376.000000,345.000000,31.000000,28.000000,0.000000,0.000000,0.466246,0.570391,0.269083,0.243043,0.000000,376.000000,345.000000,31.000000,28.000000,0.000000,0.000000:
// measure 0
00000000
00000000
00000000
00000000
,  // measure 1
00000000
00000000
00000000
00000000
,  // measure 2
00000000
00000000
00000000
00000000
,  // measure 3
00000000
00000000
00000000
00000000
,  // measure 4
00000000
00000000
00000000
00000000
,  // measure 5
00000000
00000000
00000000
00000000
,  // measure 6
00000000
00000000
00000000
00000000
,  // measure 7
00000000
00000000
01000000
00001000
00000000
00010000
00000000
00001000
,  // measure 8
00000000
00022000
00033000
00000000
00010000
00000000
00000100
00000000
,  // measure 9
00001000
00000010
00001000
00000100
,  // measure 10
00010000
00001000
00000000
00000000
00001000
00000000
01000000
00000000
,  // measure 11
00010000
00100000
00010000
01000000
,  // measure 12
00001000
00010000
00000000
00000000
00010000
00000000
00000100
00000000
,  // measure 13
00001000
00000001
00001000
00000100
,  // measure 14
00010000
00001000
00000000
00000000
00010000
00000000
00011000
00000000
,  // measure 15
00001000
00000000
00011000
00000000
00010000
00000100
00000000
00010000
,  // measure 16
00001000
02000000
00000000
00000000
03001000
00000000
00001000
00000000
,  // measure 17
00010000
00000010
00001000
00000010
,  // measure 18
00010000
00001000
00000000
00000000
00001000
00000000
00100000
00000000
,  // measure 19
00010000
01000000
00010000
00100000
,  // measure 20
00001000
00010000
00000000
00000000
00010000
00000000
00001000
00000000
,  // measure 21
00100000
00010000
10000000
00010000
,  // measure 22
00100000
00001000
00000000
00000000
00010000
00000000
00011000
00000000
,  // measure 23
00001000
00000000
00011000
00000000
00010000
00001000
00000000
00010000
,  // measure 24
00000100
00001000
00000002
00000000
00000000
00000000
00000103
00000000
,  // measure 25
00000000
00000200
00000000
00001300
,  // measure 26
00000000
00000000
00001000
00010000
00000000
00000000
00000000
00000000
,  // measure 27
00011000
00000000
00010000
01000000
00000000
00000000
01000000
20000000
,  // measure 28
00000000
00000000
00000000
30200000
,  // measure 29
00000000
00000000
00320000
00000000
00000000
00000000
00001000
00031000
,  // measure 30
00000000
00011000
00000000
00000000
00001000
00000000
00100000
00000000
,  // measure 31
00010000
00000000
01000000
00000000
00100000
00000000
10000000
00010000
,  // measure 32
00000000
10010000
00000000
00000000
10000000
01000000
10000000
00000000
,  // measure 33
01000000
00000000
00010000
00000000
00001000
00010000
00001000
00000000
,  // measure 34
00000010
00000000
00000010
00000000
00000000
00000000
00000001
00000100
,  // measure 35
00000001
00000000
00000100
00000000
00001000
00000000
00010000
00001000
,  // measure 36
00010000
00000000
01000000
00000000
00000000
00000000
10000000
00100000
,  // measure 37
10000000
00000000
00100000
00000000
00010000
00000000
00001000
00010000
,  // measure 38
00001000
00000010
00000000
00000000
00000010
00000000
00000001
00000000
,  // measure 39
00000100
00000000
00001000
00000000
00010000
00000000
00001000
01000000
,  // measure 40
00000000
01200000
00000000
00320000
,  // measure 41
00000000
00032000
00000000
00003200
,  // measure 42
00000000
00000000
00000320
00000000
00000000
00000130
00000000
00000100
,  // measure 43
00000002
00000000
00000000
00000013
,  // measure 44
00001000
00020000
00000000
00000000
,  // measure 45
00130000
10000000
01000000
00010000
,  // measure 46
00001000
00202000
00000000
00000000
,  // measure 47
00000000
00000000
00303000
00020020
,  // measure 48
00000000
00030030
00011000
00000000
,  // measure 49
01001000
00000000
00011000
00000000
,  // measure 50
00010100
00000000
00011000
00000000
,  // measure 51
00110000
00000000
10100000
10000000
,  // measure 52
01000000
00000000
00100000
00010000
00100000
00000000
00001000
00100000
,  // measure 53
00001000
00000000
00010000
00000010
00010000
00000000
00000010
00001000
,  // measure 54
00000010
00001000
00000001
00000000
00000100
00000000
00001000
00000000
,  // measure 55
00010000
00000000
00100000
00000000
10000000
00000000
01000000
00100000
,  // measure 56
00000000
02200000
03300000
00000000
01000000
00000000
00010000
00000000
,  // measure 57
00001000
00010000
00000000
00000100
00000000
00000100
00000000
00001000
,  // measure 58
00000000
00001000
00000000
00000010
00000100
00000000
00000001
00000000
,  // measure 59
00001000
00000000
00000100
00000000
00000010
00000000
00000001
00000100
,  // measure 60
00000000
00000220
00000330
00000000
00000010
00000000
00001000
00000000
,  // measure 61
00000100
00010000
00000000
00010000
00000000
00001000
00000000
00001000
,  // measure 62
00000000
00100000
00000000
00000000
01000000
00100000
00010000
00000000
,  // measure 63
10000000
01000000
00100000
00000000
00010000
01000000
00010000
10000000
,  // measure 64
00000000
20020000
30030000
00000000
00010000
00000000
01000000
00000000
,  // measure 65
00100000
00010000
00000000
00010000
00000000
00001000
00000000
00001000
,  // measure 66
00000000
00000010
00000000
00000001
00000100
00000010
00000000
00001000
,  // measure 67
00000010
00000100
00000000
00000010
00010000
00000000
00001000
00000000
,  // measure 68
00011000
00000000
00010000
00100000
01000000
00000000
00100000
00000000
,  // measure 69
01000000
00000000
10000000
01000000
00100000
00000000
01000000
00000000
,  // measure 70
00010000
00100000
00000000
00000000
00001000
00000000
00010000
00000000
,  // measure 71
00000100
00001100
00000010
00000011
,  // measure 72
00001000
00000000
00000100
00000010
00000001
00000000
00000100
00000000
,  // measure 73
00001000
00000000
00010000
00100000
01000000
00000000
00100000
10000000
,  // measure 74
00000000
01000000
00000000
20020000
00000000
00000000
00000000
00000000
,  // measure 75
00000000
00000000
00000000
00000000
00000000
00000000
00000000
30030000
,  // measure 76
00000000
10010000
00000000
00010000
01000000
00000000
00001000
00000000
,  // measure 77
00010000
00000000
00000100
00000000
00000010
00000000
00000001
00001000
,  // measure 78
00000001
00001000
00000000
00000010
00001000
00000000
00000100
00000000
,  // measure 79
00010000
00000000
00001000
00000000
00100000
00000000
00010000
10000000
,  // measure 80
00010000
10000000
00000000
00010000
01000000
00000000
00100000
00000000
,  // measure 81
10000000
00000000
01000000
00000000
00010000
00000000
00001000
00100000
,  // measure 82
00001000
00100000
00000000
00000000
00010000
00000000
01010000
00000000
,  // measure 83
10000000
00000000
10100000
00000000
00100000
00000000
01000000
00010000
,  // measure 84
00000000
00110000
00000000
00100000
00001000
00000000
00010000
00000000
,  // measure 85
00001000
00000000
00000010
00000001
00000010
00000000
00001000
00000000
,  // measure 86
00010000
00001000
00000000
00001000
00100000
00000000
01000000
10000000
,  // measure 87
01000000
00000000
00010000
00000000
00001000
00000000
00000010
00000100
,  // measure 88
00000010
00000001
00000000
00000001
00000100
00000000
00001000
00000000
,  // measure 89
00010000
00000000
01000000
00100000
01000000
00000000
10000000
00000000
,  // measure 90
00100000
00010000
00000000
00010000
00001000
00000000
00011000
00000000
,  // measure 91
00100000
00000000
00011000
00000000
00000010
00000100
00000000
00000001
,  // measure 92
00000010
00002000
00000000
00000000
00000000
00000000
00000000
00000000
,  // measure 93
00000000
00000000
00000000
00000000
00000000
00000000
00010000
00013000
;
