#TITLE:Coin;
#SUBTITLE:;
#ARTIST:IU;
#TITLETRANSLIT:;
#SUBTITLETRANSLIT:;
#ARTISTTRANSLIT:;
#GENRE:K-POP;
#CREDIT:MUINELIM;
#BANNER:Coin.png;
#BACKGROUND:Coin-bg.png;
#LYRICSPATH:;
#CDTITLE:;
#MUSIC:Coin.ogg;
#OFFSET:1.908000;
#SAMPLESTART:49.447929;
#SAMPLELENGTH:12.143391;
#LASTBEATHINT:1.770000;
#SELECTABLE:YES;
#DISPLAYBPM:118.000000;
#BPMS:0.000000=118.000000
;
#STOPS:98.000000=1.525000,
223.000000=1.526000
;
#BGCHANGES:0.000=Coin-bg.png=1.000=0=0=1====#000000=#000000,
4.000=Coin.mp4=1.000=1=0=1===CrossFade==,
99999=-nosongbg-=1.000=0=0=0 // don't automatically add -songbackground-
;
#KEYSOUNDS:;
#ATTACKS:;

//---------------dance-single - ----------------
#NOTES:
     dance-single:
     :
     Beginner:
     2:
     0.116342,0.167362,0.044829,0.037357,0.000000,109.000000,103.000000,6.000000,5.000000,0.000000,0.000000,0.116342,0.167362,0.044829,0.037357,0.000000,109.000000,103.000000,6.000000,5.000000,0.000000,0.000000:
0000
0000
0000
0000
,
0000
0000
1000
0000
,
1000
0000
1000
0000
,
0000
0000
0001
0000
,
0001
0000
0001
0000
,
0000
0000
0100
0000
,
0100
0000
0100
0000
,
0000
0000
0010
0000
,
0010
0000
0020
0000
,
0030
0000
1000
0000
,
0001
0000
1000
0000
,
0001
0000
1000
0000
,
0000
0000
0000
0000
,
0000
0000
0010
0000
,
0100
0000
0010
0000
,
0100
0000
0010
0000
,
0000
0000
0020
0000
,
0030
0000
1000
0000
,
0100
0000
1000
0000
,
0100
0000
1000
0000
,
0100
0100
0000
0000
,
0000
0000
0001
0000
,
0100
0000
0001
0000
,
0100
0000
0001
0000
,
0100
0000
0001
1001
,
0000
0000
0000
0000
,
0000
0000
0000
1000
,
0000
0001
0000
1000
,
0000
0001
0000
1001
,
0000
0000
0000
0000
,
0000
0000
0000
0001
,
0000
1000
0000
0001
,
0000
1000
0000
0010
,
0000
0010
0000
0001
,
0000
0001
0000
0100
,
0000
0100
0000
1000
,
0000
1000
0000
0010
,
0000
0100
0000
0010
,
0000
0100
0100
0000
,
0000
1001
0000
2002
,
0000
3003
0000
1000
,
0000
0010
0000
1000
,
0000
0010
0000
1000
,
0000
0000
0000
0000
,
0000
0000
0000
0001
,
0000
0100
0000
0001
,
0000
0100
0000
0001
,
0000
0000
0000
0002
,
0000
0003
0000
0010
,
0000
0001
0000
0010
,
0000
0001
0000
0010
,
0000
0001
0001
0000
,
0000
0000
0000
0010
,
0000
1000
0000
0010
,
0000
1000
0000
0010
,
0000
1000
0000
0010
,
0100
0000
0010
0000
,
0100
0000
0001
0000
,
1000
0000
0001
0000
,
0100
0000
0010
0000
,
1000
0000
0001
0000
,
0010
0000
0100
0000
,
1000
0000
0000
0000
,
0001
0000
0000
1001
,
1001
0000
0000
0000
;

//---------------dance-single - ----------------
#NOTES:
     dance-single:
     :
     Easy:
     5:
     0.228414,0.262997,0.246559,0.074715,0.000000,214.000000,181.000000,33.000000,10.000000,0.000000,0.000000,0.228414,0.262997,0.246559,0.074715,0.000000,214.000000,181.000000,33.000000,10.000000,0.000000,0.000000:
// measure 0
0000
0000
0000
0000
,  // measure 1
0000
0000
1000
0100
,  // measure 2
1000
0000
0001
0100
,  // measure 3
0001
0000
1000
0010
,  // measure 4
1000
0000
0001
0010
,  // measure 5
0001
0000
1000
0001
,  // measure 6
0100
0000
0001
1000
,  // measure 7
0010
0000
0100
0100
,  // measure 8
0010
0010
0220
0000
,  // measure 9
0000
0330
0110
0000
,  // measure 10
1001
0000
0110
0000
,  // measure 11
1001
0000
0110
0010
,  // measure 12
0100
0001
1000
0010
,  // measure 13
0010
0000
1001
0000
,  // measure 14
0110
0000
1001
0000
,  // measure 15
0110
0000
1001
0001
,  // measure 16
0001
1000
1000
0010
,  // measure 17
0100
0020
1030
0000
,  // measure 18
0100
0000
1000
0000
,  // measure 19
0100
0000
1000
0000
,  // measure 20
0100
0101
0000
0010
,  // measure 21
0000
0010
0001
0000
,  // measure 22
0100
0000
0001
0000
,  // measure 23
0100
0000
0001
0100
,  // measure 24
1100
0000
1001
0001
,  // measure 25
1000
0100
0100
0001
,  // measure 26
1000
0100
0100
0001
,  // measure 27
0000
1000
0000
0001
,  // measure 28
1000
0100
1001
0001
,  // measure 29
1000
0010
0010
0001
,  // measure 30
1000
0010
0010
0002
,  // measure 31
0000
0000
0003
2000
,  // measure 32
3001
1000
1001
0010
,  // measure 33
0000
0001
0000
0100
,  // measure 34
0000
1000
0000
0001
,  // measure 35
0000
0010
0000
1000
,  // measure 36
0000
0100
0000
0010
,  // measure 37
0100
0010
1001
0100
,  // measure 38
0010
0100
2002
3003
,  // measure 39
0001
0000
1000
0000
0000
0000
0001
1000
,  // measure 40
0001
0100
0100
0110
,  // measure 41
0000
1001
0000
0110
,  // measure 42
0000
1001
0000
0110
,  // measure 43
0100
0010
1000
0001
,  // measure 44
0100
0100
0000
1001
,  // measure 45
0000
0110
0000
1001
,  // measure 46
0000
0110
0000
1001
,  // measure 47
1000
1000
0001
0001
,  // measure 48
0100
0010
0200
0301
,  // measure 49
0000
0010
0000
0001
,  // measure 50
0000
0010
0000
0001
,  // measure 51
0000
0010
1010
0000
,  // measure 52
0100
0000
0100
1000
,  // measure 53
0000
0010
0000
1000
,  // measure 54
0000
0010
0000
1000
,  // measure 55
0010
0011
0000
1001
,  // measure 56
1000
0010
0100
0100
,  // measure 57
1000
0010
0100
0100
,  // measure 58
1000
0000
0010
0000
,  // measure 59
0001
1000
0010
1001
,  // measure 60
0001
0100
0010
0010
,  // measure 61
0001
0100
0010
0010
,  // measure 62
0002
0000
0000
0003
,  // measure 63
0200
1300
0010
0001
,  // measure 64
1001
0000
0000
0000
;

//---------------dance-double - ----------------
#NOTES:
     dance-double:
     :
     Easy:
     5:
     0.223078,0.262997,0.239088,0.074715,0.000000,209.000000,177.000000,32.000000,10.000000,0.000000,0.000000,0.223078,0.262997,0.239088,0.074715,0.000000,209.000000,177.000000,32.000000,10.000000,0.000000,0.000000:
00000000
00000000
00000000
00000000
,
00000000
00000000
00001000
01000000
,
00001000
00000000
00010000
00000100
,
00010000
00000000
00001000
00100000
,
00001000
00000000
00010000
00000010
,
00010000
00000000
00001000
00010000
,
00100000
00000000
00010000
00001000
,
00000100
00000000
00001000
00010000
,
00001000
00010000
00022000
00000000
,
00000000
00033000
00011000
00000000
,
01010000
00000000
00011000
00000000
,
00001100
00000000
00011000
00010000
,
00100000
10000000
01000000
00100000
,
00100000
00000000
00011000
00000000
,
00001010
00000000
00011000
00000000
,
00110000
00000000
00011000
00001000
,
00000010
00000001
00000100
00000010
,
00000010
00020000
00031000
00000000
,
01000000
00000000
00001000
00000000
,
01000000
00000000
00001000
00000000
,
00010000
00011000
00000000
00000000
,
00000000
00000000
00010000
00000000
,
00000100
00000000
00010000
00000000
,
00000100
00000000
00010000
00001000
,
00011000
00000000
00011000
00010000
,
01000000
10000000
10000000
01000000
,
00010000
00001000
00001000
00010000
,
00000000
00100000
00000000
10000000
,
01000000
00010000
00011000
00001000
,
00000010
00000001
00000001
00000010
,
00001000
00010000
00010000
00000200
,
00000000
00000000
00000300
00000020
,
00000130
00000100
00001001
00000001
,
00000000
00000100
00000000
00001000
,
00000000
00010000
00000000
00100000
,
00000000
10000000
00000000
01000000
,
00000000
00010000
00000000
00001000
,
00010000
00100000
00010000
00001000
,
00000010
00001000
00022000
00033000
,
00010000
00000000
00010000
00000000
00000000
00000000
00001000
00010000
,
00001000
00010000
00001000
00011000
,
00000000
00010010
00000000
00011000
,
00000000
01001000
00000000
00011000
,
00010000
01000000
10000000
00100000
,
01000000
01000000
00000000
00011000
,
00000000
00101000
00000000
00011000
,
00000000
00010100
00000000
00011000
,
00001000
00000100
00000001
00000010
,
00000100
00000100
00020000
00031000
,
00000000
00100000
00000000
00001000
,
00000000
00100000
00000000
00001000
,
00000000
00010000
00011000
00000000
,
00000000
00000000
00000000
00010000
,
00000000
00000100
00000000
00010000
,
00000000
00000100
00000000
00010000
,
00001000
00011000
00000000
00011000
,
00001000
00100000
01000000
01000000
,
10000000
00100000
01000000
01000000
,
00010000
00000000
00100000
00000000
,
00001000
00010000
00001000
00011000
,
00010000
00000010
00000100
00000100
,
00000001
00000010
00000100
00000100
,
00002000
00000000
00000000
00003000
,
00000020
00010030
00001000
00100000
,
10010000
00000000
00000000
00000000
;

//---------------dance-single - ----------------
#NOTES:
     dance-single:
     :
     Medium:
     8:
     0.321274,0.334723,0.179316,0.119544,0.029886,301.000000,277.000000,24.000000,16.000000,0.000000,0.000000,0.321274,0.334723,0.179316,0.119544,0.029886,301.000000,277.000000,24.000000,16.000000,0.000000,0.000000:
0000
0000
0000
0000
,
0000
0000
1000
0100
,
1000
0100
1000
0001
,
1000
1000
0001
0010
,
0001
0010
0001
1000
,
0001
0001
1000
0010
,
1000
1000
0001
0100
,
0001
0001
1000
0001
,
0100
0010
0220
0000
,
0330
0000
0001
0000
2000
0000
0000
3001
,
0100
0000
0000
0100
0010
0000
0000
0010
,
1000
0000
0000
1000
0001
0000
1000
0000
,
0100
0010
0001
0100
,
0010
0000
0110
0000
0002
0000
0000
1003
,
0010
0000
0000
0010
0100
0000
0000
0100
,
0001
0000
0000
0001
1000
0000
0001
0000
,
0100
0000
0010
0000
1000
0001
1000
0001
,
0010
0100
0010
0000
0001
0000
0100
0000
,
0001
0010
0001
0100
,
0001
0010
0001
0100
,
1000
1100
0000
1100
,
0000
1100
1000
0010
,
1000
0100
1000
0010
,
1000
0100
0001
0010
,
0011
0000
0000
0000
1001
0000
1000
1000
,
0000
1000
0000
0000
0100
0000
0000
0010
0000
0000
0001
0000
0000
0000
0001
0000
,
1000
0000
0001
1000
0020
0000
0130
0000
,
1010
0000
0101
0000
1010
0000
0000
1000
,
0200
0000
1300
0100
0010
0000
0110
0100
,
0000
1000
0000
0000
0001
0000
0000
0010
0000
0000
0100
0000
0000
0000
0010
0000
,
0010
0000
0001
1000
0100
0010
0001
0000
,
0100
1000
0010
0001
,
1000
0000
0010
0100
0020
0000
0130
0000
,
0100
0001
0010
0000
0010
0001
0100
0000
,
0100
1000
0010
0000
0010
1000
0100
0000
,
1000
0001
0010
0001
,
1000
0000
0220
0000
0330
0000
0010
1000
,
0001
0000
0100
0001
1000
0000
0010
1000
,
0001
0100
0010
0010
0020
0000
0030
0000
,
0100
0001
1000
0000
0010
1000
0002
0000
,
2003
0000
3010
0100
0010
0000
0002
0000
,
0000
1003
0010
0000
0000
0010
0001
0000
,
0000
0001
0100
0000
0000
0100
1000
0000
,
0001
0100
0010
1000
,
0100
0010
0110
2000
,
0000
3001
0100
0000
0000
0100
1000
0000
,
0000
1000
0010
0000
0000
0010
0001
0000
,
1000
0000
0100
0000
0010
0000
0001
1000
,
0001
1000
0010
0100
0010
0000
1000
0000
,
0100
1000
0010
1000
,
0100
1000
0010
1000
,
0100
0001
0101
0000
,
0101
0000
0101
0001
,
0010
0001
0100
0001
,
0010
0001
0100
1000
,
0010
1010
0000
1001
,
0010
0000
0010
0000
0000
1000
0000
0000
0001
0000
0000
0100
0000
0000
0010
0000
,
0000
0100
0001
0000
0100
0010
2000
0000
,
3001
0011
1100
0011
,
0000
0001
0200
0000
0310
1000
0100
0000
,
1001
0000
0001
0000
0000
0100
0000
0000
1000
0000
0000
0001
0000
0000
0010
0000
,
0000
0100
0010
0000
1000
0100
0010
0001
,
1000
0100
0001
0010
,
1000
0000
0001
0000
0100
0010
0110
0000
,
1001
0000
0000
0000
;

//---------------dance-double - ----------------
#NOTES:
     dance-double:
     :
     Medium:
     7:
     0.318072,0.334723,0.164373,0.112072,0.029886,298.000000,276.000000,22.000000,15.000000,0.000000,0.000000,0.318072,0.334723,0.164373,0.112072,0.029886,298.000000,276.000000,22.000000,15.000000,0.000000,0.000000:
00000000
00000000
00000000
00000000
,
00000000
00000000
00001000
01000000
,
00001000
01000000
00001000
00010000
,
00001000
00001000
00010000
00000010
,
00010000
00000010
00010000
00000010
,
00010000
00010000
00001000
00100000
,
00001000
00001000
00010000
00000100
,
00010000
00010000
00001000
00010000
,
01000000
10000000
20020000
00000000
,
30030000
00000000
00010000
00000000
02000000
00000000
00000000
03001000
,
00001000
00000000
00000000
00010000
00010000
00000000
00000000
00000100
,
00000100
00000000
00000000
00000010
00000010
00000000
00000001
00000000
,
00000100
00001000
00010000
00000100
,
00001000
00000000
00001001
00000000
00000020
00000000
00000000
00010030
,
00010000
00000000
00000000
00001000
00001000
00000000
00000000
00100000
,
00100000
00000000
00000000
01000000
01000000
00000000
10000000
00000000
,
00100000
00000000
00010000
00000000
00001000
00010000
00001000
00010000
,
00000100
00000110
00000001
00000100
,
00001000
00000100
00000001
00000100
,
00001000
00000100
00000001
00000100
,
00001000
00011000
00000000
01010000
,
00000000
01100000
10000000
00100000
,
00010000
00100000
10000000
00100000
,
00010000
00100000
10000000
01000000
,
00010000
00000000
00001000
00000000
00011000
00000000
00010000
00010000
,
00000000
00000100
00000000
00000000
00001000
00000000
00000000
00000001
00000000
00000000
00000100
00000000
00000000
00000000
00000100
00000000
,
00000010
00000000
00000100
00000001
00000010
00000000
00001000
00000000
,
00011000
00000000
00010100
00000000
01001000
00000000
00000000
01000000
,
00020000
00000000
10030000
01000000
00100000
00000000
00100000
01000000
,
00000000
10000000
00000000
00000000
00100000
00000000
00000000
00010000
00000000
00000000
00001000
00000000
00000000
00000000
00010000
00000000
,
00010000
00000000
00000100
00001000
00000100
00000010
00000001
00000000
,
00000100
00001000
00010000
01000000
,
10000000
00000000
00100000
01000000
00200000
00000000
01300000
00000000
,
01000000
00010000
00100000
00000000
00100000
00001000
00010000
00000000
,
00010000
00000100
00001000
00000000
00001000
00000010
00000100
00000000
,
00000001
00000010
00001000
00010000
,
01000000
00000000
22000000
00000000
33000000
00000000
10000000
00100000
,
01000000
00000000
00100000
00010000
00001000
00000000
00010000
00000100
,
00001000
00000010
00000100
00000001
00002002
00000000
00003003
00000000
,
00001000
00000100
00010000
00000000
00001000
01000000
00020000
00000000
,
00230000
00000000
00301000
00010000
00000010
00000000
00000200
00000000
,
00000000
00000301
00000001
00000000
00000000
00000010
00000010
00000000
,
00000000
00001000
00001000
00000000
00000000
00010000
00010000
00000000
,
01000000
10000000
00100000
01000000
,
00010000
10000000
10010000
00200000
,
00000000
10300000
10000000
00000000
00000000
01000000
01000000
00000000
,
00000000
00010000
00010000
00000000
00000000
00001000
00001000
00000000
,
00000010
00000001
00000100
00001000
,
00010000
00001000
00010000
00001000
00100000
00000000
01100000
00000000
,
10000000
01000000
00010000
01000000
,
10000000
00100000
00010000
00100000
,
10000000
01000000
00010000
00011000
,
00000000
00001010
00000000
00000110
,
00000001
00000100
00001000
00000100
,
00000001
00000010
00001000
00000010
,
00000001
00000100
00001000
00010000
,
00011000
00000000
00000000
00000000
00001000
00000000
00001000
00000000
00000000
01000000
00000000
00000000
00010000
00000000
00000000
10000000
,
00000000
01000000
00000000
01000000
00010000
00000000
00001000
00010000
,
00000100
00010000
00011000
00101000
,
00010010
00000000
00000000
00000010
00002000
00000000
00003001
00000100
,
00000010
00000000
00000000
00000000
00000010
00000000
00000100
00000000
00000000
00000001
00000000
00000000
00000010
00000000
00000000
00001000
,
00000000
00010000
00000000
00001000
00001000
00000000
01000000
00010000
,
01000000
00100000
10000000
00000000
01000000
00000000
00010000
00000000
,
00001000
00000100
00000001
00000010
,
00011000
00000000
00000000
00000000
;

//---------------dance-single - ----------------
#NOTES:
     dance-single:
     :
     Hard:
     11:
     0.436549,0.573811,0.179316,0.268974,0.220409,409.000000,385.000000,24.000000,36.000000,0.000000,0.000000,0.436549,0.573811,0.179316,0.268974,0.220409,409.000000,385.000000,24.000000,36.000000,0.000000,0.000000:
0000
0000
0000
0000
,
0000
0000
0000
0000
0000
0000
0000
0000
1000
0000
0000
0100
0000
0000
1000
0000
,
0001
0000
0000
0100
0000
0000
0001
0000
1000
0000
0000
0010
0000
0000
1000
0000
,
0002
0000
0000
0200
0303
0000
0000
0000
0001
0000
0000
0010
0000
0000
0001
0000
,
1000
0000
0000
0010
0000
0000
1000
0000
0001
0000
0000
0100
0000
0000
0001
0000
,
2000
0000
0000
0020
3030
0000
0000
0000
1000
0000
0000
0001
0000
0000
0010
0000
,
0001
0000
0000
1000
0000
0000
0100
0000
1000
0000
0000
0001
0000
0000
0100
0000
,
0020
0000
0000
0200
0330
0000
0000
0000
0100
0000
0001
0000
0010
0000
0100
0000
,
2000
0000
0000
0000
0000
0000
3001
0000
0001
0010
0001
0000
0000
1000
0000
0000
,
0010
0100
0110
0000
1001
0000
0001
0100
,
0010
0000
1000
0010
0100
0000
0001
0010
,
0100
0000
1000
0100
0010
0000
0011
0000
,
0100
0000
1100
0000
1000
0010
0100
0001
,
1000
0010
0100
0000
1001
0000
0001
1000
,
0100
0000
1000
0001
0010
0000
0001
0100
,
0010
0000
1000
0010
0100
0000
0001
0000
,
0010
1000
0100
0010
,
1000
0001
1000
0000
1001
0000
0000
0000
0002
0000
0000
0000
0100
0000
0000
0000
,
1000
0103
2000
0010
,
0001
3010
0002
0103
,
2000
3010
0002
0013
,
2000
3100
0002
2003
,
3001
0010
0100
1000
0010
0100
0001
0000
,
1000
0000
0100
0000
0010
0000
0001
0000
0100
0000
0000
1000
0000
0000
0020
0000
,
0000
0000
0130
0000
1001
0000
1000
1000
,
0000
0010
0000
0000
0001
0000
0000
0100
0000
0000
1000
0000
0000
0000
0100
0000
,
0001
0000
0010
0000
0100
0000
1000
0010
0000
0010
0000
0000
0110
0000
0000
0100
,
0001
0000
0000
1000
0010
0000
0000
0100
0001
0000
0000
0000
0010
0000
0001
0000
,
0010
0100
1000
0010
0110
0000
0100
0001
,
0000
1000
0000
0000
0010
0000
0000
0001
0000
0000
0100
0000
0000
0000
0100
0000
,
1000
0000
0010
0000
0100
0000
0001
0010
0000
0010
0000
0000
2000
0000
0000
0000
,
3200
0000
0302
0000
0023
0000
1030
0100
,
0010
0000
0001
0000
0100
0010
0100
0000
0020
0000
0000
0000
1030
0000
0000
0000
,
1000
0000
0100
0000
1000
0010
0000
0000
0001
0000
0010
0000
0001
0100
0000
0000
,
1000
0000
0100
0000
1000
0010
0000
0000
0001
0000
1000
0001
1000
0000
0010
0000
,
0100
0000
0001
0000
0010
0001
0000
0001
0100
0000
0010
0000
1000
0000
0010
0000
,
0100
0000
0001
0000
0010
0010
0000
0000
0011
0000
0001
0000
1100
0000
1000
0000
,
0010
0100
0101
0001
0100
0010
1010
1000
,
0010
0100
0110
1001
2002
0000
0003
0000
,
0010
0000
0010
0000
3010
0000
0000
0000
0010
0000
0100
0000
0001
1000
0001
0000
,
0000
0010
0000
0000
0100
0000
1000
0000
0010
0000
0000
0000
1001
0000
0000
1000
,
0010
0000
0100
0000
0010
0000
0000
0001
0100
0000
0010
0000
0100
0000
0000
1000
,
0010
0000
0100
0000
0010
0000
0000
0001
0100
0000
0010
0000
0100
0000
0001
0000
,
0010
1000
0010
0100
0001
0100
1000
0010
,
0100
0000
0001
0000
1000
0000
0100
0000
0100
0000
0000
0000
1001
0000
0000
0001
,
0100
0000
1000
0000
0100
0000
0000
1000
0010
0000
0001
0000
0010
0000
0000
0001
,
0100
0000
1000
0000
0100
0000
0000
1000
0010
0000
0001
0000
0010
0000
0100
0000
,
1000
0001
0100
0010
1000
0001
0100
0000
,
0010
0000
0000
0000
1000
0001
1000
0000
1001
0000
0000
0000
0002
0000
0000
0000
,
1000
0010
0103
2000
,
0001
0100
3010
0200
,
0301
0020
1030
0200
,
1300
0020
0031
0200
,
0320
0000
0130
0001
1000
0100
0010
0001
,
0100
0000
0000
0000
0010
0000
1000
0000
0001
0000
0010
0000
0100
0000
0000
1000
,
0000
0002
0000
0000
0103
0000
0110
0000
,
0010
0000
1000
0000
0000
0100
0000
0000
0001
0000
0000
0010
0000
0000
1000
0000
,
0000
0000
0001
0000
0100
0000
0010
0000
1000
0000
0100
0010
0000
0100
0000
0000
,
1001
0000
0000
0010
1000
0000
0000
0100
0001
0000
0000
0010
1000
0000
0000
0000
,
0100
0010
0001
1000
0100
0010
0110
0000
,
0001
0000
0100
0000
0000
1000
0000
0000
0010
0000
0000
0001
0000
0000
0100
0000
,
0000
0000
0100
0000
0001
0000
1000
0000
0100
0000
0010
0100
0000
0010
0000
0000
,
0002
0023
2030
3200
,
0301
0000
1000
0000
0010
0000
0100
0000
0001
1000
0001
0000
0011
0000
0000
0000
,
1100
0000
0000
0000
;

//---------------dance-double - ----------------
#NOTES:
     dance-double:
     :
     Hard:
     11:
     0.413067,0.454267,0.149430,0.328746,0.130751,387.000000,367.000000,20.000000,44.000000,0.000000,0.000000,0.413067,0.454267,0.149430,0.328746,0.130751,387.000000,367.000000,20.000000,44.000000,0.000000,0.000000:
00000000
00000000
00000000
00000000
,
00000000
00000000
00000000
00000000
00000000
00000000
00000000
00000000
00001000
00000000
00000000
00001000
00000000
00000000
00001000
00000000
,
00010000
00000000
00000000
00010000
00000000
00000000
00010000
00000000
01000000
00000000
00000000
01000000
00000000
00000000
01000000
00000000
,
20000000
00000000
00000000
00020000
30030000
00000000
00000000
00000000
00010000
00000000
00000000
00010000
00000000
00000000
00010000
00000000
,
01000000
00000000
00000000
01000000
00000000
00000000
01000000
00000000
00001000
00000000
00000000
00001000
00000000
00000000
00001000
00000000
,
00020000
00000000
00000000
00000200
00030300
00000000
00000000
00000000
00000100
00000000
00000000
00000100
00000000
00000000
00000100
00000000
,
00000010
00000000
00000000
00000010
00000000
00000000
00000010
00000000
00000001
00000000
00000000
00000001
00000000
00000000
00000001
00000000
,
00002000
00000000
00000000
00000020
00003030
00000000
00000000
00000000
00000010
00000000
00010000
00000000
00001000
00000000
00100000
00000000
,
02000000
00000000
00000000
00000000
00000000
00000000
13000000
00000000
10000000
00000000
00100000
00000000
00000000
00010000
00000000
00000000
,
00001000
00010000
00010010
00000000
00101000
00000000
00100000
00010000
,
01000000
00000000
00100000
10000000
01000000
00000000
00100000
00001000
,
00010000
00000000
00100000
10000000
01000000
00000000
01010000
00000000
,
00001000
00000000
00011000
00000000
00000100
00001000
00000100
00000010
,
00000001
00001000
00000100
00000000
00001100
00000000
00001000
00000010
,
00000100
00000000
00000001
00000100
00000010
00000000
00001000
00000100
,
00010000
00000000
00001000
01000000
00010000
00000000
00100000
00000000
,
01000000
10000000
00100000
00010000
,
00001000
00010000
00001000
00000000
00000010
00000000
00000000
00000000
00000002
00000000
00000000
00000000
00000203
00000000
00000000
00000000
,
00002300
00013000
00002000
00023000
,
00230000
10300000
20000000
32000000
,
03020000
00031000
00020000
00032000
,
00003020
00000031
00000002
00002003
,
00003001
00000100
00000001
00001000
00000100
00010000
00001000
00000000
,
01000000
00000000
00010000
00000000
01000000
00000000
00100000
00000000
10000000
00000000
00000000
01000000
00000000
00000000
00200000
00000000
,
00000000
00000000
00301000
00000000
00011000
00000000
00010000
00010000
,
00000000
00000100
00000000
00000000
00001000
00000000
00000000
00000001
00000000
00000000
00000100
00000000
00000000
00000000
00000100
00000000
,
00000010
00000000
00010000
00000000
00001000
00000000
00100000
00000000
01000000
00000000
00000000
00000000
10010000
00000000
00000000
10000000
,
00100000
00000000
00000000
00100000
01000000
00000000
00000000
01000000
00001000
00000000
00000000
00000000
00010000
00000000
00000100
00000000
,
00001000
00000010
00000100
00000001
00001001
00000000
00001000
00000010
,
00000000
00010000
00000000
00000000
00001000
00000000
00000000
00100000
00000000
00000000
01000000
00000000
00000000
00000000
01000000
00000000
,
10000000
00100000
00010000
00001000
00011000
00000000
00100000
00000000
,
00010000
00000000
00001000
00000000
00000010
00000000
00000001
00001000
,
00000100
00000000
00010000
00000000
00001000
00010000
00001000
00000000
00200000
00000000
00000000
00000000
01300000
00000000
00000000
00000000
,
01000000
10000000
00100000
00000000
00010000
00001000
00000100
00000000
,
00000001
00000010
00001000
00000000
00010000
01000000
10000000
00100000
,
01000000
00010000
00110000
00000000
00100000
01000000
00010000
00001000
,
00000010
00000100
00001100
00000000
00001001
00000001
00000100
00001000
,
00010000
00001000
00010000
01000000
10000000
00100000
00010000
00001000
,
00010000
00001000
00000100
00000100
00000202
00000000
00000300
00000000
,
00000010
00000000
00000010
00000000
00000013
00000000
00000000
00000000
00000010
00000000
00001000
00000000
00010000
00001000
00010000
00000000
,
00000000
00100000
00000000
00000000
01000000
00000000
00100000
00000000
01100000
00000000
00000000
00000000
10010000
00000000
00000000
00000000
,
10000000
01000000
00010000
00000000
01000000
00010000
00001000
00000000
,
00010000
00001000
00000100
00000000
00001000
00000100
00000001
00000010
,
00000001
00000100
00001000
00010000
01000000
10000000
00100000
10000000
,
01000000
00010000
00001000
00000010
00000100
00000000
00001001
00000000
,
00000001
00000010
00001000
00000000
00000010
00001000
00010000
00000000
,
00001000
00010000
00100000
10000000
01000000
10000000
00100000
00010000
,
00001000
00000010
00000001
00000100
00000001
00000010
00001000
00000000
,
00010000
00000000
00000000
00000000
00001000
00010000
00001000
00000000
01000000
00000000
00000000
00000000
00200000
00000000
00000000
00000000
,
20300000
32000000
03010000
02000000
,
03020000
00032000
00003010
00000020
,
00000032
00000203
00001300
00000200
,
00002300
00023000
00130000
20000000
,
30020000
00000000
10030000
01000000
00100000
00001000
00010000
00000100
,
00000010
00000000
00000000
00000000
00000001
00000000
00000100
00000000
00000010
00000000
00010000
00000000
00001000
00000000
00000000
01000000
,
00000000
00200000
00000000
00000000
10300000
00000000
10010000
00000000
,
00010000
00000000
00010000
00000000
00000000
01000000
00000000
00000000
00001000
00000000
00000000
00010000
00000000
00000000
00000100
00000000
,
00000000
00000100
00000010
00000001
00000100
00001000
00010000
00000000
,
00011000
00000000
00000000
00000100
00010000
00000000
00000000
00000010
00001000
00000000
00000000
00000100
00010000
00000000
00000000
00000000
,
00001000
00000100
00000001
00000010
00001000
00010000
00011000
00000000
,
00001000
00000000
00100000
00000000
00000000
01000000
00000000
00000000
10000000
00000000
00000000
00100000
00000000
00000000
00010000
00000000
,
00000000
00010000
00001000
00100000
01000000
00010000
00001000
00000010
,
00000002
00000203
00002300
00023000
,
00130000
00000000
10000000
00000000
01000000
00000000
00100000
00000000
00001000
00010000
00001000
00000000
00010000
00000000
00000000
00000000
,
00011000
00000000
00000000
00000000
;
