#VERSION:0.83;
#TITLE:Chrome VOX;
#SUBTITLE:;
#ARTIST:t+pazolite;
#TITLETRANSLIT:;
#SUBTITLETRANSLIT:;
#ARTISTTRANSLIT:;
#GENRE:VARIETY;
#ORIGIN:;
#CREDIT:MUINELIM;
#BANNER:Chrome VOX.png;
#BACKGROUND:Chrome VOX-bg.png;
#JACKET:Chrome VOX-jacket.png;
#CDIMAGE:;
#DISCIMAGE:;
#LYRICSPATH:;
#CDTITLE:;
#MUSIC:Chrome VOX.ogg;
#OFFSET:-0.036000;
#SAMPLESTART:85.206734;
#SAMPLELENGTH:12.718040;
#SELECTABLE:YES;
#DISPLAYBPM:103.000000:205.000000;
#BPMS:0.000=205.000,
31.000=102.500,
32.500=205.000,
65.500=102.500,
77.500=205.000,
109.500=410.000,
111.500=205.000,
143.500=102.500,
159.500=205.000,
211.500=410.000,
218.500=102.500,
220.000=205.000,
220.500=410.000,
222.500=205.000,
318.500=102.500,
326.500=205.000,
334.500=410.000,
347.000=205.000;
#STOPS:65.500=0.293,
66.000=0.293,
72.500=0.293,
73.000=0.293,
75.500=0.293,
76.000=0.293,
77.500=0.073,
77.750=0.073,
78.000=0.146,
191.500=0.146,
192.500=0.146,
194.500=0.146,
195.500=0.146,
197.500=0.146,
198.500=0.146,
200.500=0.146,
201.500=0.146,
346.500=0.220;
#DELAYS:;
#WARPS:;
#TIMESIGNATURES:0.000=4=4;
#TICKCOUNTS:0.000=4;
#COMBOS:0.000=1;
#SPEEDS:0.000=1.000=0.000=0;
#SCROLLS:0.000=1.000;
#FAKES:;
#LABELS:0.000=Song Start;
#BGCHANGES:;
#KEYSOUNDS:;
#ATTACKS:
;

//---------------dance-single - ----------------
#NOTEDATA:;
#CHARTNAME:;
#STEPSTYPE:dance-single;
#DESCRIPTION:;
#CHARTSTYLE:;
#DIFFICULTY:Hard;
#METER:16;
#RADARVALUES:0.799898,1.070395,0.561630,0.782879,0.497809,658.000000,592.000000,66.000000,92.000000,0.000000,0.000000,0.000000,0.000000,0.000000,0.799898,1.070395,0.561630,0.782879,0.497809,658.000000,592.000000,66.000000,92.000000,0.000000,0.000000,0.000000,0.000000,0.000000;
#CREDIT:MILEN;
#DISPLAYBPM:205.000000;
#NOTES:
0000
0000
0000
0000
,
0000
0000
0000
0000
,
0000
0000
0000
0000
,
0000
0000
0000
0000
,
0000
0000
0000
0000
0000
0000
1000
1000
,
0001
0100
0001
0000
1000
0000
0010
0000
0210
0000
0300
0000
0001
0000
0001
0000
,
1000
0010
1000
0000
0001
0000
0100
0000
0120
0000
0030
0000
1000
0000
1000
0000
,
0010
0100
0010
0000
0100
0000
0001
0000
0010
0000
0100
0000
2002
0000
0000
0000
,
3003
0000
1001
0000
0000
0000
0010
0000
0010
0000
0001
0100
0001
0000
0010
0000
,
0010
0000
0100
1000
0100
0000
0010
0000
0001
0000
0100
0000
0010
0000
1000
0000
,
0000
0000
1100
0000
0000
0000
0100
0000
0100
0000
1000
0010
1000
0000
0001
0000
,
0010
0100
1000
1010
0000
0101
0000
0011
,
0000
0000
1100
0000
0000
0000
1000
0000
1000
0000
0010
0100
0001
1000
0020
0000
,
0000
0000
0230
0000
0000
0000
0301
0000
0001
0000
0010
0100
0010
0000
0100
0000
,
1000
1100
0000
1000
1000
0010
0010
0100
,
0100
0000
0001
0000
0001
0000
1000
0100
0000
0000
0100
0010
0000
0000
0010
0001
,
0000
0000
0001
0100
0000
0000
0110
0000
1001
0000
0001
0000
0100
0000
0010
0000
,
1000
0001
0100
1000
0010
0001
1000
0010
,
0100
0101
1010
1000
0100
0010
0001
0011
,
1100
0000
1000
0000
0001
0000
0100
0010
0110
0000
0010
1000
0100
0000
0010
0000
,
0010
0000
0100
0010
0001
0000
0010
0000
0010
0000
0001
0100
0000
0000
0100
0010
,
0000
0000
0010
1000
0000
0000
1000
0100
0000
0000
0010
0100
1000
0000
0100
0000
,
0100
0000
0010
0100
1000
0000
0100
0000
0100
0000
0010
0100
0000
0000
0100
0010
,
0000
0000
0010
0001
0000
0000
0001
0100
0000
0000
0010
0000
0010
0000
1000
0010
,
0100
0000
0001
0000
0001
0000
0010
0100
1000
0000
0010
0000
0010
0000
0100
0001
,
0100
0001
1000
0010
1000
0010
0200
0000
0000
0000
0301
0010
0001
0000
1000
0010
,
1000
0000
0001
0100
0001
0000
1000
0100
1000
0100
0020
0000
0000
0000
0032
0000
,
0000
0000
2000
0000
3003
0000
1001
0000
0000
0000
0000
0000
0000
0000
1000
0010
,
0100
0000
0010
1000
0100
0000
1000
0010
0200
0000
0301
0000
0010
0000
0000
0000
,
0011
0000
0000
0000
0001
0000
0100
0000
0000
0000
2020
0000
3030
0000
0010
0100
,
0001
0000
0010
0001
0100
0000
0010
0100
0001
0000
0020
0000
0130
0000
0000
0000
,
1100
0000
0000
1010
0000
0000
0202
0000
0303
0000
2002
0000
3003
0000
1000
0100
,
0010
0000
0100
0000
0010
0000
0100
0010
0001
0000
0100
0000
0010
0000
1000
0010
,
0100
0000
0001
0100
0010
0000
1000
0100
0010
0000
0022
0000
0033
0000
0001
0100
,
0001
0000
1000
0100
1000
0000
0001
0010
0001
0000
1000
0010
1000
0000
0200
0000
,
0320
0000
0032
0000
2003
0000
3020
0000
0230
0000
0302
0000
2003
0000
3100
0100
,
0010
0001
0100
0000
0010
1000
0000
1100
0000
0010
0001
0000
0101
0000
0000
0100
,
0001
0010
0100
0000
0010
0001
0000
1000
0010
0100
1000
0100
0002
0000
0000
0013
,
0100
1000
0010
0000
0100
0001
0000
0011
0000
0100
1000
0000
1010
0000
0000
0010
,
1000
0100
0001
0100
0010
0001
0000
1001
0000
0010
0100
0000
0110
0000
1020
0000
,
0000
0001
0000
0000
1000
1000
0000
0001
,
0000
0001
0000
0000
1000
1030
0000
1200
,
0000
0001
0000
0000
1000
1000
0000
0001
,
0000
0001
0000
0000
1000
1300
0000
1020
,
0000
0031
0000
0201
0000
1300
0000
2010
,
0000
3200
0000
0302
0000
0023
0000
0130
,
0010
0100
0100
0101
0000
0010
1010
0000
,
1000
0000
0001
0000
0200
0000
0000
0000
0010
0000
0310
0000
0000
0000
2020
3030
,
0000
0000
2200
3300
0000
0000
0101
0000
0000
0000
0022
0033
0000
0000
0202
0303
,
0000
0000
1100
0000
0000
0000
2020
3030
0000
0000
0022
0033
0000
0000
0101
0000
,
0000
0000
2200
3300
0000
0000
0202
0303
0000
0000
0011
0000
0000
0000
0001
0000
,
0001
0100
0100
0010
0010
1000
1000
0100
,
0100
0010
0010
0001
0001
1000
1000
0010
,
0100
0010
0100
0010
0100
0010
0100
0010
,
0100
0000
0010
0000
0100
0000
0010
0000
0100
0000
0020
0000
1030
0001
1000
0000
,
0010
0110
0000
0000
0000
0110
1000
0200
,
0000
0000
0310
0000
0001
0100
0000
0100
0010
0000
0100
0000
0001
0000
0020
0000
,
0000
0000
0130
0000
1000
0010
0000
0010
0100
0000
0001
0000
2000
0000
3010
0000
,
0002
0000
0013
0000
2000
0000
3100
0000
0002
0000
0103
0000
1000
0010
0100
0000
,
0001
0010
0100
0000
1000
0000
2020
0000
3030
0000
0010
0100
0001
0000
0010
0000
,
0001
0000
0100
0010
1000
0000
0100
0000
1000
0000
0100
0010
0001
0000
0100
0000
,
0001
0000
0010
0100
1000
0000
0010
0000
1000
0000
0010
0100
0001
0000
0010
0100
,
1000
0000
0010
0100
0001
0000
1000
0100
0020
0000
0000
0000
0031
0000
0100
0000
,
1010
0000
0001
0202
0303
0110
0020
1000
,
0100
2030
0000
3001
0021
0000
0230
0000
,
1300
1010
0000
0220
0000
0330
0200
0001
,
0010
0302
0000
1003
1200
0000
0310
0001
,
0100
1000
0100
0220
0000
0330
0020
1000
,
0001
2030
0000
3100
0120
0000
0032
0000
,
1003
1010
0000
0202
0000
0303
0001
0010
,
1000
0010
0100
1000
0020
0000
0032
0000
,
0203
0000
2300
0000
0000
0000
0002
0000
3003
0000
0001
0010
0100
0000
1000
0000
,
0010
0000
0100
0001
0010
0000
0100
0000
0010
0000
0001
0100
1000
0000
0100
0000
,
0010
0000
1000
0100
0010
0000
0100
1000
0010
0000
0100
0001
1000
0000
0010
0000
,
0100
0000
1000
0100
0001
0000
0010
0000
0100
0000
1000
0010
0100
0000
1000
0100
,
0010
0000
0001
0010
0100
0000
0001
1000
0100
0000
0010
0001
0010
0001
0100
0000
,
0010
0000
1000
0000
0001
0000
0010
0000
0100
0000
1000
0010
1000
0010
0100
0000
,
0001
0000
1000
0000
0100
0000
0010
0000
0001
0000
1000
0010
1000
0010
1000
0010
,
1000
0010
0100
0001
0100
0001
0100
0001
0100
0001
1000
0010
0100
0001
1000
0100
,
0010
0001
0200
0000
0000
0000
0020
0000
0330
0000
2002
0000
0000
0000
0000
0000
,
0000
0000
0000
0000
,
0000
0000
0000
0000
,
0000
0000
0000
0000
,
0000
0000
0000
0000
0000
3003
0000
0000
,
0000
0000
0000
0000
,
0000
0000
0000
0000
,
0000
0000
0000
1001
;

//---------------dance-single - ----------------
#NOTEDATA:;
#CHARTNAME:;
#STEPSTYPE:dance-single;
#DESCRIPTION:;
#CHARTSTYLE:;
#DIFFICULTY:Beginner;
#METER:6;
#RADARVALUES:0.190857,0.271029,0.025529,0.042548,0.000000,157.000000,154.000000,3.000000,5.000000,0.000000,0.000000,0.000000,0.000000,0.000000,0.190857,0.271029,0.025529,0.042548,0.000000,157.000000,154.000000,3.000000,5.000000,0.000000,0.000000,0.000000,0.000000,0.000000;
#CREDIT:MILEN;
#DISPLAYBPM:103.000000:205.000000;
#NOTES:
// measure 0
0000
0000
0000
0000
,  // measure 1
0000
0000
0000
0000
,  // measure 2
0000
0000
0000
0000
,  // measure 3
0000
0000
0000
0000
,  // measure 4
0000
0000
0000
1000
,  // measure 5
1000
0000
0000
0001
,  // measure 6
0001
0000
0000
1000
,  // measure 7
0000
0001
0000
0100
,  // measure 8
0000
0100
0000
0100
0000
0000
0000
0010
,  // measure 9
0000
0000
0000
1000
0000
0000
0000
0001
,  // measure 10
0000
0000
0000
0010
0000
0000
0000
0100
,  // measure 11
0000
0000
0000
1000
0000
0000
0000
0000
,  // measure 12
0000
0000
0000
0010
0000
0010
0000
0010
,  // measure 13
0000
0000
0000
0100
0000
0000
0000
0001
,  // measure 14
0000
0000
0000
1000
0000
0000
0000
0100
,  // measure 15
0000
0000
0000
0010
0000
0000
0000
0001
,  // measure 16
0000
0000
0000
1000
1000
0000
0000
0000
,  // measure 17
0000
0001
0000
0100
0000
0010
0000
1000
,  // measure 18
0000
0001
0001
0000
0000
0000
0000
1000
,  // measure 19
1000
0000
0000
0000
0000
0010
0000
0000
,  // measure 20
0000
0010
0000
0000
0000
0100
0000
0000
,  // measure 21
0000
0100
0000
0000
0000
0001
0000
0000
,  // measure 22
0000
1000
0000
0000
0000
0100
0000
0000
,  // measure 23
0000
0010
0000
0000
0000
0001
0000
0000
,  // measure 24
0000
1000
0000
0000
0000
0001
0000
1000
,  // measure 25
0000
0001
0000
1000
0000
0002
0000
0000
,  // measure 26
0000
0000
0000
0003
0000
0000
0000
1000
,  // measure 27
0000
1000
0000
0000
0000
0000
0000
0100
,  // measure 28
0000
0000
0000
0100
0000
0000
0000
0100
,  // measure 29
0000
0000
0000
0100
0000
0000
0000
0010
,  // measure 30
0000
0000
0000
0010
0000
0010
0000
0000
,  // measure 31
0000
0001
0000
1000
0000
0000
0000
0010
,  // measure 32
0000
0000
0000
0010
0000
0000
0000
0100
,  // measure 33
0000
0000
0000
0100
0000
0000
0000
0010
,  // measure 34
0000
0010
0000
0010
0000
0010
0000
0020
,  // measure 35
0000
0000
0000
0000
0000
0030
0000
0010
,  // measure 36
0000
0000
0000
1000
0000
0000
0000
0100
,  // measure 37
0000
0000
0000
0001
0000
0000
0000
0010
,  // measure 38
0000
0000
0000
1000
0000
0000
0000
0100
,  // measure 39
0000
0000
0000
0010
0000
0010
0000
0010
,  // measure 40
0000
0000
0000
0000
0000
0000
0000
0100
,  // measure 41
0000
0000
0000
0000
0000
0000
0000
0010
,  // measure 42
0000
0000
0000
0000
0000
0000
0000
0100
,  // measure 43
0000
0000
0000
0000
0000
0000
0000
0010
,  // measure 44
0000
0000
0000
0100
0000
0000
0000
0010
,  // measure 45
0000
0000
0000
0100
0000
0000
0000
0010
,  // measure 46
0000
0000
0000
1000
0000
0000
0000
0001
,  // measure 47
0000
0000
0000
0100
0000
0000
0000
0010
,  // measure 48
0000
0010
0000
0000
0000
0100
0000
0100
,  // measure 49
0000
0000
0000
0001
0000
0001
0000
0000
,  // measure 50
0000
1000
0000
1000
0000
0000
0000
2002
,  // measure 51
0000
0000
0000
0000
,  // measure 52
0000
0000
0000
0000
,  // measure 53
0000
0000
0000
0000
,  // measure 54
0000
0000
0000
0000
0000
3003
0000
0000
,  // measure 55
0000
0000
0000
0000
0000
0010
0000
0000
,  // measure 56
0000
1000
0000
0000
0000
0100
0000
0000
,  // measure 57
0000
0010
0000
0000
0000
0001
0000
0000
,  // measure 58
0000
1000
0000
0000
0000
0010
0000
0000
,  // measure 59
0000
0100
0000
0100
0000
0001
0000
0000
,  // measure 60
0000
1000
0000
0000
0000
0001
0000
0000
,  // measure 61
0000
1000
0000
0000
0000
0001
0000
1000
,  // measure 62
0000
0001
0000
2000
0000
3000
0000
0001
,  // measure 63
0000
0001
0000
1001
0000
0000
0000
0100
,  // measure 64
0000
0000
0000
0010
0000
0000
0000
1000
,  // measure 65
0000
0000
0000
0001
0000
0000
0000
0010
,  // measure 66
0000
0000
0000
0100
0000
0000
0000
1000
,  // measure 67
0000
0000
0000
0010
0000
0000
0000
0100
,  // measure 68
0000
0000
0000
0001
0000
0000
0000
1000
,  // measure 69
0000
0000
0000
0100
0000
0000
0000
0010
,  // measure 70
0000
0000
0000
0001
0000
0000
0000
0100
,  // measure 71
0000
0100
0000
0100
0000
0000
0000
0010
,  // measure 72
0000
0000
0000
1000
0000
0000
0000
0001
,  // measure 73
0000
0000
0000
0100
0000
0000
0000
0010
,  // measure 74
0000
0000
0000
1000
0000
0000
0000
0001
,  // measure 75
0000
0000
0000
0100
0000
0000
0000
1000
,  // measure 76
0000
0000
0000
0010
0000
0000
0000
0001
,  // measure 77
0000
0000
0000
0100
0000
0000
0000
1000
,  // measure 78
0000
0000
0000
0010
0000
0001
0000
0100
,  // measure 79
0000
0100
0000
0000
0000
1001
0000
0000
;

//---------------dance-single - ----------------
#NOTEDATA:;
#CHARTNAME:;
#STEPSTYPE:dance-single;
#DESCRIPTION:;
#CHARTSTYLE:;
#DIFFICULTY:Easy;
#METER:10;
#RADARVALUES:0.362264,0.553653,0.204229,0.093605,0.000000,298.000000,274.000000,24.000000,11.000000,0.000000,0.000000,0.000000,0.000000,0.000000,0.362264,0.553653,0.204229,0.093605,0.000000,298.000000,274.000000,24.000000,11.000000,0.000000,0.000000,0.000000,0.000000,0.000000;
#CREDIT:MILEN;
#DISPLAYBPM:103.000000:205.000000;
#NOTES:
0000
0000
0000
0000
,
0000
0000
0000
0000
,
0000
0000
0000
0000
,
0000
0000
0000
0000
,
0000
0000
0000
1000
,
0001
1000
0000
0001
,
1000
0001
0000
1000
,
0001
1000
0001
1001
,
0000
0100
0000
0100
0000
0001
0000
0010
,
0000
0100
0000
1000
0000
0010
0000
0100
,
0000
0100
0000
0010
0000
1000
0000
0100
,
0000
0010
0000
0001
0000
0100
0000
0010
,
0000
0000
0000
0100
0000
0010
0000
0220
,
0000
0330
0000
0100
0000
0001
0000
1000
,
0000
0010
0000
0100
0000
0010
0000
1000
,
0000
0001
0000
0100
0000
0100
0000
0100
,
0000
0100
0000
1000
1000
0100
0000
0010
,
0000
0001
0000
1000
0000
0100
0000
0010
,
0000
0001
0001
0010
0000
0100
0000
1000
,
1000
0100
0000
0020
0000
0031
0000
0001
,
0000
0100
0000
0100
0000
0010
0000
0010
,
0000
1000
0000
1000
0000
0001
0000
0001
,
0000
0010
0000
0010
0000
0100
0000
0100
,
0000
1000
0000
1000
0000
1010
0000
0000
,
0000
0011
0000
0000
0000
1100
0000
0000
,
0000
0101
0000
0000
0000
1001
0000
0001
,
0000
1000
0000
0001
0000
0000
0000
0100
,
0000
0100
0000
0010
0000
0000
0000
0100
,
0000
0010
0000
1000
0000
0100
0000
0000
,
0000
1100
0000
0001
0000
1100
0000
0010
,
0000
0100
0000
0001
0000
0010
0000
0000
,
0000
0011
0000
1000
0000
0011
0000
0001
,
0000
0010
0000
0100
0000
1000
0000
0001
,
0000
0100
0000
0010
0000
1000
0000
0001
,
0000
0001
0000
1000
0000
1000
0000
2002
,
0000
0000
0000
0000
0000
3003
0000
0010
,
0010
0010
0000
1000
0100
0010
0001
0000
,
0100
0100
0000
0001
0010
0100
1000
0000
,
0010
0100
0000
0001
1000
0100
0010
0000
,
0001
0010
0100
1000
0010
0100
0110
0000
,
0000
1000
0000
0100
0000
0001
0000
0100
,
0000
1000
0000
0100
0000
0001
0000
0000
,
0000
1000
0000
0010
0000
0001
0000
0010
,
0000
1000
0000
0010
0000
0001
0000
0000
,
0000
1000
0000
0100
0000
0001
0000
1000
,
0000
0010
0000
0001
0000
1000
0000
0000
,
0000
0001
0000
0100
0000
1000
0000
0001
,
0000
0010
0000
1000
0000
0001
0000
0100
,
0000
0100
0000
0000
0000
0010
0000
0010
,
0000
0000
0000
1000
0000
1000
0000
0000
,
0000
0001
0000
0001
0000
0000
0000
2002
,
0000
0000
0000
0000
,
0000
0000
0000
0000
,
0000
0000
0000
0000
,
0000
0000
0000
0000
0000
3003
0000
0000
,
0000
1001
0000
0000
0000
0001
0000
0100
,
0000
0010
0000
1000
0000
0100
0000
0010
,
0000
0001
0000
1000
0000
0010
0000
0110
,
0000
1000
0000
1001
0000
0100
0000
0110
,
0000
0001
0000
1001
0000
0000
0010
0000
,
0100
0010
1000
0001
,
0010
0100
1000
0010
,
0100
0000
0001
0000
0100
0000
0010
0010
,
0010
0000
1000
0100
0000
0010
0000
0001
,
0000
0101
0000
0000
0010
0000
1000
0000
,
0100
0010
0000
0100
0000
0000
0000
1000
,
0000
1010
0000
0000
0100
0000
0001
0000
,
0010
0100
0000
0010
0000
0000
0000
0001
,
0000
1001
0000
0000
0010
0000
0100
0000
,
0001
1000
0000
0100
0000
0000
0000
0010
,
0000
0001
0000
0100
0000
0010
0000
1000
,
0000
0002
0000
2003
0000
3001
0000
0100
,
0000
0010
0000
1000
0000
0001
0000
0010
,
0000
0100
0000
1000
0000
0010
0000
0100
,
0000
0001
0000
1000
0000
0100
0000
0010
,
0000
0001
0000
1000
0000
0010
0000
0010
,
0000
0010
0000
0010
0000
0001
0000
0001
,
0000
0001
0000
0001
0000
0100
0000
0100
,
0000
1000
0000
1000
0000
0010
0100
0010
,
0100
0010
0000
0100
0000
2002
0000
0000
,
0000
0000
0000
0000
,
0000
0000
0000
0000
,
0000
0000
0000
0000
,
0000
0000
0000
0000
0000
3003
0000
0000
,
0000
0000
0000
0000
,
0000
0000
0000
0000
,
0000
0000
0000
1001
;

//---------------dance-single - ----------------
#NOTEDATA:;
#CHARTNAME:;
#STEPSTYPE:dance-single;
#DESCRIPTION:;
#CHARTSTYLE:;
#DIFFICULTY:Medium;
#METER:14;
#RADARVALUES:0.623629,0.885844,0.638216,0.306344,0.068076,513.000000,438.000000,75.000000,36.000000,0.000000,0.000000,0.000000,0.000000,0.000000,0.623629,0.885844,0.638216,0.306344,0.068076,513.000000,438.000000,75.000000,36.000000,0.000000,0.000000,0.000000,0.000000,0.000000;
#CREDIT:MILEN;
#DISPLAYBPM:103.000000:205.000000;
#NOTES:
0000
0000
0000
0000
,
0000
0000
0000
0000
,
0000
0000
0000
0000
,
0000
0000
0000
0000
,
0000
0000
0000
0000
0000
0000
1000
0010
,
1000
0100
0010
0001
0100
0000
1000
0010
,
1000
0100
0010
0001
0100
0000
1000
0010
,
1000
0100
0010
0001
0100
0000
0220
0000
,
0330
0110
0000
0010
1000
0100
0000
0010
,
0001
0100
0000
0010
1000
0001
0100
0010
,
0000
0010
0000
1000
0100
0010
0000
0001
,
0010
0100
0000
1000
0010
0100
0001
1000
,
0010
0100
0000
0001
1000
0001
1000
2002
,
0000
3003
0000
0001
0010
0100
1000
0010
,
0000
0110
0000
0100
0001
0100
0010
1000
,
0010
0100
0001
2000
0000
3200
0000
0320
,
0000
0032
0000
0103
0100
0001
0010
0100
,
1000
0010
0100
0001
1000
0100
0010
0001
,
1000
0010
0010
0100
0001
0010
0100
1000
,
1000
0000
0010
0000
0100
0000
0001
0001
0001
0000
0011
0000
0000
0000
1000
0000
,
0000
1010
0000
0001
0000
0101
0000
1100
,
0000
0101
0000
1001
0000
1100
0000
0001
,
0000
0101
0000
1000
0000
1010
0000
0011
,
0000
1010
0000
1001
0000
0001
0010
0100
,
0000
1000
0010
0100
0000
0001
0010
0100
,
1000
0010
0100
0001
0000
1000
0100
0010
,
0001
0100
0010
1000
0001
0100
0000
0110
,
0000
0110
0000
1001
0000
0000
0000
0001
,
0100
0010
0100
1000
0100
0010
1000
0000
,
1100
0000
0010
0001
0000
0202
0303
1000
,
0100
0010
0100
0001
0100
0010
0001
0000
,
0100
0000
0000
0100
0000
0000
1010
0000
0000
0000
0101
0000
0000
0000
0010
0000
,
1000
0100
0100
0010
0001
0100
0100
0010
,
1000
0001
0010
0100
1000
0110
0000
0001
,
0100
1000
0100
0001
0100
1000
0100
0002
,
0000
0000
0023
0000
0000
0000
0230
0000
0000
0000
2300
0000
0000
0000
3010
0100
,
0001
0100
0010
0000
1000
0000
0100
0000
0010
0000
0001
0000
0011
0000
0000
0100
,
0010
1000
0010
0000
0100
0000
0001
0000
0010
0000
0100
0000
1100
0000
0000
0010
,
1000
0001
0100
0000
1000
0000
0010
0000
0001
0000
1000
0000
1001
0000
0000
0010
,
0100
0001
0100
0010
0100
0001
0000
0010
0000
0100
1000
0000
1010
0000
0101
0000
,
0000
0101
0000
0000
0001
1000
0000
1100
,
0000
1100
0000
0000
1000
0001
0000
0011
,
0000
0011
0000
0000
0001
1000
0000
1010
,
0000
1010
0000
0000
1000
0001
0000
0010
,
0100
1000
0000
0001
0010
0100
0000
1000
,
0010
0100
0001
0100
0010
2000
0000
0000
,
3100
0010
0001
0100
0000
0010
1000
0000
,
0001
0020
0200
0000
0330
0110
0000
1100
,
0000
0101
0000
1100
0000
1010
0000
0011
,
0000
1010
0000
0101
0000
1100
0000
0101
,
0000
1010
0000
0011
0000
1010
0000
1000
,
0000
0100
0000
0010
0000
0001
0000
1000
,
0000
0010
0000
0100
0000
0001
0000
0010
,
0000
0100
0000
0010
0000
0100
0000
0010
,
0000
0100
0000
1000
0000
2002
0000
3003
,
0000
1001
0000
0000
0000
0001
0100
0110
,
0000
0000
0010
0000
0000
1000
0000
0000
0100
0000
0010
0000
0001
0000
0101
0000
,
0000
0000
0100
0000
0000
0010
0000
0000
1000
0000
0001
0000
0010
0000
1000
0000
,
0010
0001
0010
0100
1000
0100
0001
0100
,
1000
0001
0100
0020
0000
0130
0110
0000
,
1010
0011
0101
1100
,
0011
0000
1010
0000
1001
1000
0100
0010
,
0001
1000
0100
0010
0002
0000
0103
0010
,
0100
0000
0010
0220
0030
0000
0301
0100
,
1000
0010
0000
1000
0100
0000
0001
0000
,
0010
0100
0000
0220
0330
0000
1000
0010
,
0001
0100
0000
0001
0010
0000
1000
0100
,
0010
0001
1000
2200
3300
0000
0001
0010
,
1000
0100
0000
1000
0010
0000
0001
0000
,
0100
0010
0000
0220
0330
0000
0001
0010
,
1000
0100
1000
0010
0002
0000
0203
0000
,
0320
2030
0000
3001
0000
0011
0000
1000
,
0000
1010
0000
0001
0000
0101
0000
1000
,
0000
1100
0100
0010
0000
0011
0000
0100
,
0000
0110
0000
1000
0000
1100
0000
0001
,
0000
1001
0010
0100
0000
0100
0001
0010
,
1000
0010
0001
0100
0010
1000
0100
0001
,
0100
1000
0010
0100
0001
0010
1000
0001
,
0100
1000
0010
0001
1000
0100
0001
0010
,
0200
0000
0000
0310
0000
2002
0000
0000
,
0000
0000
0000
0000
,
0000
0000
0000
0000
,
0000
0000
0000
0000
,
0000
0000
0000
0000
0000
3003
0000
0000
,
0000
0000
0000
0000
,
0000
0000
0000
0000
,
0000
0000
0000
1001
;

//---------------dance-double - ----------------
#NOTEDATA:;
#CHARTNAME:;
#STEPSTYPE:dance-double;
#DESCRIPTION:;
#CHARTSTYLE:;
#DIFFICULTY:Easy;
#METER:11;
#RADARVALUES:0.353754,0.479832,0.204229,0.076586,0.000000,291.000000,267.000000,24.000000,9.000000,0.000000,0.000000,0.000000,0.000000,0.000000,0.353754,0.479832,0.204229,0.076586,0.000000,291.000000,267.000000,24.000000,9.000000,0.000000,0.000000,0.000000,0.000000,0.000000;
#CREDIT:MILEN;
#DISPLAYBPM:103.000000:205.000000;
#NOTES:
00000000
00000000
00000000
00000000
,
00000000
00000000
00000000
00000000
,
00000000
00000000
00000000
00000000
,
00000000
00000000
00000000
00000000
,
00000000
00000000
00000000
00001000
,
00010000
00001000
00000000
00010000
,
00001000
00010000
00000000
00001000
,
00010000
00001000
00010000
00011000
,
00000000
00010000
00000000
00010000
00000000
00001000
00000000
00100000
,
00000000
00010000
00000000
01000000
00000000
00100000
00000000
10000000
,
00000000
10000000
00000000
01000000
00000000
00100000
00000000
00001000
,
00000000
00010000
00000000
00000100
00000000
00000010
00000000
00000001
,
00000000
00000001
00000000
00000100
00000000
00001000
00000000
00022000
,
00000000
00033000
00000000
00010000
00000000
00001000
00000000
00010000
,
00000000
01000000
00000000
10000000
00000000
00100000
00000000
01000000
,
00000000
00010000
00000000
00100000
00000000
00001000
00000000
00010000
,
00000000
00011000
00000000
00001000
00001000
00010000
00000000
01000000
,
00000000
10000000
00000000
00100000
00000000
00010000
00000000
00001000
,
00000000
00010000
00010000
00001000
00000000
00000100
00000000
00000001
,
00000001
00000010
00000000
00002000
00000000
00013000
00000000
00010000
,
00000000
00001000
00000000
00001000
00000000
00100000
00000000
00100000
,
00000000
01000000
00000000
01000000
00000000
00010000
00000000
00010000
,
00000000
00001000
00000000
00001000
00000000
00000010
00000000
00000010
,
00000000
00000100
00000000
00000100
00000000
00001001
00000000
00000000
,
00000000
00011000
00000000
00000000
00000000
10010000
00000000
00000000
,
00000000
00011000
00000000
00000000
00000000
00001000
00000000
00010000
,
00000000
00100000
00000000
01000000
00000000
00000000
00000000
00001000
,
00000000
00010000
00000000
00011000
00000000
00000000
00000000
00001000
,
00000000
00010000
00000000
00100000
00000000
10000000
00000000
00000000
,
00000000
10000000
00000000
01000000
00000000
11000000
00000000
10000000
,
00000000
01000000
00000000
00010000
00000000
00001000
00000000
00000000
,
00000000
00000010
00000000
00000001
00000000
00000011
00000000
00000010
,
00000000
00001000
00000000
00010000
00000000
00100000
00000000
00010000
,
00000000
00001000
00000000
00000100
00000000
00001000
00000000
00010000
,
00000000
01000000
00000000
00010000
00000000
00001000
00000000
00022000
,
00000000
00000000
00000000
00000000
00000000
00033000
00000000
00010000
,
00001000
00010000
00000000
01000000
00000000
00100000
00000000
00001000
,
00010000
00001000
00000000
00000010
00000000
00000100
00000000
00010000
,
00001000
00010000
00000000
00100000
00000000
10000000
00000000
01000000
,
00010000
00001000
00000000
00010000
00001000
00000010
00000001
00000100
,
00000000
00000010
00000000
00010000
00000000
00000000
00000000
00001000
,
00000000
01000000
00000000
00100000
00000000
00000000
00000000
00010000
,
00000000
00001000
00000000
00000100
00000000
00000000
00000000
00001000
,
00000000
00010000
00000000
00100000
00000000
00000000
00000000
10000000
,
00000000
01000000
00000000
00100000
00000000
00000000
00000000
00001000
,
00000000
00000100
00000000
00000010
00000000
00000000
00000000
00000001
,
00000000
00000010
00000000
00000100
00000000
00000000
00000000
00010000
,
00000000
00100000
00000000
01000000
00000000
10000000
00000000
00100000
,
00000000
00100000
00000000
00000000
00000000
00010000
00000000
00010000
,
00000000
00000000
00000000
00000010
00000000
00000010
00000000
00000000
,
00000000
00001000
00000000
00001000
00000000
00000000
00000000
00022000
,
00000000
00000000
00000000
00000000
,
00000000
00000000
00000000
00000000
,
00000000
00000000
00000000
00000000
,
00000000
00000000
00000000
00000000
00000000
00033000
00000000
00000000
,
00000000
00011000
00000000
00000000
00000000
00001000
00000000
00010000
,
00000000
00100000
00000000
00010000
00000000
00001000
00000000
00010000
,
00000000
01000000
00000000
00010000
00000000
00001000
00000000
00011000
,
00000000
00010000
00000000
00010100
00000000
00000100
00000000
00001100
,
00000000
00001000
00000000
00001001
00000000
00000000
00000001
00000000
,
00000001
00000010
00000010
00001000
,
00001000
00010000
00010000
00100000
,
00100000
00000000
10000000
00000000
10000000
00000000
01000000
00100000
,
00010000
00000000
00000000
00011000
00000000
00001000
00000000
00010000
,
00000000
00100000
00000000
00000000
10000000
00000000
01000000
00000000
,
00010000
00010000
00000000
00011000
00000000
00010000
00000000
00001000
,
00000000
00000010
00000000
00000000
00000001
00000000
00000100
00000000
,
00001000
00001000
00000000
00011000
00000000
00001000
00000000
00100000
,
00000000
01000000
00000000
00000000
10000000
00000000
00100000
00000000
,
00010000
00010000
00000000
00011000
00000000
00000000
00000000
00001000
,
00000000
00000100
00000000
00000001
00000000
00000010
00000000
00000100
,
00000000
00010000
00000000
00011000
00000000
00001000
00000000
00100000
,
00000000
01000000
00000000
10000000
00000000
00100000
00000000
00010000
,
00000000
01000000
00000000
00010000
00000000
00100000
00000000
01000000
,
00000000
00001000
00000000
00000100
00000000
00000001
00000000
00000010
,
00000000
00000100
00000000
00010000
00000000
00001000
00000000
00000010
,
00000000
00000001
00000000
00000100
00000000
00001000
00000000
00000010
,
00000000
00001000
00000000
00000100
00000000
00000001
00000000
00000010
,
00000000
00001000
00000000
00100000
00000000
10000000
00000000
00100000
,
00000000
01000000
00000000
00010000
00000000
00022000
00000000
00000000
,
00000000
00000000
00000000
00000000
,
00000000
00000000
00000000
00000000
,
00000000
00000000
00000000
00000000
,
00000000
00000000
00000000
00000000
00000000
00033000
00000000
00000000
,
00000000
00000000
00000000
00000000
,
00000000
00000000
00000000
00000000
,
00000000
00000000
00000000
00011000
;

//---------------dance-double - ----------------
#NOTEDATA:;
#CHARTNAME:;
#STEPSTYPE:dance-double;
#DESCRIPTION:;
#CHARTSTYLE:;
#DIFFICULTY:Medium;
#METER:13;
#RADARVALUES:0.594453,0.848934,0.595669,0.221248,0.068076,489.000000,419.000000,70.000000,26.000000,0.000000,0.000000,0.000000,0.000000,0.000000,0.594453,0.848934,0.595669,0.221248,0.068076,489.000000,419.000000,70.000000,26.000000,0.000000,0.000000,0.000000,0.000000,0.000000;
#CREDIT:MILEN;
#DISPLAYBPM:103.000000:205.000000;
#NOTES:
00000000
00000000
00000000
00000000
,
00000000
00000000
00000000
00000000
,
00000000
00000000
00000000
00000000
,
00000000
00000000
00000000
00000000
,
00000000
00000000
00000000
00000000
00000000
00000000
00001000
00010000
,
00001000
00000000
00100000
00000000
01000000
00000000
00010000
00001000
,
00010000
00000000
00000100
00000000
00000010
00000000
00001000
00010000
,
00001000
00100000
01000000
20020000
,
30030000
10010000
00000000
10000000
01000000
00000000
00000000
01000000
,
00010000
00000000
00000000
00010000
00001000
00100000
00001000
00010000
,
00000000
00011000
00000000
00001000
00000100
00000000
00000000
00000100
,
00000001
00000000
00000000
00000001
00000010
00000100
00001000
00000010
,
00000100
00000001
00000000
00001000
00000100
00010000
00001000
00022000
,
00000000
00033000
00000000
00001000
00100000
00001000
00100000
01000000
,
00000000
11000000
00000000
10000000
00100000
00010000
00100000
00010000
,
00001000
00000010
00000001
00000100
00000000
00001000
00000000
00010000
,
00000000
00200000
00000000
10300000
10000000
01000000
00100000
00010000
,
01000000
00100000
00010000
00001000
00100000
00010000
00001000
00000100
,
00000010
00000001
00000001
00000010
00000100
00001000
00010000
00100000
,
00100000
00000000
01000000
00000000
00010000
00000000
00001000
00010000
00001000
00000000
00011000
00000000
00000000
00000000
00000000
00000000
,
00000000
10010000
00000000
00000000
00000000
00011000
00000000
01010000
,
00000000
00011000
00000000
00110000
00000000
00011000
00000000
00000000
,
00000000
00001001
00000000
00000000
00000000
00011000
00000000
00001100
,
00000000
00011000
00000000
00001010
00000000
00001000
00010000
01000000
,
00000000
00010000
00001000
00000100
00000000
00001000
00010000
00100000
,
00000000
00010000
00001000
00000010
00000000
00000001
00000100
00000010
,
00001000
00000100
00010000
00001000
00100000
01000000
00000000
10100000
,
00000000
00110000
00000000
00011000
00000000
00000000
00000000
00010000
,
00001000
00010000
00001000
00100000
01000000
10000000
00100000
00000000
,
01100000
00000000
01000000
00010000
00000000
00110000
00000000
00100000
,
00001000
00010000
00001000
00010000
00000100
00000010
00000001
00000000
,
00000100
00000000
00000000
00000100
00000000
00000000
00000110
00000000
00000000
00000000
00000110
00000000
00000000
00000000
00000010
00000000
,
00001000
00000100
00000000
00000010
00001000
00010000
00000000
00001000
,
00010000
01000000
00000000
00100000
00010000
01000000
00000000
00100000
,
10000000
01000000
00100000
00010000
01000000
00100000
00010000
00001000
,
00000100
00000000
00000010
00000000
00001000
00000000
00000100
00000000
00000010
00000000
00000001
00000000
00000100
00000000
00001000
00010000
,
00001000
00010000
00001000
00000000
00000000
00000000
00100000
00000000
01000000
00000000
10000000
00000000
10100000
00000000
00010000
00001000
,
00010000
00001000
00010000
00000000
00000000
00000000
00000100
00000000
00000010
00000000
00000001
00000000
00000101
00000000
00001000
00010000
,
00001000
00010000
00001000
00000000
00000000
00000000
00010000
00000000
00100000
00000000
10000000
00000000
11000000
00000000
00000000
01000000
,
00100000
01000000
00100000
01000000
00100000
00010000
00000000
01000000
00000000
00001000
00010000
00000000
00000100
00000000
00000100
00000000
,
00000000
00010100
00000000
00000000
00010000
00001000
00000000
01000000
,
00000000
01001000
00000000
00000000
00001000
00010000
00000000
00000010
,
00000000
00010010
00000000
00000000
00010000
00001000
00000000
00100000
,
00000000
00101000
00000000
00000000
00001000
00010000
00000000
00001000
,
00100000
00010000
00000000
00100000
00001000
00010000
00000000
00001000
,
00010000
00000010
00000000
00001000
00000010
00020000
00000000
00000000
,
00031000
00010000
00100000
10000000
00000000
01000000
00010000
00000000
,
00010000
00001000
00022000
00000000
00033000
00011000
00000000
00011000
,
00000000
00001100
00000000
00000101
00000000
00000011
00000000
00001010
,
00000000
00011000
00000000
00011000
00000000
00110000
00000000
10100000
,
00000000
11000000
00000000
01010000
00000000
00011000
00000000
00001000
,
00000000
00100000
00000000
00010000
00000000
01000000
00000000
00001000
,
00000000
00010000
00000000
00000010
00000000
00001000
00000000
00000100
,
00000000
00010000
00000000
00000100
00000000
00010000
00000000
00000100
,
00000000
00010000
00000000
00001000
00000000
00022000
00000000
00033000
,
00000000
00011000
00000000
00000000
00000000
00010000
01000000
20000000
,
00000000
00000000
30100000
00000000
00000000
00100000
00000000
00000000
00010000
00000000
00001000
00000000
00100000
00000000
02000000
00000000
,
00000000
00000000
03010000
00000000
00000000
00010000
00000000
00000000
00001000
00000000
00000010
00000000
00000001
00000000
00000100
00000000
,
00000000
00000010
00000100
00001000
00000000
00000100
00010000
01000000
,
00000000
00100000
10000000
02000000
00000000
03100000
01100000
00000000
,
00101000
00011000
00010010
00011000
,
01001000
00000000
00011000
00000000
00010100
00000100
00000010
00000001
,
00001000
00000100
00000010
00000001
00002000
00000000
00003100
00010000
,
00001000
00000000
00010000
00022000
00030000
00000000
00013000
01000000
,
00010000
01000000
00000000
10000000
00100000
00000000
00010000
00000000
,
00001000
00010000
00000000
00022000
00033000
00000000
00001000
00000010
,
00001000
00000010
00000000
00000001
00000100
00000000
00001000
00010000
,
00001000
00010000
00001000
00022000
00033000
00000000
00010000
00100000
,
00010000
00100000
00000000
10000000
01000000
00000000
00010000
00000000
,
00001000
00010000
00000000
00022000
00033000
00000000
00001000
00000100
,
00001000
00000100
00000001
00000010
00002000
00000000
00023000
00000000
,
00000100
00000100
00000000
01030000
00000000
11000000
00000000
10000000
,
00000000
10100000
00000000
00100000
00000000
00110000
00000000
00010000
,
00000000
00011000
00001000
00000010
00000000
00000011
00000000
00000001
,
00000000
00000101
00000000
00000100
00000000
00001100
00000000
00001000
,
00000000
00011000
00010000
01000000
00000000
10000000
00100000
01000000
,
10000000
01000000
00100000
10000000
00000000
00010000
01000000
00100000
,
00010000
00100000
01000000
00010000
00000000
00001000
00000010
00000100
,
00000010
00001000
00000001
00000100
00000010
00000100
00000001
00000010
,
00000100
00010000
00001000
00011000
00000000
00022000
00000000
00000000
,
00000000
00000000
00000000
00000000
,
00000000
00000000
00000000
00000000
,
00000000
00000000
00000000
00000000
,
00000000
00000000
00000000
00000000
00000000
00033000
00000000
00000000
,
00000000
00000000
00000000
00000000
,
00000000
00000000
00000000
00000000
,
00000000
00000000
00000000
00011000
;

//---------------dance-double - ----------------
#NOTEDATA:;
#CHARTNAME:;
#STEPSTYPE:dance-double;
#DESCRIPTION:;
#CHARTSTYLE:;
#DIFFICULTY:Hard;
#METER:16;
#RADARVALUES:0.747625,0.996575,0.561630,0.595669,0.297834,615.000000,549.000000,66.000000,70.000000,0.000000,0.000000,0.000000,0.000000,0.000000,0.747625,0.996575,0.561630,0.595669,0.297834,615.000000,549.000000,66.000000,70.000000,0.000000,0.000000,0.000000,0.000000,0.000000;
#CREDIT:MILEN;
#DISPLAYBPM:103.000000:205.000000;
#NOTES:
00000000
00000000
00000000
00000000
,
00000000
00000000
00000000
00000000
,
00000000
00000000
00000000
00000000
,
00000000
00000000
00000000
00000000
,
00000000
00000000
00000000
00000000
00000000
00000000
00001000
00001000
,
00100000
01000000
10000000
00100000
00012000
00003000
00010000
00010000
,
00000100
00000010
00000001
00000100
00021000
00030000
00001000
00001000
,
00010000
00100000
10000000
01000000
00010000
00001000
00022000
00000000
,
00033000
00000000
00011000
00000000
00000000
00000000
00100000
00000000
00100000
00000000
00010000
01000000
00010000
00000000
00100000
00000000
,
00100000
00000000
01000000
10000000
01000000
00000000
00100000
00000000
00010000
00000000
01000000
00000000
00001000
00000000
00010000
00000000
,
00000000
00000000
00011000
00000000
00000000
00000000
00000100
00000000
00000100
00000000
00001000
00000010
00001000
00000000
00000001
00000000
,
00000100
00000010
00001000
00001100
00000000
00010100
00000000
00011000
,
00000000
00000000
01001000
00000000
00000000
00000000
01000000
00000000
01000000
00000000
00100000
10000000
01000000
00000000
00200000
00000000
,
00000000
00000000
00000000
00000000
00000000
00000000
00301000
00000000
00001000
00000000
00010000
00000100
00010000
00000000
00000010
00000000
,
00000100
00000101
00000000
00000001
00000100
00000010
00001000
00000100
,
00010000
00001000
00100000
00110000
00000000
01001000
00000000
00011000
,
00000000
00010100
00000000
00000110
00000110
00000001
00000100
00001000
,
00010000
00100000
10000000
01000000
00001000
00010000
00000010
00000001
,
00000100
00001010
00001010
00000010
00010000
00001000
00100000
00110000
,
00110000
00000000
00010000
00000000
10000000
00000000
00100000
01000000
01100000
00000000
00100000
00000000
10000000
00000000
01000000
00000000
,
00100000
00010000
01000000
00001000
00010000
00010100
00000000
00001100
,
00000000
00000011
00000000
00001001
00000000
00000001
00000010
00000100
,
00010000
00001000
00100000
01000000
00010000
00011000
00000000
01001000
,
00000000
00000000
01100000
00000000
00000000
00000000
10100000
00000000
00000000
00000000
10000000
00000000
01000000
00000000
00010000
00001000
,
00010000
00000000
01000000
00000000
00010000
00000000
00001000
00000010
00001000
00000000
00010000
00000000
00001000
00000000
00000010
00000001
,
00000010
00000000
00000001
00000100
00000001
00000000
00002000
00000000
00000000
00000000
00003100
00000000
00010000
00000000
00001000
00000000
,
00100000
01000000
10000000
00100000
00010000
00012000
00000000
00000010
,
00000000
00100000
00000000
00013000
00000000
00000000
00000000
00001000
,
00010000
00100000
01000000
00001000
00010000
01000000
10000000
00000000
,
10100000
00000000
00100000
00010000
00000000
00022000
00033000
00010000
,
00001000
00000100
00000010
00010000
00001000
00000010
00000001
00000000
,
00000101
00000000
00000000
00001100
00000000
00000000
00011000
00000000
00000000
00000000
00022000
00000000
00033000
00000000
00001000
00010000
,
00001000
00000000
00100000
00000000
01000000
00000000
00010000
00001000
00010000
00000000
00000100
00000000
00000010
00000000
00001000
00010000
,
00001000
00000000
00010000
01000000
00010000
00000000
01000000
10000000
01000000
00000000
22000000
00000000
33000000
00000000
10000000
00000000
,
00100000
00010000
00001000
00000100
00000001
00000010
00001000
00020000
,
00030200
00000000
00000320
00000000
00002030
00000000
00023000
00000000
02030000
00000000
03200000
00000000
00320000
00000000
01030000
01000000
,
00100000
10000000
01000000
00000000
00100000
00010000
00000000
00011000
00000000
00001000
00000010
00000000
00000110
00000000
00000000
00000010
,
00000100
00000001
00000010
00000000
00000100
00001000
00000000
00010000
01000000
00100000
10000000
00100000
02000000
00000000
00000000
03010000
,
00100000
01000000
10000000
00000000
00100000
00010000
00000000
00011000
00000000
00001000
00000100
00000000
00000101
00000000
00000000
00000001
,
00001000
00000010
00000100
00000010
00001000
00000100
00000000
00010100
00000000
00010000
00001000
00000000
01001000
00000000
01100000
00000000
,
00100000
10000000
00000000
01000000
00010000
00001000
00000000
00001000
,
00010000
01000000
00000000
01000000
00010000
00001000
00000000
00000110
,
00000010
00001000
00000000
00010000
00001000
00000010
00000000
00000010
,
00001000
00010000
00000000
00010000
00001000
00000010
00000000
00000012
,
00000000
00000203
00000000
00002300
00000000
00023000
00000000
00230000
,
00000000
20300000
00000000
32000000
00000000
03020000
00000000
00031000
,
00010000
00001000
00010000
00010100
00000000
00001000
01001000
00000000
,
00001000
00010000
00002000
00000000
00010000
00013000
00000000
00021000
,
00000000
00000000
02000000
03000000
00000000
00000000
00031000
00000000
00000000
00000000
00012000
00000000
00000000
00000000
00000020
00000030
,
00000000
00000000
00013000
00000000
00000000
00000000
00021000
00000000
00000000
00000000
00200000
00300000
00000000
00000000
00031000
00000000
,
00000000
00000000
00012000
00000000
00000000
00000000
00000200
00000300
00000000
00000000
00013000
00000000
00000000
00000000
00010000
00000000
,
00000100
00000010
00000001
00000010
00000100
00001000
00010000
00100000
,
01000000
10000000
01000000
00100000
00001000
00011000
00000000
00010000
,
00001000
00010000
00001000
00010000
00001000
00010000
00001000
00010000
,
00001000
00000000
00010000
00000000
00001000
00000000
00010000
00000000
00001000
00000000
00020000
00000000
00030100
00010000
00001000
00000000
,
00010000
00011000
00000000
00000000
00000000
00001000
00010000
00200000
,
00000000
00000000
10300000
00000000
00000000
01000000
00000000
00000000
00010000
00000000
00001000
00000000
00100000
00000000
02000000
00000000
,
00000000
00000000
03010000
00000000
00000000
00001000
00000000
00000000
00000010
00000000
00000001
00000000
00000100
00000000
00001000
00000000
,
00000100
00000001
00000010
00001000
00010000
01000000
10000000
00100000
,
00010000
00000000
00100000
00000000
10000000
00000000
22000000
00000000
33000000
00000000
01000000
00100000
00010000
00000000
00100000
00000000
,
00001000
00000000
00010000
00001000
00000100
00000000
00000010
00000000
00000100
00000000
00000001
00000010
00000100
00000000
00000010
00000000
,
00001000
00000000
00010000
00001000
00000100
00000000
00001000
00000000
00010000
00000000
00100000
10000000
00100000
00000000
01000000
00010000
,
01000000
00000000
00001000
00010000
00001000
00000000
00000100
00000010
00000200
00000000
00000000
00000000
00000301
00000000
00000100
00000000
,
00001000
00000000
00010000
00022000
00033000
00001000
00100000
01000000
,
10000000
00200000
00000000
00310000
00012000
00000000
00003200
00000000
,
00000301
00000011
00000000
00002002
00000000
00003003
00000001
00000100
,
00001000
00020000
00000000
00130000
20100000
00000000
31000000
00100000
,
00010000
01000000
00001000
00022000
00000000
00033000
00010000
00001000
,
00000100
00000020
00000000
00001030
00001200
00000000
00000302
00000000
,
00000103
00000110
00000000
00000022
00000000
00000033
00000001
00000010
,
00000100
00001000
00000010
00000100
00002000
00000000
02003000
00000000
,
03002000
00000000
00023000
00000000
00000000
00000000
00000200
00000000
00030300
00000000
00000100
00000010
00000001
00000000
00001000
00000000
,
00000010
00000000
00010000
00001000
00010000
00000000
00100000
00000000
01000000
00000000
00100000
10000000
01000000
00000000
00100000
00000000
,
01000000
00000000
00100000
00001000
00100000
00000000
00001000
00010000
00001000
00000000
00010000
00001000
00000100
00000000
00001000
00000000
,
00000100
00000000
00000001
00000010
00000100
00000000
00000010
00000000
00000100
00000000
00010000
00001000
00010000
00000000
00000100
00001000
,
00000100
00000000
00000010
00000001
00000010
00000000
00000100
00010000
00001000
00000000
00100000
01000000
00100000
00000000
10000000
00000000
,
00100000
00000000
00010000
00000000
01000000
00000000
00001000
00000000
00010000
00000000
00000100
00000010
00000100
00000000
00001000
00000000
,
00000001
00000000
00000100
00000000
00000010
00000000
00010000
00000000
00001000
00000000
00100000
01000000
00100000
01000000
00100000
00000000
,
00010000
00000000
10000000
01000000
10000000
01000000
10000000
00000000
00100000
00000000
00010000
00001000
00010000
00001000
00010000
00001000
,
00010000
00001000
00020000
00000000
00000000
00000000
00002000
00000000
00033000
00000000
00022000
00000000
00000000
00000000
00000000
00000000
,
00000000
00000000
00000000
00000000
,
00000000
00000000
00000000
00000000
,
00000000
00000000
00000000
00000000
,
00000000
00000000
00000000
00000000
00000000
00033000
00000000
00000000
,
00000000
00000000
00000000
00000000
,
00000000
00000000
00000000
00000000
,
00000000
00000000
00000000
00011000
;
