#TITLE:Christmas Memories;
#SUBTITLE:;
#ARTIST:Warak;
#TITLETRANSLIT:;
#SUBTITLETRANSLIT:;
#ARTISTTRANSLIT:;
#GENRE:VARIETY;
#CREDIT:;
#BANNER:Christmas Memories.png;
#BACKGROUND:Christmas Memories-bg.png;
#LYRICSPATH:;
#CDTITLE:;
#MUSIC:Christmas Memories.mp3;
#OFFSET:-0.044000;
#SAMPLESTART:81.926353;
#SAMPLELENGTH:9.522346;
#LASTBEATHINT:281.666718;
#SELECTABLE:YES;
#BPMS:0.000000=170
;
#STOPS:
;
#BGCHANGES:0.000=Christmas Memories.avi=1.000=0=0=0=StretchNoLoop====,
99999=-nosongbg-=1.000=0=0=0 // don't automatically add -songbackground-
;
#KEYSOUNDS:;
#ATTACKS:;

//---------------dance-single - ----------------
#NOTES:
     dance-single:
     :
     Beginner:
     4:
     0.163936,0.239441,0.032099,0.048149,0.000000,143.000000,139.000000,4.000000,6.000000,0.000000,0.000000,0.163936,0.239441,0.032099,0.048149,0.000000,143.000000,139.000000,4.000000,6.000000,0.000000,0.000000:
0000
0000
0000
0000
,
0000
0000
0000
0000
,
1000
0000
1000
0000
,
0000
1000
1000
0000
,
0001
0000
0001
0000
,
0000
0001
0001
0000
,
1000
0000
0001
0000
,
0000
1000
1000
0000
,
0001
0000
1000
0000
,
1001
0000
0000
0000
,
0001
0000
0100
0000
,
0001
0000
0100
0000
,
0001
0000
0100
0000
,
0001
0000
0000
0000
,
1000
0000
0010
0000
,
1000
0000
0010
0000
,
1000
0000
0010
0000
,
1000
0000
0000
0000
,
0001
0000
0000
0000
,
1000
0000
0000
0000
,
0010
0000
0000
0000
,
0100
0000
0000
0000
,
0001
0000
1000
0000
,
0010
0000
0100
0000
,
0001
0001
0001
0000
,
1000
1000
1000
0000
,
0010
0000
1000
0000
,
0010
0000
1000
0000
,
0010
0000
1000
0000
,
0010
0000
0000
0000
,
0100
0000
0001
0000
,
0100
0000
0001
0000
,
0100
0000
0001
0000
,
0100
0000
0000
0000
,
0010
0000
0000
0000
,
1000
0000
0000
0000
,
0001
0000
0000
0000
,
0100
0000
0000
0000
,
0010
0000
1000
0000
,
0001
0000
0100
0100
,
0100
0000
0000
0000
,
0000
0010
0010
0010
,
0020
0000
0030
0000
,
0000
0000
0000
0000
,
2000
0000
3000
0000
,
0000
0000
0000
0000
,
0001
0000
1000
0000
,
0001
0000
1000
0000
,
0001
0001
0001
0000
,
0000
0100
0100
0100
,
0200
0000
0000
0000
,
0300
0000
0000
0000
,
0002
0000
0000
0000
,
0003
0000
0000
0000
,
1000
0000
0001
0000
,
1000
0000
0001
0000
,
1000
1000
1000
1000
,
1000
0000
0000
0000
,
1001
0000
0000
0000
,
1000
0000
0010
0000
,
0100
0000
0001
0000
,
1000
0000
0010
0000
,
0001
0000
0000
0000
,
0100
0000
0000
0000
,
1000
0000
0000
0000
,
0010
0000
0010
0000
,
0001
0000
0100
0000
,
0010
0000
1000
0000
,
0001
0000
0100
0000
,
0010
0000
1000
0000
,
0001
0000
0001
0000
,
1000
0000
1000
0000
,
0020
0000
0030
0000
,
0000
0000
1000
0000
,
1000
0000
0001
0000
,
0001
0000
0200
0000
,
0000
0000
0300
0000
,
0010
0000
0010
0000
,
0000
0010
0010
0000
,
1000
0000
1000
0000
,
0000
1000
1000
0000
,
0100
0000
0100
0000
,
0000
0100
0100
0000
,
0001
0000
0001
0000
,
1001
0000
0000
0000
,
0000
1001
0000
0000
;

//---------------dance-single - ----------------
#NOTES:
     dance-single:
     :
     Easy:
     5:
     0.233867,0.307853,0.064199,0.160497,0.000000,204.000000,196.000000,8.000000,20.000000,0.000000,0.000000,0.233867,0.307853,0.064199,0.160497,0.000000,204.000000,196.000000,8.000000,20.000000,0.000000,0.000000:
0000
0000
0000
0000
,
0000
0000
0000
0000
,
1000
1000
1000
0000
,
0001
0000
1000
0000
,
0001
0001
0001
0000
,
1000
0000
0001
0000
,
1000
0001
1000
0000
,
0001
0000
1000
0000
,
0001
0000
1000
0000
,
2002
0000
3003
0000
,
1000
0000
0010
0000
,
1000
0000
0100
0000
,
1000
0000
0010
0000
,
1000
0100
1000
1000
,
0001
0000
0100
0000
,
0001
0000
0010
0000
,
0001
0000
0100
0000
,
0001
0010
0001
0001
,
1000
0000
0010
0000
,
0100
0000
0001
0000
,
1000
0000
0100
0000
,
0010
0000
0001
0000
,
1000
0000
0010
0000
,
0001
0000
0100
0000
,
1000
0001
1000
0001
,
0010
0100
0020
0030
,
0001
0000
0100
0000
,
1000
0000
0100
0000
,
0001
0000
0100
0000
,
1000
0100
0010
0010
,
0001
0000
0010
0000
,
1000
0000
0010
0000
,
0001
0000
0010
0000
,
1000
0010
0100
0100
,
0001
0000
0010
0000
,
0100
0000
1000
0000
,
0010
0000
0100
0000
,
0001
0000
0010
0000
,
1000
0000
0100
0000
,
0001
0000
1000
0000
,
2002
0000
0000
0000
,
3003
0001
1000
0001
,
0100
0000
0100
0000
,
0100
0001
1000
0001
,
0010
0000
0010
0000
,
0010
0001
1000
0001
,
0100
0000
1000
0000
,
0010
0000
0001
0000
,
1000
0001
1001
0000
,
0000
0010
0010
0100
,
0020
0000
0000
0000
,
0030
1000
1000
0001
,
2000
0000
0000
3000
,
0002
0000
0000
0003
,
1000
0000
0010
0000
,
0001
0000
0100
0000
,
1000
0001
1000
0001
,
0200
0000
0020
0330
,
2002
0000
3003
1000
,
0100
0010
0001
1000
,
0100
0000
0001
0000
,
0010
0000
1000
0000
,
2002
0000
3003
0001
,
0010
0100
1000
0001
,
0010
0000
1000
0000
,
0100
0000
0001
1000
,
0002
0000
0000
0000
,
0003
1000
0001
1000
,
0200
0000
0300
1000
,
0100
0000
0010
0000
,
0001
0000
1000
0000
,
0010
0000
0100
0000
,
0001
0010
0100
1000
,
0100
0100
0010
0010
,
0001
0100
1000
0000
,
0001
0000
2002
0000
,
0000
0000
0000
3003
,
0100
0100
0100
0000
,
0010
0000
0100
0000
,
0010
0010
0010
0000
,
0100
0000
0010
0000
,
0100
0010
0100
0000
,
0010
0000
0100
0000
,
0010
0000
0100
0000
,
0220
0000
0000
0000
,
0330
1001
0000
0000
;

//---------------dance-single - ----------------
#NOTES:
     dance-single:
     :
     Medium:
     9:
     0.401242,0.513089,0.272845,0.320994,0.152472,350.000000,316.000000,34.000000,40.000000,0.000000,0.000000,0.401242,0.513089,0.272845,0.320994,0.152472,350.000000,316.000000,34.000000,40.000000,0.000000,0.000000:
0000
0000
0000
0000
,
0000
0000
0000
0000
,
1001
1000
1000
0000
,
0000
0000
0001
0100
0000
0000
0010
0000
0000
1000
0000
0000
,
1001
0001
0001
0000
,
0000
0000
1000
0010
0000
0000
0100
0000
0000
0001
0000
0000
,
1001
1000
0001
0000
,
0000
0000
0001
0010
0000
0000
0100
0000
0000
1000
0000
0000
,
1001
0000
0000
0000
0000
0000
0110
0000
0000
0000
0000
2002
,
0000
0000
0000
3003
,
1000
0010
1000
0010
,
0100
0001
0100
0001
,
1000
0100
0010
0001
,
1000
0000
0010
1000
0000
0000
0001
0000
0010
0001
0000
0000
,
1000
0100
1000
0100
,
0010
0001
0010
0001
,
1000
0010
0100
0001
,
1000
0000
0100
1000
0000
0000
0001
0000
0100
0001
0000
0000
,
1000
0010
0001
0100
,
2000
0010
3002
0010
,
2000
0000
0000
3003
,
0002
0100
2003
0100
,
0002
0000
0000
3003
,
1000
0100
0001
0010
,
1000
1100
0001
0011
,
0100
0000
0010
1000
0000
0010
0100
0000
0001
0100
0000
0010
,
0100
0001
0010
0100
,
0001
0100
1000
0001
,
0010
1000
0010
0100
,
1000
0000
0010
0100
0000
0001
0100
0000
0010
0100
0000
0000
,
0010
1000
0100
0010
,
1000
0010
0001
1000
,
0100
0001
0100
0010
,
0001
0000
0100
0010
0000
0100
1000
0000
0100
0010
0000
0000
,
1000
0100
0001
0010
,
2000
3100
0020
0031
,
0200
1000
0010
0301
,
0002
0013
0200
1300
,
1010
0001
0101
1000
,
1100
0001
0011
0100
,
0220
0000
0000
0000
,
0330
0010
0100
0001
,
2000
0100
0100
0001
,
3010
0100
0010
1000
,
0002
0010
0010
1000
,
0103
0010
0100
0001
,
1000
1010
0001
0101
,
1000
1100
0001
0011
,
1001
0000
0000
2000
0000
3010
0000
0000
0000
0002
0000
0103
,
0000
1000
0100
0010
,
0002
0100
1000
0010
,
0200
0000
0000
0303
,
2000
0010
0001
0100
,
0020
0000
0000
3030
,
0002
0013
2000
3010
,
0002
0103
2000
3100
,
0001
0010
1000
0100
,
0220
0000
0000
0330
,
0001
0100
1000
0001
,
0010
1000
0100
0010
,
0001
0000
0100
0010
0000
1000
0010
0000
0100
0010
0000
2000
,
0000
0000
3001
0100
0000
0010
0100
0000
0000
0110
0000
0000
,
0001
0010
1000
0001
,
0100
1000
0010
0001
,
1000
0100
0001
0010
,
0100
1100
0011
0101
,
1010
1000
0100
0010
,
0001
1001
0100
0110
,
2000
0000
3000
0002
,
1003
0200
0310
0110
,
1000
0000
0001
0100
0000
0000
0001
0000
1000
0100
0000
0000
,
1000
0000
0001
0010
0000
0000
0001
0000
1000
0010
0000
0000
,
0100
0000
0001
1000
0000
0001
1000
0000
0100
0010
0000
0200
,
0000
0310
0001
0100
,
2000
3010
0002
0103
,
2000
0000
0002
0000
,
0000
0000
0000
3003
,
1010
1000
1000
0000
,
0000
0000
0001
0100
0000
0000
1000
0000
0000
0010
0000
0000
,
0011
0001
0001
0000
,
0000
0000
1000
0010
0000
0000
0001
0000
0000
0100
0000
0000
,
1100
1000
1000
0000
,
0000
0000
0001
0010
0000
0000
1000
0000
0000
0100
0000
0000
,
0101
0000
0000
0000
0000
0000
1010
0000
0000
0000
0000
2002
,
0000
0000
0000
0000
,
3003
0110
0000
0000
;

//---------------dance-single - ----------------
#NOTES:
     dance-single:
     :
     Hard:
     13:
     0.588107,0.668971,0.417292,0.473466,0.698162,513.000000,461.000000,52.000000,59.000000,0.000000,0.000000,0.588107,0.668971,0.417292,0.473466,0.698162,513.000000,461.000000,52.000000,59.000000,0.000000,0.000000:
0000
0000
0000
0000
,
0000
0000
0000
0000
,
1001
0100
0202
0303
,
0000
0000
0001
1000
0000
0100
1000
0000
0000
0001
0000
0000
,
1001
0100
2200
3300
,
0000
0000
1000
0001
0000
0010
0001
0000
0000
1000
0000
0000
,
1001
0010
0022
0033
,
0000
0000
0001
1000
0000
0100
1000
0000
0000
0010
0000
0000
,
1010
0000
0000
0000
0000
0000
0110
0000
0000
0000
0000
2002
,
0000
0000
0000
3003
0000
1000
0100
0000
0100
0010
0000
0010
,
0001
0000
0000
1100
0000
0000
0001
0000
0100
0010
0000
0000
,
1000
0000
0000
0011
0000
0000
1000
0000
0010
0100
0000
0000
,
0001
0000
0000
1100
0000
0000
0001
0000
0100
0010
0000
0000
,
1000
0000
0001
0100
0000
0100
0010
0000
0010
1000
0000
0000
,
0100
0000
0000
0011
0000
0000
0100
0000
1000
0001
0000
0000
,
0010
0000
0000
1100
0000
0000
0010
0000
0001
1000
0000
0000
,
0100
0000
0000
0011
0000
0000
0100
0000
1000
0001
0000
0000
,
0100
0000
0010
1000
0000
1000
0001
0000
0200
0000
0000
0000
,
0310
0000
0000
1001
0000
0000
0001
0000
1000
0100
0000
0000
,
2100
3020
0230
0302
,
0013
0000
0000
0110
0000
0000
1000
0000
0010
0100
0000
0000
,
0102
2003
3200
0320
,
0031
0000
0000
1001
0000
0000
0010
0000
0100
0001
0000
0000
,
1000
0000
0100
0010
0000
0010
0001
0000
0001
0100
0000
0100
,
0010
0000
0010
1000
0000
1000
0100
0000
0100
0010
0000
0010
,
0001
0000
0001
0100
0000
0010
0100
0000
1000
0100
0000
0010
,
0100
0000
0001
0010
0000
0000
0100
0000
1000
0010
0000
0000
,
0100
0000
0001
0010
0000
0000
0100
0000
1000
0001
0000
0000
,
0100
0000
0010
1000
0000
1000
0100
0000
0100
0001
0000
0001
,
0100
0000
0100
1000
0000
0100
0010
0000
0001
0010
0000
0100
,
0010
0000
0100
1000
0000
0000
0010
0000
0100
0001
0000
0000
,
0010
0000
0100
1000
0000
0000
0010
0000
0100
0010
0000
0000
,
1000
0000
0001
0010
0000
0010
1000
0000
1000
0010
0000
0010
,
0100
0000
0100
1000
0000
0010
0100
0000
0001
0010
0000
0001
,
1000
0000
0100
0010
0000
0000
0001
0000
0010
0100
0000
0000
,
2100
3020
0032
0203
,
1300
0000
0010
0100
0000
0000
0001
0000
0100
0010
0000
0000
,
2010
3200
0302
0023
,
1030
0000
0001
0100
0000
0000
0001
0000
1000
0010
0000
0000
,
1000
0000
0100
0010
0000
0100
0001
0000
0100
1000
0000
0100
,
0020
0000
0000
0032
0000
0000
2003
0000
0000
3020
0000
0100
,
0000
0000
0130
0000
0000
0100
0001
0000
1000
0010
0000
0100
,
0001
0000
0001
1000
0000
1000
0100
0000
0100
0010
0000
0020
,
0000
0000
0000
0031
0000
0001
0100
0000
0010
1000
0000
0001
,
0100
0000
0100
0010
0000
0010
1000
0000
1000
0100
0000
0200
,
0000
0000
0000
0310
0000
0100
1000
0000
0001
0010
0000
0100
,
1000
0000
0000
0010
0000
0001
0100
0000
0000
1000
0000
0010
,
0001
0000
0000
0100
0000
1000
0010
0000
0000
0100
0000
0000
,
0110
0000
1000
0001
0000
0000
0110
0000
0001
2000
0000
3001
,
0000
0000
1001
0000
0000
1000
0100
0000
0100
0010
0000
0010
,
0001
0000
0001
0100
0001
0100
0010
0100
0010
1000
0010
1000
,
0200
0000
0310
0100
,
1000
0000
0010
0100
0010
0100
0001
0100
0001
1000
0001
1000
,
0020
0000
0130
0110
,
2000
3100
0002
0103
,
2000
3010
0002
0013
,
1000
0000
0000
0100
0000
0001
0000
0000
0010
0000
0000
0220
,
0000
0000
0000
0330
,
1000
0000
0001
0100
0000
0000
1000
0000
0001
0100
0000
0000
,
1100
0000
1000
0010
0000
0010
0100
0000
0100
0001
0000
0001
,
0010
0000
0100
0010
0000
1000
0010
0000
0001
0010
0000
0200
,
0000
0000
1300
0010
0000
0001
0100
0000
0000
0110
0000
0000
,
0010
0000
0001
1000
0000
0000
0010
0000
0001
1000
0000
0000
,
0100
0000
1000
0001
0000
0000
0100
0000
1000
0001
0000
0000
,
0101
0000
0100
0010
0000
1000
0100
0000
0010
0001
0000
0100
,
0010
0000
2010
0000
0000
0000
3001
0000
0001
0010
0100
1000
,
0010
0000
0001
0100
0000
0000
0100
0000
1000
0010
0000
0000
,
0001
0000
0001
0010
0000
0000
1000
0000
1000
0100
0000
0000
,
2002
0000
3003
0011
,
1100
1010
0101
1001
,
1000
0000
0010
0001
0000
0000
0001
0000
0100
1000
0000
0000
,
0010
0000
0100
0001
0000
0010
0100
0000
1000
0010
0000
0100
,
0001
0000
0001
0010
0000
0010
1000
0000
1000
0010
0000
0200
,
0000
0000
0000
0310
0001
0010
0100
0010
0100
1000
0000
0000
,
0010
0000
0001
0100
0000
0000
1000
0000
0010
0000
0001
0000
,
0202
0303
2020
0000
,
0000
0000
0000
3030
,
1010
0011
2002
0000
,
3003
0000
0001
0100
0000
1000
0100
0000
0000
0001
0000
0000
,
0101
1100
2002
0000
,
3003
0000
1000
0010
0000
0001
0010
0000
0000
1000
0000
0000
,
1100
0110
0022
0000
,
0033
0000
0001
0100
0000
1000
0010
0000
0000
0100
0000
0000
,
0101
0000
0000
0000
0000
0000
0110
0000
0000
0000
0000
2020
,
3030
0000
1000
0100
0010
0001
0100
0000
0100
1000
0000
0010
,
0000
2002
0000
0000
,
0000
0000
0000
0000
,
0000
0000
0000
3003
;

//---------------dance-double - ----------------
#NOTES:
     dance-double:
     :
     Easy:
     5:
     0.225842,0.307853,0.048149,0.144447,0.000000,197.000000,191.000000,6.000000,18.000000,0.000000,0.000000,0.225842,0.307853,0.048149,0.144447,0.000000,197.000000,191.000000,6.000000,18.000000,0.000000,0.000000:
00000000
00000000
00000000
00000000
,
00000000
00000000
00000000
00000000
,
00010000
00010000
00010000
00000000
,
00010000
00000000
00010000
00000000
,
00001000
00001000
00001000
00000000
,
00001000
00000000
00001000
00000000
,
00010000
00001000
00010000
00000000
,
00001000
00000000
00010000
00000000
,
00001000
00000000
00010000
00000000
,
00022000
00000000
00033000
00000000
,
00001000
00000000
00100000
00000000
,
00001000
00000000
00010000
00000000
,
00001000
00000000
00100000
00000000
,
00001000
00010000
00001000
00000000
,
00010000
00000000
00000010
00000000
,
00010000
00000000
00001000
00000000
,
00010000
00000000
00000010
00000000
,
00010000
00001000
00010000
00000000
,
00001000
00000000
01000000
00000000
,
00001000
00000000
00010000
00000000
,
00000100
00000000
00010000
00000000
,
00001000
00000000
00100000
00000000
,
00001000
00000000
00010000
00000000
,
00000010
00000000
00010000
00000000
,
00001000
00010000
00001000
00010000
,
00100000
01000000
00200000
00300000
,
10000000
00000000
01000000
00000000
,
00010000
00000000
01000000
00000000
,
10000000
00000000
01000000
00000000
,
00010000
00001000
00010000
00000000
,
00001000
00000000
00000010
00000000
,
00000001
00000000
00000010
00000000
,
00001000
00000000
00000010
00000000
,
00000001
00001000
00000001
00000000
,
00000100
00000000
00001000
00000000
,
00010000
00000000
00001000
00000000
,
00000100
00000000
00001000
00000000
,
00010000
00000000
01000000
00000000
,
00010000
00000000
00001000
00000000
,
00010000
00000000
01000000
00000000
,
20000000
00000000
00000000
00000000
,
30000000
00010000
01000000
00010000
,
01000000
00000000
01000000
00000000
,
01000000
00001000
00010000
00001000
,
00010000
00000000
00010000
00000000
,
00010000
00000100
00001000
00000100
,
00001000
00000000
00001000
00000000
,
00001000
00000000
00000001
00000000
,
00000001
00001000
00001001
00000000
,
00000000
00000001
00000100
00000001
,
00000200
00000000
00000000
00000000
,
00000300
00001000
00010000
00001000
,
00020000
00000000
00000000
00030000
,
02000000
00000000
00000000
03000000
,
10000000
00000000
00100000
00000000
,
00010000
00000000
00001000
00000000
,
00000010
00000001
00000010
00000001
,
00000200
00000000
00002300
00000000
,
00020000
00000000
00033000
00001000
,
00010000
00100000
01000000
00010000
,
00100000
00000000
01000000
00000000
,
00010000
00000000
00001000
00000000
,
00022000
00000000
00033000
00010000
,
00001000
00000100
00000010
00001000
,
00000100
00000000
00000010
00000000
,
00001000
00000000
00010000
00001000
,
00020000
00000000
00000000
00000000
,
00030000
00001000
00010000
00001000
,
00020000
00000000
00030000
00100000
,
00100000
00000000
10000000
00000000
,
01000000
00000000
00010000
00000000
,
00001000
00000000
00000010
00000000
,
00000001
00000000
00000100
00000000
,
00001000
00010000
00001000
00010000
,
00100000
00010000
00001000
00000010
,
00001000
00000000
00022000
00000000
,
00000000
00000000
00000000
00033000
,
01000000
01000000
01000000
00000000
,
00001000
00000000
00010000
00000000
,
00000010
00000010
00000010
00000000
,
00010000
00000000
00001000
00000000
,
00100000
00100000
00100000
00000000
,
00001000
00000000
00010000
00000000
,
00000010
00000000
00010000
00000000
,
00022000
00000000
00000000
00000000
,
00033000
00011000
00000000
00000000
;

//---------------dance-double - ----------------
#NOTES:
     dance-double:
     :
     Medium:
     9:
     0.385193,0.478883,0.248770,0.441366,0.120373,336.000000,305.000000,31.000000,55.000000,0.000000,0.000000,0.385193,0.478883,0.248770,0.441366,0.120373,336.000000,305.000000,31.000000,55.000000,0.000000,0.000000:
00000000
00000000
00000000
00000000
,
00000000
00000000
00000000
00000000
,
00011000
00010000
00010000
00000000
,
00000000
00010000
00000010
00010000
,
00011000
00001000
00001000
00000000
,
00000000
00001000
01000000
00001000
,
00011000
00010000
00001000
00000000
,
00000000
00010000
00001000
00010000
,
00010100
00000000
00000000
00000000
00000000
00000000
00101000
00000000
00000000
00000000
00000000
00022000
,
00000000
00000000
00000000
00033000
,
00001000
00100000
00001000
00100000
,
00010000
01000000
00010000
01000000
,
00001000
00100000
00010000
01000000
,
00001000
00000000
00001000
00010000
00000000
00000000
00010000
00000000
00010000
00001000
00000000
00000000
,
00010000
00000010
00010000
00000010
,
00001000
00000100
00001000
00000100
,
00010000
00000010
00001000
00000100
,
00010000
00000000
00010000
00001000
00000000
00000000
00001000
00000000
00001000
00010000
00000000
00000000
,
00001000
00100000
01000000
10000000
,
00200000
00320000
00032000
00003020
,
00000032
00000000
00000000
00000000
,
00000203
00002300
00023000
02030000
,
23000000
00000000
00000000
30000000
,
01000000
00010000
00001000
00000010
,
00000001
00000101
00001000
00001010
,
00000001
00000000
00000001
00000100
00000000
00000000
00000100
00000000
00000100
00001000
00000000
00000000
,
00010000
00001000
00100000
01000000
,
00010000
00001000
00100000
01000000
,
10000000
00100000
01000000
00010000
,
10000000
00000000
10000000
00100000
00000000
00000000
00100000
00000000
00100000
00010000
00000000
00000000
,
00001000
00010000
00000100
00000010
,
00001000
00010000
00000100
00000010
,
00000001
00000100
00000010
00001000
,
00000001
00000000
00000001
00000100
00000000
00000000
00000100
00000000
00000100
00001000
00000000
00000000
,
00010000
00100000
10000000
01000000
,
00200000
00302000
00023000
00030200
,
00000320
00000000
00000000
00000000
,
00000032
00000203
00002300
00013000
,
00010100
00001000
01001000
00010000
,
00010010
00001000
00101000
00010000
,
00022000
00000000
00000000
00000000
,
00033000
00001000
00010000
00100000
,
20000000
01000000
01000000
00010000
,
30100000
00010000
00001000
00000010
,
00000002
00000100
00000100
00001000
,
00000013
00001000
00010000
00100000
,
10000000
11000000
00100000
00110000
,
00001000
00001010
00000001
00000101
,
00001000
00000000
00000000
00000020
00000000
00010030
00000000
00000000
00000000
00200000
00000000
00301000
,
00000000
00001000
00010000
00100000
,
20000000
32000000
03020000
00032000
,
00003020
00000000
00000000
00000000
,
00000032
00000203
00002300
00023000
,
00230000
00000000
00000000
00000000
,
20300000
30010000
02000000
03001000
,
00020000
00030010
00002000
00003001
,
00000001
00000100
00000010
00010000
,
00022000
00000000
00000000
00033000
,
00001000
00100000
01000000
10000000
,
00010000
00100000
01000000
00010000
,
00001000
00000000
00001000
00000010
00000000
00000000
00000010
00000000
00000010
00000001
00000000
00000200
,
00000000
00000000
00001300
00010000
00000000
00001000
00010000
00000000
00000000
00011000
00000000
00000000
,
00001000
00100000
01000000
00010000
,
00001000
00000010
00000100
00010000
,
00001000
00000010
00000001
00000100
,
00001000
00011000
01000000
00011000
,
00000100
00000010
00000001
00000100
,
00001000
00011000
00010000
01100000
,
20000000
00000000
30000000
00020000
,
01030000
00002000
00013000
00010100
,
00000100
00000000
00000100
00000010
00000000
00000000
00000010
00000000
00000010
00000001
00000000
00000000
,
00000001
00000000
00000001
00000100
00000000
00000000
00000100
00000000
00000100
00001000
00000000
00000000
,
00001000
00000000
00001000
00010000
00000000
00001000
00010000
00000000
00100000
01000000
00000000
00200000
,
00000000
10300000
01000000
00010000
,
00002000
00003020
00000032
00000203
,
00002300
00000000
00020000
00000000
,
00000000
00000000
00000000
00033000
,
00011000
01000000
01000000
00000000
,
00000000
00000000
00001000
00010000
00000000
00000000
00000100
00000000
00000000
00010000
00000000
00000000
,
00011000
00000010
00000010
00000000
,
00000000
00000000
00010000
00001000
00000000
00000000
00100000
00000000
00000000
00001000
00000000
00000000
,
00011000
00010000
00001000
00000000
,
00000000
00000000
00001000
00010000
00000000
00000000
00001000
00000000
00000000
00010000
00000000
00000000
,
00010010
00000000
00000000
00000000
00000000
00000000
01001000
00000000
00000000
00000000
00000000
00022000
,
00000000
00000000
00000000
00000000
,
00033000
00011000
00000000
00000000
;

//---------------dance-double - ----------------
#NOTES:
     dance-double:
     :
     Hard:
     13:
     0.588107,0.633762,0.417292,0.393217,0.698162,513.000000,461.000000,52.000000,49.000000,0.000000,0.000000,0.588107,0.633762,0.417292,0.393217,0.698162,513.000000,461.000000,52.000000,49.000000,0.000000,0.000000:
// measure 0
00000000
00000000
00000000
00000000
,  // measure 1
00000000
00000000
00000000
00000000
,  // measure 2
00011000
01000000
02002000
03003000
,  // measure 3
00000000
00000000
00001000
00010000
00000000
00010000
00001000
00000000
00000000
00010000
00000000
00000000
,  // measure 4
00011000
00000010
00020020
00030030
,  // measure 5
00000000
00000000
00010000
00001000
00000000
00001000
00010000
00000000
00000000
00001000
00000000
00000000
,  // measure 6
00011000
01000000
02020000
03030000
,  // measure 7
00000000
00000000
00010000
10000000
00000000
10000000
00010000
00000000
00000000
01000000
00000000
00000000
,  // measure 8
01001000
00000000
00000000
00000000
00000000
00000000
00010100
00000000
00000000
00000000
00000000
00002020
,  // measure 9
00000000
00000000
00000000
00003030
00000000
00001000
00000100
00000000
00000100
00000010
00000000
00000010
,  // measure 10
00000001
00000000
00000000
00000101
00000000
00000000
00000100
00000000
00001000
00010000
00000000
00000000
,  // measure 11
00001000
00000000
00000000
00101000
00000000
00000000
00100000
00000000
01000000
10000000
00000000
00000000
,  // measure 12
00100000
00000000
00000000
01100000
00000000
00000000
01000000
00000000
00001000
00010000
00000000
00000000
,  // measure 13
00000100
00000000
00001000
00000010
00000000
00000010
00010000
00000000
00010000
00001000
00000000
00000000
,  // measure 14
00100000
00000000
00000000
00110000
00000000
00000000
00010000
00000000
10000000
01000000
00000000
00000000
,  // measure 15
00100000
00000000
00000000
00101000
00000000
00000000
00001000
00000000
00010000
00000100
00000000
00000000
,  // measure 16
00000010
00000000
00000000
00000011
00000000
00000000
00000001
00000000
00000100
00001000
00000000
00000000
,  // measure 17
00010000
00000000
00001000
00100000
00000000
00100000
00010000
00000000
02000000
00000000
00000000
00000000
,  // measure 18
03100000
00000000
00000000
10100000
00000000
00000000
10000000
00000000
01000000
00010000
00000000
00000000
,  // measure 19
00012000
00100000
00023000
00000010
,  // measure 20
00031000
00000000
00000000
00010100
00000000
00000000
00000100
00000000
00000010
00000001
00000000
00000000
,  // measure 21
00000201
00001000
00000320
00000001
,  // measure 22
00000130
00000000
00000000
00001100
00000000
00000000
00001000
00000000
00010000
00100000
00000000
00000000
,  // measure 23
10000000
00000000
01000000
00100000
00000000
00100000
00001000
00000000
00001000
00010000
00000000
00010000
,  // measure 24
00000100
00000000
00000100
00000010
00000000
00000010
00000001
00000000
00000001
00000100
00000000
00000100
,  // measure 25
00000010
00000000
00000010
00010000
00000000
00001000
00010000
00000000
00000100
00010000
00000000
00001000
,  // measure 26
00010000
00000000
00100000
01000000
00000000
00000000
00100000
00000000
00010000
00001000
00000000
00000000
,  // measure 27
00010000
00000000
00100000
10000000
00000000
00000000
00100000
00000000
00010000
00001000
00000000
00000000
,  // measure 28
00010000
00000000
00100000
01000000
00000000
01000000
00010000
00000000
00010000
00100000
00000000
00100000
,  // measure 29
01000000
00000000
01000000
00010000
00000000
00010000
00001000
00000000
00001000
00000010
00000000
00000010
,  // measure 30
00000100
00000000
00010000
00001000
00000000
00000000
00010000
00000000
00000100
00000010
00000000
00000000
,  // measure 31
00000100
00000000
00010000
00001000
00000000
00000000
00010000
00000000
00000100
00001000
00000000
00000000
,  // measure 32
00000001
00000000
00000010
00000100
00000000
00000100
00010000
00000000
00010000
00001000
00000000
00001000
,  // measure 33
00100000
00000000
00100000
01000000
00000000
01000000
10000000
00000000
10000000
00100000
00000000
00100000
,  // measure 34
00010000
00000000
00010000
00001000
00000000
00000000
00001000
00000000
00001000
00010000
00000000
00000000
,  // measure 35
02010000
10000000
03200000
00010000
,  // measure 36
01300000
00000000
00100000
10000000
00000000
00000000
01000000
00000000
00010000
00001000
00000000
00000000
,  // measure 37
00021000
01000000
00032000
00000100
,  // measure 38
00013000
00000000
00010000
00000100
00000000
00000000
00000010
00000000
00000001
00000100
00000000
00000000
,  // measure 39
00001000
00000000
00001000
00010000
00000000
00010000
00100000
00000000
00100000
10000000
00000000
10000000
,  // measure 40
02000000
00000000
00000000
00010000
00000000
00000000
03200000
00000000
00000000
00001000
00000000
00010000
,  // measure 41
00000000
00000000
00310000
00000000
00000000
00010000
01000000
00000000
00001000
00010000
00000000
00000100
,  // measure 42
00001000
00000000
00001000
00000010
00000000
00000010
00000100
00000000
00000100
00000001
00000000
00000002
,  // measure 43
00000000
00000000
00000000
00001003
00000000
00001000
00000010
00000000
00010000
00001000
00000000
00100000
,  // measure 44
00010000
00000000
00010000
01000000
00000000
01000000
00100000
00000000
00100000
10000000
00000000
20000000
,  // measure 45
00000000
00000000
00000000
30010000
00000000
00010000
01000000
00000000
00001000
00010000
00000000
00000100
,  // measure 46
00000010
00000000
00000000
00001000
00000000
00100000
01000000
00000000
00000000
00010000
00000000
00001000
,  // measure 47
00000010
00000000
00000000
00001000
00000000
00010000
00100000
00000000
00000000
00010000
00000000
00000000
,  // measure 48
00011000
00000000
00001000
01000000
00000000
00000000
00011000
00000000
00010000
00000200
00000000
00000310
,  // measure 49
00000000
00000000
00000110
00000000
00000000
00000010
00000001
00000000
00000001
00000100
00000000
00000100
,  // measure 50
00001000
00000000
00001000
00010000
00001000
00010000
00001000
00000000
01000000
00010000
01000000
00010000
,  // measure 51
20000000
00000000
30100000
00010000
,  // measure 52
00001000
00000000
00010000
00000100
00010000
00000100
00010000
00000000
00000010
00000100
00000010
00000100
,  // measure 53
00000002
00000000
00000013
00001010
,  // measure 54
00002000
00010000
02003000
00010000
,  // measure 55
03002000
00000100
00023000
00130000
,  // measure 56
10000000
00000000
00000000
01000000
00000000
00010000
00000000
00000000
00001000
00000000
00000000
00022000
,  // measure 57
00000000
00000000
00000000
00033000
,  // measure 58
00010000
00000000
00001000
01000000
00000000
00000000
00010000
00000000
01000000
00001000
00000000
00000000
,  // measure 59
00011000
00000000
00010000
00000100
00000000
00000100
00001000
00000000
00001000
00000001
00000000
00000001
,  // measure 60
00000100
00000000
00000100
00000010
00000000
00000010
00010000
00000000
00010000
00001000
00000000
00200000
,  // measure 61
00000000
00000000
01300000
10000000
00000000
01000000
00100000
00000000
00000000
00110000
00000000
00000000
,  // measure 62
00010000
00000000
01000000
00001000
00000000
00000000
00010000
00000000
00001000
01000000
00000000
00000000
,  // measure 63
00001000
00000000
00010000
00000100
00000000
00000000
00001000
00000000
00000100
00010000
00000000
00000000
,  // measure 64
00011000
00000000
00010000
00000010
00000000
00000010
00000100
00000000
00000100
00000001
00000000
00000001
,  // measure 65
00000010
00000000
00000210
00000000
00000000
00000000
00010300
00000000
00010000
00001000
00100000
00010000
,  // measure 66
00100000
00000000
00010000
01000000
00000000
00000000
00100000
00000000
10000000
01000000
00000000
00000000
,  // measure 67
00010000
00000000
00010000
00001000
00000000
00000000
00000010
00000000
00000001
00000100
00000000
00000000
,  // measure 68
00002002
00000000
00003003
00001100
,  // measure 69
00010100
01001000
01010000
10010000
,  // measure 70
10000000
00000000
00100000
00010000
00000000
00000000
00100000
00000000
00010000
00001000
00000000
00000000
,  // measure 71
00010000
00000000
00001000
00000010
00000000
00001000
00010000
00000000
00001000
00100000
00000000
00001000
,  // measure 72
00010000
00000000
00010000
00000100
00000000
00000100
00000010
00000000
00000010
00000001
00000000
00000200
,  // measure 73
00000000
00000000
00000000
00001300
00010000
00001000
00010000
00100000
01000000
00100000
00000000
00000000
,  // measure 74
10000000
00000000
01000000
00010000
00000000
00000000
00001000
00000000
00000010
00000000
00000001
00000000
,  // measure 75
00000202
00000303
00020020
00000000
,  // measure 76
00000000
00000000
00000000
00030030
,  // measure 77
00011000
00110000
20200000
00000000
,  // measure 78
30300000
00000000
10000000
01000000
00000000
00100000
01000000
00000000
00000000
00010000
00000000
00000000
,  // measure 79
00011000
00001010
00000022
00000000
,  // measure 80
00000033
00000000
00000001
00000100
00000000
00000010
00000100
00000000
00000000
00001000
00000000
00000000
,  // measure 81
00011000
01010000
22000000
00000000
,  // measure 82
33000000
00000000
10000000
00100000
00000000
00010000
00100000
00000000
00000000
01000000
00000000
00000000
,  // measure 83
01001000
00000000
00000000
00000000
00000000
00000000
00010100
00000000
00000000
00000000
00000000
00002020
,  // measure 84
00003030
00000000
00001000
00000001
00000010
00000100
00001000
00000100
00010000
00001000
01000000
00010000
,  // measure 85
00000000
20020000
00000000
00000000
,  // measure 86
00000000
00000000
00000000
00000000
,  // measure 87
00000000
00000000
00000000
30030000
;
