#VERSION:0.83;
#TITLE:Choco Chiptune.;
#SUBTITLE:;
#ARTIST:Ancraft;
#TITLETRANSLIT:;
#SUBTITLETRANSLIT:;
#ARTISTTRANSLIT:;
#GENRE:VARIETY;
#ORIGIN:;
#CREDIT:MUINELIM;
#BANNER:Choco Chiptune..png;
#BACKGROUND:Choco Chiptune.-bg.png;
#PREVIEWVID:;
#JACKET:Choco Chiptune.-jacket.png;
#CDIMAGE:;
#DISCIMAGE:;
#LYRICSPATH:;
#CDTITLE:;
#MUSIC:Choco Chiptune..ogg;
#OFFSET:-2.285000;
#SAMPLESTART:20.570715;
#SAMPLELENGTH:12.125711;
#SELECTABLE:YES;
#BPMS:0.000=210.000;
#STOPS:;
#DELAYS:;
#WARPS:;
#TIMESIGNATURES:0.000=4=4;
#TICKCOUNTS:0.000=4;
#COMBOS:0.000=1;
#SPEEDS:0.000=1.000=0.000=0;
#SCROLLS:0.000=1.000;
#FAKES:;
#LABELS:0.000=Song Start;
#BGCHANGES:;
#KEYSOUNDS:;
#ATTACKS:
;

//---------------dance-single - ----------------
#NOTEDATA:;
#CHARTNAME:;
#STEPSTYPE:dance-single;
#DESCRIPTION:;
#CHARTSTYLE:;
#DIFFICULTY:Hard;
#METER:14;
#RADARVALUES:0.708185,0.879939,0.895897,0.209043,0.059726,664.000000,544.000000,120.000000,28.000000,0.000000,0.000000,0.000000,0.000000,0.000000,0.708185,0.879939,0.895897,0.209043,0.059726,664.000000,544.000000,120.000000,28.000000,0.000000,0.000000,0.000000,0.000000,0.000000;
#CREDIT:MILEN;
#NOTES:
0000
0000
0000
0000
,
0000
0000
0000
0000
,
0000
0000
0000
0000
,
0000
0000
0000
0000
,
0000
0000
0000
0000
,
0000
0000
0000
0000
,
0000
0000
0000
0000
,
0000
0000
0000
0000
,
0010
0000
0020
0000
0000
0000
0000
1030
,
0000
1000
0100
0000
0100
0000
0001
0000
,
0010
0000
0200
0000
0000
0000
0000
0301
,
0010
0000
0010
1000
0000
0010
0000
0001
,
2000
0000
3200
0000
,
0302
0023
2030
3001
,
0001
1000
0001
1000
0001
1000
0001
1000
,
0001
1000
0100
0010
0001
1000
0100
0010
,
0012
0000
0103
1000
0000
1100
0000
0101
,
0000
1000
0010
0001
0000
0011
0000
1010
,
0000
1000
0100
0001
0000
0101
0000
1100
,
0000
0001
0010
1000
0001
0100
1000
0000
,
0110
0000
0001
0100
0000
1100
0000
0011
,
0000
0001
1000
0100
0000
0101
0000
1010
,
0000
1000
0001
0010
0000
0110
0000
1001
,
0000
0000
0001
0100
0001
0000
1000
0000
0100
0000
0010
0000
0001
0000
0100
0000
,
0110
0000
0010
1000
0000
1100
0000
0101
,
0000
1000
0100
0001
0000
0011
0000
1010
,
0000
0001
0100
1000
0000
1010
0000
0011
,
0000
1000
0010
0001
1000
0100
0001
0000
,
0110
0000
1000
0010
0000
0110
0000
1100
,
0000
1000
0001
0010
0000
0110
0000
0101
,
0000
0001
1000
0100
0000
0110
0000
1010
,
0000
0000
1000
0100
1000
0000
0010
0000
0100
0000
0001
0000
1000
0000
0010
0000
,
0110
0000
1000
0100
0010
0100
1000
0010
,
0100
0000
0001
0010
0100
0010
0001
0100
,
0010
0000
1000
0010
0100
1000
0100
0001
,
1000
0010
0001
0010
0100
0001
1001
0000
,
0110
0000
0001
0010
1000
0010
0100
1000
,
0010
0000
1000
0100
0001
0100
0010
0001
,
0100
0000
1000
0100
0001
0010
0100
0110
,
0000
0000
0010
0001
0010
0000
0100
0000
1000
0000
0010
0000
0100
0000
0001
0000
,
1001
0000
1000
0010
0001
1000
0100
0010
,
1000
0000
0001
0100
1000
0001
0010
0100
,
0001
1000
0100
0001
0000
0110
0000
1001
,
0000
1000
0010
0001
0010
0100
0001
0000
,
0010
1010
0100
0101
,
0010
0011
0100
1100
,
1001
0001
1000
0001
1000
0001
1000
0001
,
1000
0100
1000
0000
0001
0100
0001
0000
1000
0000
0100
0000
0010
0000
0000
0000
,
0011
0000
0000
0101
0000
0000
1010
0000
,
0000
1100
0000
0000
1001
0000
0110
0000
,
1010
0000
0000
1100
0000
0000
0011
0000
,
0000
0101
0000
0000
1001
0000
0110
0000
,
1010
0000
0000
1100
0000
0000
0101
0000
,
0000
0011
0000
0000
0110
0000
1001
0000
,
0101
0000
0000
0011
0000
0000
1010
0000
,
0000
1100
0000
0000
0110
0000
1001
0000
,
1000
0010
0100
0010
1000
0100
0010
0100
,
1000
0010
0100
1000
0100
0010
1000
0000
,
0001
0100
0010
0100
0001
0010
0100
0010
,
0001
0100
0010
0001
0010
0100
0001
0000
,
1000
0100
0010
0100
1000
0010
0100
1000
,
0001
0010
0100
0001
0010
0100
0010
0001
,
1000
1000
0010
0100
0100
0010
0001
0001
,
0010
0000
1000
0000
0100
0000
0010
0000
0001
0000
0100
0000
0010
1000
0010
0000
,
2002
0000
0000
0000
,
0000
0000
0000
0000
,
3003
0000
0000
0000
,
0000
0000
0000
0000
,
0220
0000
0000
0000
,
0000
0000
0000
0000
,
0330
0000
0000
0000
,
0000
0000
0000
0000
,
1010
0000
0001
0000
0200
0000
0000
1300
,
0000
0001
0010
0000
1000
0000
0100
0000
,
0011
0000
1000
0000
0200
0000
0000
0301
,
0000
1000
0010
0000
0001
0000
0100
0000
,
1010
0000
0011
0000
,
1100
0000
0101
1001
,
1000
0010
1000
0010
0100
0001
0100
0001
,
1000
0100
1000
0000
0001
0010
0001
0000
0100
0010
0100
0010
0200
0000
0000
0000
,
0301
0000
0001
0010
0000
1010
0000
0202
,
0303
0000
1000
0100
0000
0101
0000
2020
,
3030
0000
0001
0100
0000
1100
0000
0011
,
0000
0001
0100
1000
0001
0010
1000
0000
,
0110
0000
1000
0010
0000
0011
0000
2200
,
3300
0000
0001
0100
0000
1100
0000
0022
,
0033
0000
1000
0100
0000
0101
0000
1010
,
0000
0000
1000
0001
1000
0000
0010
0000
0001
0000
0010
0000
0100
0000
0001
0000
,
1001
0000
1000
0100
0001
1000
0010
0220
,
0330
0000
0001
0010
1000
0001
0100
0220
,
0330
0000
0001
0100
1000
0001
0010
0110
,
0000
1000
0010
0001
1000
0100
0110
0000
,
1000
1010
0001
0011
,
1000
1100
0001
0101
,
0110
0010
0100
0010
0100
0010
0100
0010
,
1000
0100
1000
0000
0001
0010
0001
0000
0010
0000
0100
0000
1000
0000
0000
0000
,
1100
0000
0000
1010
0000
0000
0011
0000
,
0000
0101
0000
0000
1100
0000
1001
0000
,
0101
0000
0000
0011
0000
0000
1010
0000
,
0000
1100
0000
0000
0101
0000
1001
0000
,
1010
0000
0000
0011
0000
0000
1100
0000
,
0000
0101
0000
0000
1010
0000
1001
0000
,
0011
0000
0000
1010
0000
0000
0101
0000
,
0000
1100
0000
0000
0011
0000
1001
0000
,
1000
0010
0001
0010
1000
0100
0010
1000
,
0010
0100
1000
0010
0001
0010
0010
0100
,
0001
0010
1000
0010
0001
0100
0010
0001
,
0010
0100
0001
0010
1000
0010
0010
0100
,
1000
0010
0001
1000
0100
0001
0010
1000
,
0001
0100
1000
0010
0100
0100
0100
0001
,
0010
0010
1000
0100
0100
0001
0010
0010
,
1000
0000
0100
0010
0100
0000
0001
0000
0100
0010
0100
0000
1000
0001
1000
0000
,
0020
0030
0000
0000
;

//---------------dance-double - ----------------
#NOTEDATA:;
#CHARTNAME:;
#STEPSTYPE:dance-double;
#DESCRIPTION:;
#CHARTSTYLE:;
#DIFFICULTY:Hard;
#METER:14;
#RADARVALUES:0.688987,0.838037,0.746581,0.119453,0.044795,646.000000,546.000000,100.000000,16.000000,0.000000,0.000000,0.000000,0.000000,0.000000,0.688987,0.838037,0.746581,0.119453,0.044795,646.000000,546.000000,100.000000,16.000000,0.000000,0.000000,0.000000,0.000000,0.000000;
#CREDIT:MILEN;
#NOTES:
// measure 0
00000000
00000000
00000000
00000000
,  // measure 1
00000000
00000000
00000000
00000000
,  // measure 2
00000000
00000000
00000000
00000000
,  // measure 3
00000000
00000000
00000000
00000000
,  // measure 4
00000000
00000000
00000000
00000000
,  // measure 5
00000000
00000000
00000000
00000000
,  // measure 6
00000000
00000000
00000000
00000000
,  // measure 7
00000000
00000000
00000000
00000000
,  // measure 8
00001000
00000000
00002000
00000000
00000000
00000000
00000000
00013000
,  // measure 9
00000000
00010000
01000000
00000000
01000000
00000000
10000000
00000000
,  // measure 10
00100000
00000000
00020000
00000000
00000000
00000000
00000000
00031000
,  // measure 11
00000010
00000000
00000010
00000001
00000000
00001000
00000000
00000010
,  // measure 12
00020000
00000000
00032000
00000000
,  // measure 13
00203000
02300000
23000000
30010000
,  // measure 14
00010000
01000000
00010000
01000000
00010000
01000000
00010000
01000000
,  // measure 15
00010000
01000000
00001000
00010000
00000100
00001000
00000010
00010000
,  // measure 16
00012000
00000000
00103000
00010000
00000000
01010000
00000000
10000000
,  // measure 17
00000000
01000000
00010000
00001000
00000000
00011000
00000000
00000100
,  // measure 18
00000000
00000010
00000001
00000100
00000000
00001100
00000000
00010000
,  // measure 19
00000000
00001000
00010000
00100000
01000000
00010000
00100000
00000000
,  // measure 20
10100000
00000000
01000000
00010000
00000000
00110000
00000000
00001000
,  // measure 21
00000000
00010000
00001000
00000010
00000000
00000011
00000000
00001000
,  // measure 22
00000000
00000100
00010000
00001000
00000000
00011000
00000000
00100000
,  // measure 23
00000000
00000000
01000000
00100000
01000000
00000000
00100000
00000000
10000000
00000000
01000000
00000000
00100000
00000000
00010000
00000000
,  // measure 24
01010000
00000000
10000000
00100000
00000000
00110000
00000000
00001000
,  // measure 25
00000000
00010000
00001000
00000100
00000000
00000101
00000000
00000010
,  // measure 26
00000000
00001000
00000100
00010000
00000000
00011000
00000000
01000000
,  // measure 27
00000000
00010000
00100000
01000000
10000000
00100000
01000000
00000000
,  // measure 28
01001000
00000000
00010000
00000100
00000000
00001010
00000000
00000001
,  // measure 29
00000000
00000100
00001000
00010000
00000000
00101000
00000000
01000000
,  // measure 30
00000000
00010000
10000000
01000000
00000000
01100000
00000000
00010000
,  // measure 31
00000000
00000000
00001000
00010000
00001000
00000000
00010000
00000000
00000100
00000000
00001000
00000000
00000010
00000000
00000100
00000000
,  // measure 32
00000101
00000000
00001000
00000100
00000010
00001000
00010000
01000000
,  // measure 33
00100000
00000000
00010000
00100000
01000000
00010000
00001000
00000010
,  // measure 34
00000100
00000000
00001000
00000010
00010000
00001000
00100000
00010000
,  // measure 35
01000000
00001000
00010000
00000100
00001000
00000010
00010000
00000000
,  // measure 36
00011000
00000000
00010000
00100000
10000000
00100000
01000000
00001000
,  // measure 37
00010000
00000000
00001000
00000100
00000001
00000100
00000010
00010000
,  // measure 38
00001000
00000000
00010000
00100000
10000000
01000000
00100000
01100000
,  // measure 39
00000000
00000000
10000000
00010000
10000000
00000000
00100000
00000000
00010000
00000000
00001000
00000000
00000100
00000000
00000001
00000000
,  // measure 40
00001001
00000000
00001000
00000100
00000010
00001000
00100000
00010000
,  // measure 41
01000000
00000000
00010000
00100000
01000000
00010000
00000100
00001000
,  // measure 42
00000010
00000100
00000001
00000010
00000000
00001010
00000000
00011000
,  // measure 43
00000000
00010000
00100000
10000000
00100000
01000000
10000000
00000000
,  // measure 44
01000000
01010000
00100000
00101000
,  // measure 45
00000010
00010010
00000100
00001100
,  // measure 46
00001001
00000001
00000100
00000001
00000100
00000001
00000100
00000001
,  // measure 47
00000100
00000000
00001000
00000000
00010000
00001000
00010000
00000000
01000000
00000000
10000000
00000000
00100000
00000000
00000000
00000000
,  // measure 48
01100000
00000000
00000000
10010000
00000000
00000000
01100000
00000000
,  // measure 49
00000000
10010000
00000000
00000000
01100000
00000000
00001000
00000000
,  // measure 50
00011000
00000000
00000000
01001000
00000000
00000000
00011000
00000000
,  // measure 51
00000000
00010010
00000000
00000000
00011000
00000000
00000100
00000000
,  // measure 52
00000110
00000000
00000000
00001001
00000000
00000000
00000110
00000000
,  // measure 53
00000000
00001001
00000000
00000000
00000110
00000000
00001000
00000000
,  // measure 54
00011000
00000000
00000000
00110000
00000000
00000000
00011000
00000000
,  // measure 55
00000000
00001100
00000000
00000000
00011000
00000000
00011000
00000000
,  // measure 56
00010000
00100000
01000000
00010000
00100000
00010000
01000000
00100000
,  // measure 57
00010000
00100000
01000000
00010000
00100000
01000000
00010000
00000000
,  // measure 58
00001000
00000100
00000010
00001000
00000100
00001000
00000010
00000100
,  // measure 59
00001000
00000100
00000010
00001000
00000100
00000010
00001000
00000000
,  // measure 60
00010000
01000000
00100000
01000000
00010000
00001000
00000010
00000100
,  // measure 61
00000010
00001000
00010000
00100000
00010000
00001000
00000010
00000001
,  // measure 62
00000100
00000100
00001000
00010000
00010000
00100000
10000000
10000000
,  // measure 63
01000000
00010000
00001000
00000010
00000001
00000100
00001000
00010000
,  // measure 64
00022000
00000000
00000000
00000000
,  // measure 65
00000000
00000000
00000000
00000000
,  // measure 66
00033000
00000000
00000000
00000000
,  // measure 67
00000000
00000000
00000000
00000000
,  // measure 68
02200000
00000000
00000000
00000000
,  // measure 69
00000000
00000000
00000000
00000000
,  // measure 70
03300000
00000000
00000000
00000000
,  // measure 71
00000000
00000000
00000000
00000000
,  // measure 72
10010000
00000000
10000000
00000000
02000000
00000000
00000000
03010000
,  // measure 73
00000000
00010000
00001000
00000000
00000010
00000000
00000001
00000000
,  // measure 74
00001001
00000000
00000001
00000000
00000200
00000000
00000000
00001300
,  // measure 75
00000000
00001000
00010000
00000000
00100000
00000000
10000000
00000000
,  // measure 76
10010000
00000000
01010000
00000000
,  // measure 77
00011000
00000000
00001010
00001001
,  // measure 78
00000001
00000010
00000001
00000010
00000100
00001000
00000100
00001000
,  // measure 79
00010000
00000000
01000000
00000000
00100000
00000000
10000000
00000000
01000000
00100000
01000000
00100000
02000000
00000000
00000000
00000000
,  // measure 80
03010000
00000000
00010000
00001000
00000000
00001010
00000000
00000011
,  // measure 81
00000000
00000001
00000100
00001000
00000000
00011000
00000000
00110000
,  // measure 82
00000000
00100000
10000000
01000000
00000000
11000000
00000000
01010000
,  // measure 83
00000000
00010000
00001000
00000010
00001000
00010000
00001000
00000000
,  // measure 84
00011000
00000000
00010000
00100000
00000000
10100000
00000000
11000000
,  // measure 85
00000000
10000000
01000000
00010000
00000000
00011000
00000000
00001010
,  // measure 86
00000000
00000010
00000001
00000100
00000000
00001100
00000000
00011000
,  // measure 87
00000000
00000000
00010000
00001000
00010000
00000000
00100000
00000000
10000000
00000000
01000000
00000000
00100000
00000000
00010000
00000000
,  // measure 88
10010000
00000000
10000000
01000000
00010000
00001000
00000010
00000011
,  // measure 89
00000000
00000001
00000100
00001000
00010000
00100000
10000000
11000000
,  // measure 90
00000000
10000000
01000000
00010000
00001000
00000010
00000001
00000101
,  // measure 91
00000000
00000100
00001000
00010000
00001000
00000100
00001000
00000000
,  // measure 92
00010000
00010010
00001000
00101000
,  // measure 93
00010000
00010100
00001000
01001000
,  // measure 94
01010000
00010000
00100000
00010000
00100000
00010000
00100000
00010000
,  // measure 95
10000000
01000000
10000000
00000000
00100000
01000000
00100000
00000000
00010000
00000000
00001000
00000000
00000100
00000000
00000000
00000000
,  // measure 96
00000101
00000000
00000000
00001010
00000000
00000000
00000101
00000000
,  // measure 97
00000000
00001010
00000000
00000000
00000101
00000000
00001000
00000000
,  // measure 98
00011000
00000000
00000000
01010000
00000000
00000000
00011000
00000000
,  // measure 99
00000000
00001010
00000000
00000000
00011000
00000000
01000000
00000000
,  // measure 100
11000000
00000000
00000000
00110000
00000000
00000000
11000000
00000000
,  // measure 101
00000000
00110000
00000000
00000000
11000000
00000000
00010000
00000000
,  // measure 102
00011000
00000000
00000000
00101000
00000000
00000000
00011000
00000000
,  // measure 103
00000000
00010100
00000000
00000000
00011000
00000000
00011000
00000000
,  // measure 104
00001000
00010000
01000000
00010000
00001000
00100000
01000000
10000000
,  // measure 105
00100000
00010000
00001000
00100000
01000000
00010000
00010000
00001000
,  // measure 106
00010000
00001000
00000100
00001000
00010000
00000010
00000100
00000001
,  // measure 107
00000010
00001000
00010000
00000010
00000100
00001000
00001000
00010000
,  // measure 108
00100000
10000000
01000000
00010000
00001000
00000010
00000001
00000100
,  // measure 109
00001000
00010000
01000000
10000000
00100000
00010000
00001000
00000100
,  // measure 110
00000001
00000001
00000010
00000100
00000100
00001000
00010000
00010000
,  // measure 111
00100000
00000000
01000000
10000000
01000000
00000000
00010000
00000000
00001000
00010000
00001000
00000000
00000100
00000010
00000100
00000000
,  // measure 112
00000002
00000003
00000000
00000000
;

//---------------dance-single - ----------------
#NOTEDATA:;
#CHARTNAME:;
#STEPSTYPE:dance-single;
#DESCRIPTION:;
#CHARTSTYLE:;
#DIFFICULTY:Beginner;
#METER:4;
#RADARVALUES:0.162115,0.292660,0.000000,0.044795,0.000000,152.000000,152.000000,0.000000,6.000000,0.000000,0.000000,0.000000,0.000000,0.000000,0.162115,0.292660,0.000000,0.044795,0.000000,152.000000,152.000000,0.000000,6.000000,0.000000,0.000000,0.000000,0.000000,0.000000;
#CREDIT:MILEN;
#NOTES:
0000
0000
0000
0000
,
0000
0000
0000
0000
,
0000
0000
0000
0000
,
0000
0000
0000
0000
,
0000
0000
0000
0000
,
0000
0000
0000
0000
,
0000
0000
0000
0000
,
0000
0000
0000
0000
,
1000
0000
0000
0000
,
0000
0000
0000
0000
,
0001
0000
0000
0000
,
0000
0000
0000
0000
,
1000
0000
0000
0000
,
0001
0000
0000
0000
,
1000
0000
1000
0000
,
2000
0000
0000
3000
,
1000
0000
0000
0000
,
0100
0000
0000
0000
,
0010
0000
0000
0000
,
0001
0000
0000
0000
,
0001
0000
0000
0000
,
0010
0000
0000
0000
,
0100
0000
0000
0000
,
1000
0000
0000
0000
,
1000
0000
0000
0000
,
0010
0000
0000
0000
,
0100
0000
0000
0000
,
0001
0000
0000
0000
,
0001
0000
0000
0000
,
0100
0000
0000
0000
,
0010
0000
0000
0000
,
1000
0000
0000
0000
,
1000
0000
1000
0000
,
1000
0000
0000
0000
,
0010
0000
0010
0000
,
0010
0000
0000
0000
,
0001
0000
0001
0000
,
0001
0000
0000
0000
,
0100
0000
0100
0000
,
0100
0000
0000
0000
,
1000
0000
1000
0000
,
0001
0000
0001
0000
,
0100
0000
0100
0000
,
0010
0000
0010
0000
,
0100
0200
0000
0000
,
0000
0000
0300
0000
,
0020
0000
0000
0000
,
0000
0000
0030
0000
,
1000
0000
0000
0000
,
0001
0000
1000
0000
,
0001
0000
0000
0000
,
1000
0000
0001
0000
,
1000
0000
0000
0000
,
0001
0000
1000
0000
,
0001
0000
0000
0000
,
1000
0000
0001
0000
,
1000
0000
0100
0000
,
0010
0000
0001
0000
,
1000
0000
0100
0000
,
0010
0000
0001
0000
,
1000
0000
0100
0000
,
0010
0000
0001
0000
,
0100
0000
0100
0000
,
0100
0100
0100
0100
,
0100
0000
0000
0000
,
0000
0000
0000
0000
,
0000
0000
0000
0000
,
0000
0000
0000
0000
,
0000
0000
0000
0000
,
0000
0000
0000
0000
,
0000
0000
0000
0000
,
0000
0000
0000
0000
,
0010
0010
0000
0000
,
1000
0000
0001
0000
,
0010
0010
0000
0000
,
0001
0000
1000
0000
,
0010
0000
0010
0000
,
0100
0000
0100
0000
,
0010
0000
0010
0000
,
0010
0010
0020
0030
,
0010
0000
1000
0000
,
0010
0000
1000
0000
,
0010
0000
1000
0000
,
0010
0000
0010
0000
,
0100
0000
0001
0000
,
0100
0000
0001
0000
,
0100
0000
0001
0000
,
0100
0000
0100
0000
,
0001
0000
0010
0000
,
0100
0000
1000
0000
,
0001
0000
0010
0000
,
0100
0000
1000
0000
,
0010
0020
0000
0000
,
0000
0000
0030
0000
,
0200
0000
0000
0000
,
0000
0000
0300
0000
,
0100
0000
0000
0000
,
0001
0000
0000
0000
,
1000
0000
0000
0000
,
0010
0000
0000
0000
,
0100
0000
0001
0000
,
1000
0000
0010
0000
,
0100
0000
0001
0000
,
1000
0000
0010
0010
,
0010
0000
0001
0000
,
0100
0000
0100
0000
,
0100
0000
1000
0000
,
0010
0000
0010
0000
,
0010
0000
0001
0000
,
0100
0000
1000
0000
,
0010
0000
0100
0000
,
0010
0000
0100
0100
,
0010
0000
0000
0000
;

//---------------dance-single - ----------------
#NOTEDATA:;
#CHARTNAME:;
#STEPSTYPE:dance-single;
#DESCRIPTION:;
#CHARTSTYLE:;
#DIFFICULTY:Easy;
#METER:7;
#RADARVALUES:0.290100,0.459894,0.126919,0.067192,0.000000,272.000000,255.000000,17.000000,9.000000,0.000000,0.000000,0.000000,0.000000,0.000000,0.290100,0.459894,0.126919,0.067192,0.000000,272.000000,255.000000,17.000000,9.000000,0.000000,0.000000,0.000000,0.000000,0.000000;
#CREDIT:MILEN;
#NOTES:
0000
0000
0000
0000
,
0000
0000
0000
0000
,
0000
0000
0000
0000
,
0000
0000
0000
0000
,
0000
0000
0000
0000
,
0000
0000
0000
0000
,
0000
0000
0000
0000
,
0000
0000
0000
0000
,
0100
0100
0000
0000
,
1000
0001
1001
0000
,
0010
0010
0000
0000
,
0001
1000
1001
0000
,
0010
0000
0100
0000
,
0010
0000
0100
0000
,
0020
0000
0000
0000
,
0000
0030
0010
1000
,
0001
0000
0001
0000
,
1000
0000
1000
0000
,
0001
0000
1000
0000
,
0001
1000
0001
1001
,
1000
0000
1000
0000
,
0001
0000
0001
0000
,
1000
0000
0001
0000
,
1000
0001
1000
1001
,
0010
0000
0010
0000
,
0100
0000
0100
0000
,
0010
0000
0100
0000
,
0010
0100
0010
0110
,
0100
0000
0100
0000
,
0010
0000
0010
0000
,
0100
0000
0010
0000
,
0100
0010
0100
0110
,
1000
0000
0010
0000
,
1000
0100
0010
0000
,
0100
0000
1000
0000
,
0010
0100
0010
0110
,
0001
0000
0100
0000
,
0001
0010
0100
0000
,
0010
0000
0001
0000
,
0100
0010
0100
0110
,
0001
0000
1000
0000
,
0001
1000
0100
0000
,
1000
0000
0001
0000
,
1000
0001
0010
0000
,
0002
2000
0000
0000
,
0000
0000
3003
0000
,
0220
0000
0000
0000
,
0000
0000
0330
0000
,
0010
0000
0000
1000
0000
0000
0010
0000
,
0000
1000
0000
0000
0010
0000
0000
0000
,
0100
0000
0000
0001
0000
0000
0100
0000
,
0000
0001
0000
0000
0100
0000
0000
0000
,
0001
0000
0000
0010
0000
0000
0001
0000
,
0000
0010
0000
0000
0001
0000
0000
0000
,
1000
0000
0000
0100
0000
0000
1000
0000
,
0000
0100
0000
0000
1000
0000
0000
0000
,
0001
0001
0100
0000
,
1000
1000
0010
0000
,
0001
0001
0100
0000
,
1000
1000
0010
0000
,
1000
1000
0100
0000
,
0001
0001
0010
0000
,
1000
1000
0100
0100
,
0001
0001
0010
0010
,
0110
0000
0000
0000
,
0000
0000
0000
0000
,
0000
0000
0000
0000
,
0000
0000
0000
0000
,
1001
0000
0000
0000
,
0000
0000
0000
0000
,
0000
0000
0000
0000
,
0000
0000
0000
0000
,
1000
0100
1000
0000
,
0010
0100
0001
0000
,
0001
0010
0001
0000
,
0100
0010
1000
0000
,
0001
0000
0001
0000
,
1000
0000
1000
0000
,
0001
1000
0001
1000
,
0010
0100
0010
0110
,
1000
0100
0010
0000
,
0010
0001
0100
0000
,
1000
0100
0010
0000
,
0010
0001
0100
0100
,
0000
0001
0010
0100
,
0000
0100
1000
0010
,
0000
0001
0010
0100
,
0000
0100
1000
0010
,
0010
0100
0001
0100
,
0010
1000
0010
0100
,
0001
0010
0001
1000
,
0100
1000
0001
0100
,
0020
0200
0000
0000
,
0000
0000
0330
0000
,
2002
0000
0000
0000
,
0000
0000
0000
3003
,
1000
0000
0000
0100
0000
0000
0010
0000
,
0000
0001
0000
0000
0010
0000
0000
0000
,
0001
0000
0000
0010
0000
0000
0100
0000
,
0000
1000
0000
0000
0100
0000
0000
0000
,
1000
0000
0000
0010
0000
0000
0100
0000
,
0000
0001
0000
0000
1000
0000
0000
0000
,
0001
0000
0000
0100
0000
0000
0010
0000
,
0000
1000
0000
0000
0001
0000
0000
0000
,
1000
0100
0001
0000
,
0001
0100
1000
0000
,
0001
0010
1000
0000
,
1000
0010
0001
0000
,
1000
0100
0110
0000
,
0001
0010
0110
0000
,
1000
0001
1000
1001
,
0010
0100
0010
0010
,
0110
0000
0000
0000
;

//---------------dance-double - ----------------
#NOTEDATA:;
#CHARTNAME:;
#STEPSTYPE:dance-double;
#DESCRIPTION:;
#CHARTSTYLE:;
#DIFFICULTY:Easy;
#METER:7;
#RADARVALUES:0.283701,0.459894,0.126919,0.067192,0.000000,266.000000,249.000000,17.000000,9.000000,0.000000,0.000000,0.000000,0.000000,0.000000,0.283701,0.459894,0.126919,0.067192,0.000000,266.000000,249.000000,17.000000,9.000000,0.000000,0.000000,0.000000,0.000000,0.000000;
#CREDIT:MILEN;
#NOTES:
00000000
00000000
00000000
00000000
,
00000000
00000000
00000000
00000000
,
00000000
00000000
00000000
00000000
,
00000000
00000000
00000000
00000000
,
00000000
00000000
00000000
00000000
,
00000000
00000000
00000000
00000000
,
00000000
00000000
00000000
00000000
,
00000000
00000000
00000000
00000000
,
00001000
00001000
00000000
00000000
,
00010000
00001000
00011000
00000000
,
00010000
00010000
00000000
00000000
,
00001000
00010000
00011000
00000000
,
01000000
00000000
00001000
00000000
,
00010000
00000000
00000100
00000000
,
00000020
00000000
00000000
00000000
,
00000000
00000030
00000010
00000001
,
00000100
00000000
00000100
00000000
,
00001000
00000000
00001000
00000000
,
00010000
00000000
01000000
00000000
,
10000000
00010000
10000000
10010000
,
00100000
00000000
00100000
00000000
,
00010000
00000000
00010000
00000000
,
00001000
00000000
00000010
00000000
,
00000001
00001000
00000001
00001001
,
00000010
00000000
00000010
00000000
,
00001000
00000000
00001000
00000000
,
00010000
00000000
00100000
00000000
,
10000000
01000000
00100000
01100000
,
01000000
00000000
01000000
00000000
,
00010000
00000000
00010000
00000000
,
00001000
00000000
00000100
00000000
,
00000001
00000010
00000100
00000110
,
00000001
00000000
00000100
00000000
,
00001000
00010000
00001000
00000000
,
00000100
00000000
00000001
00000000
,
00000010
00001000
00100000
01100000
,
10000000
00000000
00100000
00000000
,
00010000
00001000
00010000
00000000
,
00100000
00000000
10000000
00000000
,
01000000
00001000
00000100
00000110
,
00000001
00000000
00000100
00000000
,
00001000
00010000
00100000
00000000
,
10000000
00000000
01000000
00000000
,
00010000
00001000
00000010
00000000
,
00000002
00002000
00000000
00000000
,
00000000
00000000
00003003
00000000
,
00000220
00000000
00000000
00000000
,
00000000
00000000
00000330
00000000
,
00000010
00000000
00000000
00001000
00000000
00000000
00000010
00000000
,
00000000
00001000
00000000
00000000
00000010
00000000
00000000
00000000
,
00010000
00000000
00000000
00001000
00000000
00000000
00010000
00000000
,
00000000
00001000
00000000
00000000
00010000
00000000
00000000
00000000
,
00001000
00000000
00000000
00100000
00000000
00000000
00001000
00000000
,
00000000
00100000
00000000
00000000
00001000
00000000
00000000
00000000
,
01000000
00000000
00000000
00100000
00000000
00000000
01000000
00000000
,
00000000
00100000
00000000
00000000
01000000
00000000
00000000
00000000
,
00100000
00000000
10000000
00000000
,
01000000
00000000
00010000
00000000
,
00001000
00000000
00000010
00000000
,
00000001
00000000
00000100
00000000
,
00001000
00000000
00010000
00000000
,
01000000
00000000
10000000
00000000
,
00100000
00010000
00001000
00000010
,
00001000
00010000
00100000
00010000
,
00011000
00000000
00000000
00000000
,
00000000
00000000
00000000
00000000
,
00000000
00000000
00000000
00000000
,
00000000
00000000
00000000
00000000
,
00011000
00000000
00000000
00000000
,
00000000
00000000
00000000
00000000
,
00000000
00000000
00000000
00000000
,
00000000
00000000
00000000
00000000
,
00001000
00010000
01000000
00000000
,
00010000
00001000
00000100
00000000
,
00001000
00010000
00100000
00000000
,
00010000
00001000
00000010
00000000
,
00000001
00000000
00000100
00000000
,
00010000
00000000
00100000
00000000
,
10000000
01000000
10000000
01000000
,
00100000
00001000
00010000
00011000
,
00000100
00001000
00000001
00000000
,
00000100
00000001
00001000
00000000
,
00000100
00001000
00000001
00000000
,
00000100
00001000
00010000
00010000
,
00000000
00100000
10000000
00010000
,
00000000
00100000
00010000
10000000
,
00000000
00100000
10000000
00010000
,
00000000
00100000
00010000
10000000
,
10000000
01000000
00010000
00001000
,
00010000
00001000
00000010
00000001
,
00000100
00001000
00010000
00001000
,
00010000
01000000
10000000
00100000
,
02000000
00200000
00000000
00000000
,
00000000
00000000
03300000
00000000
,
20020000
00000000
00000000
00000000
,
00000000
00000000
00000000
30030000
,
10000000
00000000
00000000
01000000
00000000
00000000
00100000
00000000
,
00000000
00010000
00000000
00000000
00100000
00000000
00000000
00000000
,
00100000
00000000
00000000
00001000
00000000
00000000
00010000
00000000
,
00000000
00001000
00000000
00000000
00000010
00000000
00000000
00000000
,
00000010
00000000
00000000
00000001
00000000
00000000
00000010
00000000
,
00000000
00000100
00000000
00000000
00001000
00000000
00000000
00000000
,
00001000
00000000
00000000
00000010
00000000
00000000
00010000
00000000
,
00000000
00001000
00000000
00000000
00010000
00000000
00000000
00000000
,
00010000
00100000
10000000
00000000
,
10000000
01000000
00010000
00000000
,
00001000
00000010
00000001
00000000
,
00000001
00000100
00001000
00000000
,
00010000
00001000
00011000
00000000
,
00001000
00010000
00011000
00000000
,
01000000
00001000
00010000
00011000
,
00000010
00010000
00001000
00010000
,
00011000
00000000
00000000
00000000
;

//---------------dance-single - ----------------
#NOTEDATA:;
#CHARTNAME:;
#STEPSTYPE:dance-single;
#DESCRIPTION:;
#CHARTSTYLE:;
#DIFFICULTY:Medium;
#METER:11;
#RADARVALUES:0.447948,0.544724,0.246372,0.186645,0.000000,420.000000,387.000000,33.000000,25.000000,0.000000,0.000000,0.000000,0.000000,0.000000,0.447948,0.544724,0.246372,0.186645,0.000000,420.000000,387.000000,33.000000,25.000000,0.000000,0.000000,0.000000,0.000000,0.000000;
#CREDIT:MILEN;
#NOTES:
0000
0000
0000
0000
,
0000
0000
0000
0000
,
0000
0000
0000
0000
,
0000
0000
0000
0000
,
0000
0000
0000
0000
,
0000
0000
0000
0000
,
0000
0000
0000
0000
,
0000
0000
0000
0000
,
0100
0000
0200
0000
0000
0000
0000
0301
,
0000
0001
1000
0000
0100
0000
1000
0000
,
0010
0000
0020
0000
0000
0000
0000
1030
,
0001
0000
0001
0100
0000
0100
0010
0000
,
2000
3000
0002
0003
,
0010
0100
0010
0100
,
1000
0010
0100
0001
,
1000
0010
1000
0010
1000
0010
0100
0000
,
0001
0000
0010
0001
0000
0100
0000
0010
,
0000
0000
0010
1000
0000
0100
0000
0010
,
0000
0000
0010
0001
0000
0100
0000
0010
,
0000
0010
1000
0000
0001
0000
2002
0000
,
3003
0000
0100
1000
0000
0010
0000
0100
,
0000
0000
0100
0001
0000
0010
0000
0100
,
0000
0000
0100
1000
0000
0010
0000
0100
,
0000
0000
0100
0001
1000
0000
0001
0000
,
1001
0000
1000
0010
0000
0100
0000
0001
,
0000
0000
0001
0010
0000
0100
0000
1000
,
0000
0000
1000
0010
0000
0100
0000
0001
,
0000
0001
0010
0000
0100
0000
0220
0000
,
0330
0000
0001
0100
0000
0010
0000
1000
,
0000
0000
1000
0100
0000
0010
0000
0001
,
0000
0000
0001
0100
0000
0010
0000
1000
,
0000
1000
0100
0000
0010
0100
0010
0000
,
0011
0001
0100
0010
,
0010
1000
0100
0010
,
0010
0001
0100
0010
,
0010
1000
0200
0310
,
1100
1000
0010
0100
,
0100
0001
0010
0100
,
0100
1000
0010
0100
,
0100
0001
0010
0100
,
0110
0000
1000
0001
1000
0000
0010
0000
,
0100
0000
0001
1000
0001
0000
0100
0000
,
0010
0000
1000
0100
1000
0000
0010
0000
,
0100
0000
0001
0010
0001
0000
0100
0000
,
0010
0220
0000
0000
,
0000
0000
0000
0330
,
2002
0000
0000
3003
,
0001
0100
1000
0010
,
0001
0000
0000
1000
0000
0000
0010
0000
,
0000
0100
0000
0000
0010
0000
0010
0000
,
1000
0000
0000
0001
0000
0000
0100
0000
,
0000
0010
0000
0000
0100
0000
0100
0000
,
0010
0000
0000
1000
0000
0000
0100
0000
,
0000
0001
0000
0000
0100
0000
0100
0000
,
0010
0000
0000
1000
0000
0000
0010
0000
,
0000
0001
0000
0000
0100
0000
0100
0000
,
0010
1000
0100
0000
1000
0000
0001
0000
,
0010
0001
0100
0000
0001
0000
1000
0000
,
0001
0010
0100
0000
0010
0000
0100
0000
,
1000
0100
0010
0000
0100
0000
0010
0000
,
0001
0100
0010
0000
1000
0000
0010
0000
,
1000
0010
0100
0000
0001
0000
0100
0000
,
0010
1000
0000
1000
0100
0000
0100
0010
,
0000
0010
0001
0000
0001
0100
0010
0000
,
0220
0000
0000
0000
,
0000
0000
0000
0000
,
0330
0000
0000
0000
,
0000
0000
0000
0000
,
2002
0000
0000
0000
,
0000
0000
0000
0000
,
3003
0000
0000
0000
,
0000
0000
0000
0000
,
1001
0000
0010
0000
0020
0000
0000
0130
,
0000
0100
0001
0000
0010
0000
0100
0000
,
1000
0000
0100
0000
0200
0000
0000
0310
,
0000
0010
0001
0000
0100
0000
0010
0000
,
1010
0000
0101
0000
,
0011
0000
1100
1000
,
0010
0100
0001
1000
,
0100
0010
0100
0010
0100
0010
0001
0000
,
0100
0000
0010
1000
0000
0001
0000
0100
,
0000
0000
0100
1000
0000
0001
0000
0010
,
0000
0000
0010
1000
0000
0001
0000
0100
,
0000
0100
0010
0000
1000
0001
1000
0000
,
1001
0000
0100
0001
0000
1000
0000
0010
,
0000
0000
0010
0001
0000
1000
0000
0100
,
0000
0000
0100
0001
0000
1000
0000
0010
,
0000
0000
0010
0100
0000
0100
0010
0000
,
0110
0000
0100
0001
0000
0010
0000
1000
,
0000
0000
1000
0100
0000
0001
0000
0010
,
0000
0000
0010
1000
0000
0100
0000
0001
,
0000
0010
0100
0010
0100
0010
0100
0000
,
0010
2002
0000
0000
,
0000
0000
0000
3003
,
0220
0000
0000
0330
,
0010
1000
0100
0010
,
0011
0000
0000
1000
0000
0000
1010
0000
,
0000
0001
0000
0000
1001
0000
0100
0000
,
1100
0000
0000
1000
0000
0000
0101
0000
,
0000
0001
0000
0000
1001
0000
0100
0000
,
0110
0000
0000
1000
0000
0000
0101
0000
,
0000
1000
0000
0000
0011
0000
0100
0000
,
0110
0000
0000
0001
0000
0000
1100
0000
,
0000
0001
0000
0000
1010
0000
0010
0000
,
0100
0001
0100
0000
0001
0010
0001
0000
,
0100
0001
0100
0000
0001
0000
1000
0000
,
0010
1000
0010
0000
1000
0100
1000
0000
,
0010
1000
0010
0000
1000
0000
0001
0000
,
0100
0010
1000
0000
0010
0100
0001
0000
,
0100
0010
1000
0000
0001
0000
1001
0000
,
1000
0100
0000
0100
0001
0000
0001
0010
,
0000
0010
1000
0000
0100
0010
0100
0000
,
2002
3003
0000
0000
;

//---------------dance-double - ----------------
#NOTEDATA:;
#CHARTNAME:;
#STEPSTYPE:dance-double;
#DESCRIPTION:;
#CHARTSTYLE:;
#DIFFICULTY:Medium;
#METER:11;
#RADARVALUES:0.440483,0.544724,0.246372,0.194111,0.000000,413.000000,380.000000,33.000000,26.000000,0.000000,0.000000,0.000000,0.000000,0.000000,0.440483,0.544724,0.246372,0.194111,0.000000,413.000000,380.000000,33.000000,26.000000,0.000000,0.000000,0.000000,0.000000,0.000000;
#CREDIT:MILEN;
#NOTES:
// measure 0
00000000
00000000
00000000
00000000
,  // measure 1
00000000
00000000
00000000
00000000
,  // measure 2
00000000
00000000
00000000
00000000
,  // measure 3
00000000
00000000
00000000
00000000
,  // measure 4
00000000
00000000
00000000
00000000
,  // measure 5
00000000
00000000
00000000
00000000
,  // measure 6
00000000
00000000
00000000
00000000
,  // measure 7
00000000
00000000
00000000
00000000
,  // measure 8
01000000
00000000
02000000
00000000
00000000
00000000
00000000
03001000
,  // measure 9
00000000
00001000
00010000
00000000
00000100
00000000
00001000
00000000
,  // measure 10
00000010
00000000
00000020
00000000
00000000
00000000
00000000
00010030
,  // measure 11
00001000
00000000
00001000
00100000
00000000
00100000
01000000
00000000
,  // measure 12
00020000
00030000
00002000
00003000
,  // measure 13
00000100
00000001
00000010
00001000
,  // measure 14
00010000
01000000
10000000
00100000
,  // measure 15
00010000
00001000
00010000
00001000
00010000
00001000
00010000
00000000
,  // measure 16
00000100
00000000
00001000
00000001
00000000
00001000
00000000
00000001
,  // measure 17
00000000
00000000
00000100
00000010
00000000
00000100
00000000
00000010
,  // measure 18
00000000
00000000
00010000
00001000
00000000
00010000
00000000
00001000
,  // measure 19
00000000
00010000
01000000
00000000
10000000
00000000
20020000
00000000
,  // measure 20
30030000
00000000
00010000
10000000
00000000
00010000
00000000
10000000
,  // measure 21
00000000
00000000
00100000
01000000
00000000
00100000
00000000
01000000
,  // measure 22
00000000
00000000
00001000
00010000
00000000
00001000
00000000
00010000
,  // measure 23
00000000
00001000
00000100
00000000
00000001
00000000
00001000
00000000
,  // measure 24
00001001
00000000
00000001
00000100
00000000
00000001
00000000
00000100
,  // measure 25
00000000
00000000
00000010
00010000
00000000
00000010
00000000
00010000
,  // measure 26
00000000
00000000
00001000
00100000
00000000
00001000
00000000
00010000
,  // measure 27
00000000
00001000
01000000
00000000
00100000
00000000
02200000
00000000
,  // measure 28
03300000
00000000
10000000
01000000
00000000
10000000
00000000
01000000
,  // measure 29
00000000
00000000
00100000
00001000
00000000
00100000
00000000
00001000
,  // measure 30
00000000
00000000
00010000
00000010
00000000
00010000
00000000
00001000
,  // measure 31
00000000
00010000
00000100
00000000
00001000
00000000
00000001
00000000
,  // measure 32
00000101
00000100
00000010
00001000
,  // measure 33
00000100
00010000
00001000
00100000
,  // measure 34
00010000
01000000
00001000
00010000
,  // measure 35
00100000
10000000
02000000
03100000
,  // measure 36
11000000
01000000
00100000
00010000
,  // measure 37
01000000
00001000
00010000
00000010
,  // measure 38
00001000
00000100
00010000
00001000
,  // measure 39
00000010
00000001
00000200
00000310
,  // measure 40
00000110
00000000
00000001
00000100
00001000
00000000
00010000
00000000
,  // measure 41
00100000
10000000
01000000
00100000
,  // measure 42
01000000
00000000
10000000
01000000
00010000
00000000
00001000
00000000
,  // measure 43
00000010
00000001
00000100
00000010
,  // measure 44
00000100
00000220
00000000
00000000
,  // measure 45
00000000
00000000
00000000
00000330
,  // measure 46
00002002
00000000
00000000
00003003
,  // measure 47
00000001
00000100
00001000
00010000
,  // measure 48
00100000
00000000
00000000
10000000
00000000
00000000
01000000
00000000
,  // measure 49
00000000
00100000
00000000
00000000
00010000
00000000
01000000
00000000
,  // measure 50
00001000
00000000
00000000
00010000
00000000
00000000
00000100
00000000
,  // measure 51
00000000
00000010
00000000
00000000
00000001
00000000
00000100
00000000
,  // measure 52
00001000
00000000
00000000
00010000
00000000
00000000
00100000
00000000
,  // measure 53
00000000
10000000
00000000
00000000
01000000
00000000
00100000
00000000
,  // measure 54
00001000
00000000
00000000
00010000
00000000
00000000
00000100
00000000
,  // measure 55
00000000
00000010
00000000
00000000
00000001
00000000
00000001
00000000
,  // measure 56
00000100
00001000
00010000
00000000
00001000
00000000
00000100
00000000
,  // measure 57
00001000
00010000
01000000
00000000
00010000
00000000
00001000
00000000
,  // measure 58
00010000
01000000
10000000
00000000
01000000
00000000
00010000
00000000
,  // measure 59
01000000
10000000
00100000
00000000
00010000
00000000
00100000
00000000
,  // measure 60
00010000
00001000
00000010
00000000
00000001
00000000
00000010
00000000
,  // measure 61
00000001
00000100
00001000
00000000
00010000
00000000
00001000
00000000
,  // measure 62
00010000
01000000
00000000
01000000
00010000
00000000
00010000
00001000
,  // measure 63
00000000
00001000
00000100
00000000
00000100
00001000
00010000
00000000
,  // measure 64
00022000
00000000
00000000
00000000
,  // measure 65
00000000
00000000
00000000
00000000
,  // measure 66
00033000
00000000
00000000
00000000
,  // measure 67
00000000
00000000
00000000
00000000
,  // measure 68
00000220
00000000
00000000
00000000
,  // measure 69
00000000
00000000
00000000
00000000
,  // measure 70
00000330
00000000
00000000
00000000
,  // measure 71
00000000
00000000
00000000
00000000
,  // measure 72
00001001
00000000
00000010
00000000
00000020
00000000
00000000
00010030
,  // measure 73
00000000
00010000
00001000
00000000
00100000
00000000
01000000
00000000
,  // measure 74
10000000
00000000
00100000
00000000
00200000
00000000
00000000
01300000
,  // measure 75
00000000
01000000
00001000
00000000
00010000
00000000
00001000
00000000
,  // measure 76
00101000
00000000
00010010
00000000
,  // measure 77
01001000
00000000
00010100
00010000
,  // measure 78
00001000
00000010
00000001
00001000
,  // measure 79
00000010
00000100
00000010
00000100
00000010
00000100
00000010
00000000
,  // measure 80
00000100
00000000
00000001
00000010
00000000
00000010
00000000
00001000
,  // measure 81
00000000
00000000
00000010
00001000
00000000
00001000
00000000
00010000
,  // measure 82
00000000
00000000
00001000
00010000
00000000
00100000
00000000
00100000
,  // measure 83
00000000
10000000
01000000
00000000
10000000
00010000
10000000
00000000
,  // measure 84
10010000
00000000
10000000
00100000
00000000
00100000
00000000
00010000
,  // measure 85
00000000
00000000
00100000
00010000
00000000
00010000
00000000
00001000
,  // measure 86
00000000
00000000
00010000
00001000
00000000
00000010
00000000
00000010
,  // measure 87
00000000
00000001
00000100
00000000
00000001
00001000
00000001
00000000
,  // measure 88
00001001
00000000
00001000
00000100
00000000
00000100
00000000
00000010
,  // measure 89
00000000
00000000
00001000
00010000
00000000
00010000
00000000
01000000
,  // measure 90
00000000
00000000
00100000
00001000
00000000
00001000
00000000
00010000
,  // measure 91
00000000
00100000
00010000
00000000
00000010
00001000
00010000
00000000
,  // measure 92
00001000
00022000
00000000
00000000
,  // measure 93
00000000
00000000
00000000
00033000
,  // measure 94
02200000
00000000
00000000
03300000
,  // measure 95
00100000
10000000
01000000
00010000
,  // measure 96
00011000
00000000
00000000
00100000
00000000
00000000
10010000
00000000
,  // measure 97
00000000
00100000
00000000
00000000
00011000
00000000
00010000
00000000
,  // measure 98
00011000
00000000
00000000
00000010
00000000
00000000
00001001
00000000
,  // measure 99
00000000
00000010
00000000
00000000
00011000
00000000
00001000
00000000
,  // measure 100
00011000
00000000
00000000
00100000
00000000
00000000
11000000
00000000
,  // measure 101
00000000
00100000
00000000
00000000
00011000
00000000
00010000
00000000
,  // measure 102
00011000
00000000
00000000
00000010
00000000
00000000
00000101
00000000
,  // measure 103
00000000
00000010
00000000
00000000
00011000
00000000
00001000
00000000
,  // measure 104
00010000
01000000
00010000
00000000
01000000
00000000
10000000
00000000
,  // measure 105
00100000
00010000
00001000
00010000
,  // measure 106
00001000
00000010
00001000
00000000
00000010
00000000
00000001
00000000
,  // measure 107
00000100
00001000
00010000
00001000
,  // measure 108
00010000
00100000
00010000
00000000
00001000
00000100
00001000
00000000
,  // measure 109
00010000
00001000
00010000
00000000
00001000
00000000
00011000
00000000
,  // measure 110
00010000
01000000
00000000
01000000
10000000
00000000
10000000
00100000
,  // measure 111
00000000
00100000
00010000
00000000
00010000
00001000
00000010
00000000
,  // measure 112
00000220
00000330
00000000
00000000
;
