#VERSION:0.83;
#TITLE:Carousel ~Revisited~;
#SUBTITLE:;
#ARTIST:Mr. Weq;
#TITLETRANSLIT:;
#SUBTITLETRANSLIT:;
#ARTISTTRANSLIT:;
#GENRE:XROSS;
#ORIGIN:;
#CREDIT:MUINELIM;
#BANNER:Carousel ~Revisited~.png;
#BACKGROUND:Carousel ~Revisited~-bg.png;
#PREVIEWVID:Carousel ~Revisited~-jacket.png;
#JACKET:Carousel ~Revisited~-jacket.png;
#CDIMAGE:;
#DISCIMAGE:;
#LYRICSPATH:;
#CDTITLE:;
#MUSIC:Carousel ~Revisited~.ogg;
#OFFSET:0.000000;
#SAMPLESTART:45.882000;
#SAMPLELENGTH:10.879997;
#SELECTABLE:YES;
#DISPLAYBPM:204.000000;
#BPMS:0.000=204.000;
#STOPS:;
#DELAYS:;
#WARPS:;
#TIMESIGNATURES:0.000=4=4;
#TICKCOUNTS:0.000=4;
#COMBOS:0.000=1;
#SPEEDS:0.000=1.000=0.000=0;
#SCROLLS:0.000=1.000;
#FAKES:;
#LABELS:0.000=Song Start;
#BGCHANGES:;
#KEYSOUNDS:;
#ATTACKS:
;

//---------------dance-single - ----------------
#NOTEDATA:;
#CHARTNAME:;
#STEPSTYPE:dance-single;
#DESCRIPTION:;
#CHARTSTYLE:;
#DIFFICULTY:Hard;
#METER:15;
#RADARVALUES:0.789287,0.980158,0.885418,0.619793,0.168229,624.000000,524.000000,100.000000,70.000000,0.000000,0.000000,0.000000,0.000000,0.000000,0.789287,0.980158,0.885418,0.619793,0.168229,624.000000,524.000000,100.000000,70.000000,0.000000,0.000000,0.000000,0.000000,0.000000;
#CREDIT:MILEN;
#DISPLAYBPM:204.000000;
#NOTES:
0000
0000
0000
0000
,
0000
0000
0000
0000
,
0000
0000
0000
1001
,
1001
0000
0010
0000
0100
0000
0220
0330
,
0100
0010
1001
1000
,
0001
0000
2002
3003
0001
0000
1000
0000
,
1001
0000
0000
0000
0010
0000
0100
0001
0100
0000
0010
1000
0010
0000
0000
0000
,
0100
0101
1010
1000
,
0001
0000
2002
3003
0100
0010
0010
0000
,
1010
0000
0100
0000
0101
0000
0022
0033
,
0010
1100
1010
0010
,
0100
0000
0220
0330
0100
0000
0010
0000
,
1010
0000
0101
0000
1001
0000
1000
0010
,
0100
0001
0010
0100
1000
0000
1100
0000
,
0011
0000
0000
0000
2002
0000
3003
0000
1000
0000
0001
0000
1000
0000
0010
0100
,
0010
0000
1000
0000
0100
0000
1100
1000
,
0010
0100
0001
1000
0010
0000
0100
0000
,
0101
0000
1010
1000
0100
0010
0001
1000
,
0100
0001
0100
0010
1000
0010
0100
0001
,
0100
0010
1000
0010
0001
0000
0100
0000
,
0010
0000
2020
3030
0100
0001
0001
0000
,
0011
0000
0100
0000
1100
0000
2020
3030
,
0010
0101
0011
0010
,
0100
0000
2200
3300
1000
0000
0010
0000
,
0101
0000
1010
0000
1001
0000
0001
0010
,
0100
1000
0010
0100
0001
0000
1000
0000
,
0100
0000
0000
0000
0220
0000
0330
0000
0010
0000
0001
0000
0100
0010
0100
0010
,
1000
0000
0001
0000
0010
0000
0022
0033
,
0100
1100
1010
0010
,
0100
0000
0202
0303
1000
0000
0001
0000
,
0011
0110
1100
1001
,
0001
0100
1000
0001
0010
0000
1000
0000
,
0100
0000
0220
0330
0001
1000
1000
0000
,
1010
0000
0100
0000
0001
0000
0022
0033
,
1000
1010
0110
0100
,
0001
0000
2002
3003
0010
0000
0100
0000
,
0101
0110
1010
1001
,
0011
1100
1010
0011
,
0101
0000
0000
0000
1100
0000
0000
0000
1000
0010
0100
0000
0001
0100
0010
0000
,
0210
0000
1000
0000
0301
0000
0001
0010
,
1000
0001
0100
1000
0020
0000
0001
0000
,
0130
0000
1010
0010
0100
0001
0010
0100
,
1000
0010
0001
0010
0100
1000
0100
0010
,
0001
0010
1000
0100
0010
0000
0001
0000
,
0100
0000
0220
0330
0001
1000
1000
0000
,
1010
0000
0100
0000
0101
0000
0022
0033
,
0100
1100
1010
0010
,
0100
0000
2002
3003
0001
0000
0100
0000
,
1100
0000
0000
0011
0000
0000
0110
0000
0000
0100
1000
0100
,
0010
0001
0010
0100
0010
0001
0010
0000
0000
0001
0000
0000
,
0100
0000
0000
0000
2020
0000
3030
0000
1000
0000
0001
0000
0010
0100
0010
0100
,
1000
0010
1000
0010
1000
0010
0100
0001
,
0100
0001
1000
0010
0100
0001
0100
0001
,
0100
0001
1000
0010
1000
0010
1000
0010
,
0200
0301
2000
3010
0200
0301
2000
3010
,
0100
0001
0010
0100
1000
0001
1000
0001
,
1000
0001
0010
0100
0010
0100
0010
0100
,
1001
0001
0100
0001
0100
0001
0100
1000
,
0010
1000
0010
0001
0100
1000
0010
1000
,
0010
1000
0010
0001
0100
0001
0100
0001
,
0100
1000
0010
0001
0100
1000
0010
0001
,
0010
0000
1000
0000
0100
0000
0001
0000
0010
0100
0010
0000
0100
0010
0100
0000
,
0010
0001
0010
0000
0001
0010
0001
0000
1000
0100
1000
0000
0100
1000
0100
0000
,
0120
0000
1000
0000
0031
0000
0001
0100
,
1000
0010
1000
0100
0002
0000
0010
0000
,
1003
0000
1100
1000
0100
0010
1000
0010
,
0001
0100
1000
0001
0010
1000
0001
0100
,
1000
0001
0010
1000
0100
0000
0010
0000
,
0001
0000
0022
0033
1000
0100
0100
0000
,
1010
0000
0001
0000
0101
0000
2200
3300
,
0001
0011
1010
0100
,
0010
0000
0202
0303
1000
0000
0010
0000
,
0110
0000
0000
1100
0000
0000
0011
0000
0000
0001
0100
0010
,
1000
0001
0100
0001
0010
0001
0100
0000
0000
1000
0000
0000
,
0010
0000
2002
3003
0101
0000
1010
0000
,
0110
0100
0001
0021
,
2030
3200
0302
0010
,
0103
0000
2020
3030
0001
0000
0100
0000
,
0110
0010
1000
1200
,
0302
0023
2030
0100
,
3002
0000
0023
0000
0230
1000
1300
0000
,
1010
0011
0101
1100
,
1000
0010
0001
1000
0100
0000
0110
0000
,
1010
0000
0011
0000
0001
0100
1000
0001
,
0010
1000
0100
0010
0001
0100
0010
1000
,
0002
0000
0100
0000
0100
0000
0103
0000
0100
0010
1000
0000
0010
0000
0100
0000
,
0010
0000
1000
0000
0010
0100
0001
0000
0100
0000
0010
0000
0100
0000
0001
0000
,
1000
0100
0010
0000
0100
0000
1000
0000
0100
0000
0010
0000
0001
0010
0100
0000
,
0010
0000
0001
0000
0010
0000
0100
0000
1000
0010
1000
0000
0100
1000
0100
0000
,
0010
0001
0010
0000
0001
0100
0001
0000
1000
0001
1000
0000
0010
0100
0010
0200
,
0020
0000
0000
0000
,
0000
0000
0000
0000
,
0000
0330
0000
0000
;

//---------------dance-double - ----------------
#NOTEDATA:;
#CHARTNAME:;
#STEPSTYPE:dance-double;
#DESCRIPTION:;
#CHARTSTYLE:;
#DIFFICULTY:Hard;
#METER:15;
#RADARVALUES:0.767784,0.816798,0.850001,0.646355,0.110677,607.000000,511.000000,96.000000,73.000000,0.000000,0.000000,0.000000,0.000000,0.000000,0.767784,0.816798,0.850001,0.646355,0.110677,607.000000,511.000000,96.000000,73.000000,0.000000,0.000000,0.000000,0.000000,0.000000;
#CREDIT:MILEN;
#DISPLAYBPM:204.000000;
#NOTES:
00000000
00000000
00000000
00000000
,
00000000
00000000
00000000
00000000
,
00000000
00000000
00000000
00011000
,
00011000
00000000
00010000
00000000
01000000
00000000
22000000
33000000
,
10000000
00100000
00110000
00010000
,
00001000
00000000
00022000
00033000
00010000
00000000
00001000
00000000
,
00001100
00000000
00000000
00000000
00000100
00000000
00000001
00000010
00000001
00000000
00001000
00000010
00001000
00000000
00000000
00000000
,
00000100
00010100
00011000
00001000
,
01000000
00000000
02020000
03030000
00010000
10000000
10000000
00000000
,
10100000
00000000
00100000
00000000
01100000
00000000
02020000
03030000
,
00010000
00110000
00101000
00001000
,
00010000
00000000
00022000
00033000
00001000
00000000
00000100
00000000
,
00000101
00000000
00001010
00000000
00001001
00000000
00000001
00000100
,
00000010
00001000
00000100
00010000
00001000
00000000
00101000
00000000
,
00011000
00000000
00000000
00000000
00020020
00000000
00030030
00000000
00000010
00000000
00001000
00000000
00000100
00000000
00000010
00000001
,
00000010
00000000
00000001
00000000
00000100
00000000
00001000
00010000
,
00001000
00100000
00010000
01000000
00100000
00000000
10000000
00000000
,
11000000
00000000
01000000
00010000
00001000
00100000
00010000
01000000
,
00001000
00010000
00000100
00001000
00000010
00010000
00001000
00100000
,
00010000
01000000
00001000
00010000
00000100
00000000
00000010
00000000
,
00000001
00000000
00000202
00000303
00000100
00001000
00001000
00000000
,
00011000
00000000
00010000
00000000
00110000
00000000
20200000
30300000
,
10000000
11000000
01100000
00100000
,
00001000
00000000
00022000
00033000
00010000
00000000
00000100
00000000
,
00001100
00000000
00001010
00000000
00000101
00000000
00000001
00000010
,
00000100
00001000
00000100
00010000
00001000
00000000
00100000
00000000
,
01000000
00000000
00000000
00000000
22000000
00000000
33000000
00000000
10000000
00000000
00100000
00000000
01000000
00010000
01000000
00000000
,
00001000
00000000
00010000
00000000
00000100
00000000
00002200
00003300
,
00001000
00001010
00000110
00000100
,
00000001
00000000
00002002
00003003
00001000
00000000
00000010
00000000
,
00010010
00011000
00101000
00110000
,
00010000
01000000
00100000
10000000
01000000
00000000
00010000
00000000
,
00001000
00000000
00022000
00033000
00010000
00000100
00000100
00000000
,
00000110
00000000
00000010
00000000
00000001
00000000
00000202
00000303
,
00000100
00001100
00011000
00010000
,
00100000
00000000
20200000
30300000
10000000
00000000
00010000
00000000
,
00110000
00101000
00011000
00010010
,
00001010
00001100
00000011
00000101
,
00001100
00000000
00000000
00000000
00011000
00000000
00000000
00000000
00001000
00100000
00001000
00000000
00010000
00000010
00010000
00000000
,
00012000
00000000
00203000
00000000
02300000
00000000
13000000
00100000
,
00010000
00100000
01000000
00010000
00200000
00000000
00302000
00000000
,
00023000
00000000
00030100
00000100
00000010
00000001
00001000
00000100
,
00010000
00001000
00100000
00010000
01000000
00001000
00010000
00000010
,
00001000
00000100
00010000
00001000
00100000
00000000
01000000
00000000
,
10000000
00000000
20200000
30300000
00100000
01000000
01000000
00000000
,
01001000
00000000
00001000
00000000
00011000
00000000
00020200
00030300
,
00000100
00000110
00000011
00000001
,
00000100
00000000
00002020
00003030
00001000
00000000
00000100
00000000
,
00010100
00000000
00000000
00011000
00000000
00000000
00101000
00000000
00000000
00100000
00010000
00100000
,
01000000
00100000
01000000
10000000
00100000
01000000
00010000
00000000
00000000
10000000
00000000
00000000
,
01000000
00000000
00000000
00000000
00220000
00000000
00330000
00000000
00100000
00000000
00001000
00000000
00010000
00000100
00010000
00000000
,
00000010
00001000
00000010
00001000
00000010
00001000
00000001
00000100
,
00000001
00000100
00000010
00010000
00001000
01000000
00001000
01000000
,
00001000
01000000
00010000
00100000
00010000
00100000
00010000
00100000
,
01000000
10000000
00100000
00010000
00001000
00000100
00000001
00000010
,
00001000
00010000
00001000
00010000
00100000
01000000
00100000
01000000
,
00100000
01000000
00001000
00010000
00001000
00010000
00001000
00010000
,
00011000
00001000
01000000
00001000
01000000
00001000
01000000
00100000
,
10000000
00100000
10000000
01000000
00010000
00001000
00010000
00001000
,
00010000
00001000
00000100
00000001
00000100
00000001
00000100
00000001
,
00000010
00000100
00010000
00001000
00100000
01000000
10000000
00100000
,
00010000
00001000
00000100
00000001
00000010
00000010
00000100
00000100
,
00010000
00010000
00001000
00001000
00100000
00100000
01000000
01000000
,
21000000
00000000
30200000
00000000
00320000
00000000
00031000
00100000
,
01000000
00010000
00001000
00000010
00000200
00000000
00002300
00000000
,
00003002
00000000
00000013
00000100
00010000
00001000
00100000
00010000
,
01000000
00100000
00010000
00001000
00000100
00000010
00010000
00001000
,
01000000
00100000
00010000
00001000
00000100
00000000
00000001
00000000
,
00000010
00000000
00000220
00000330
00001000
00000010
00000010
00000000
,
00010010
00000000
00001000
00000000
00101000
00000000
02200000
03300000
,
10000000
11000000
00110000
00010000
,
01000000
00000000
00022000
00033000
00010000
00000000
00000100
00000000
,
00000110
00000000
00000000
00000011
00000000
00000000
00001100
00000000
00000000
00000100
00010000
00001000
,
00010000
00001000
00100000
00010000
01000000
00100000
10000000
00000000
00000000
00010000
00000000
00000000
,
01000000
00000000
02200000
03300000
10100000
00000000
00110000
00000000
,
00011000
00001000
00000100
00000102
,
00000023
00000230
00002300
00000010
,
00103000
00000000
00220000
00330000
01000000
00000000
00010000
00000000
,
10010000
10000000
00100000
02100000
,
03020000
00230000
00302000
00000010
,
00023000
00000000
00030200
00000000
00000320
00000001
00000031
00000000
,
00001001
00000110
00010010
00011000
,
00001000
00100000
01000000
10000000
00100000
00000000
01100000
00000000
,
01001000
00000000
00011000
00000000
00010000
00001000
00000100
00000001
,
00000010
00000100
00001000
00000010
00000100
00001000
00010000
00100000
,
10000000
00000000
01000000
00000000
00100000
00000000
00010000
00000000
01000000
00100000
01000000
00000000
00001000
00000000
00010000
00000000
,
00000100
00000000
00000010
00000000
00000001
00001000
00000001
00000000
00000100
00000000
00000010
00000000
00010000
00000000
00001000
00000000
,
00100000
01000000
00100000
00000000
00010000
00000000
10000000
00000000
00100000
00000000
01000000
00000000
00001000
00010000
00001000
00000000
,
00000100
00000001
00000010
00000100
00001000
00010000
00100000
01000000
,
10000000
00000000
01000000
00000000
00100000
00000000
00010000
00000000
00001000
00000000
00000100
00000000
00000010
00000001
00000010
00000002
,
00000020
00000000
00000000
00000000
,
00000000
00000000
00000000
00000000
,
00000000
00000033
00000000
00000000
;

//---------------dance-single - ----------------
#NOTEDATA:;
#CHARTNAME:;
#STEPSTYPE:dance-single;
#DESCRIPTION:;
#CHARTSTYLE:;
#DIFFICULTY:Challenge;
#METER:17;
#RADARVALUES:0.932219,1.020998,0.469272,0.734897,0.212500,737.000000,684.000000,53.000000,83.000000,0.000000,0.000000,0.000000,0.000000,0.000000,0.932219,1.020998,0.469272,0.734897,0.212500,737.000000,684.000000,53.000000,83.000000,0.000000,0.000000,0.000000,0.000000,0.000000;
#CREDIT:MILEN;
#DISPLAYBPM:204.000000;
#NOTES:
// measure 0
0000
0000
0000
0000
,  // measure 1
0000
0000
0000
0000
,  // measure 2
0000
0000
0000
0000
0010
0000
0010
0000
0100
0010
0100
0000
0010
0100
0010
0100
,  // measure 3
0001
0010
0001
0010
0100
1000
1010
0000
,  // measure 4
0010
0100
0001
0100
0001
1000
0010
1000
,  // measure 5
0010
0100
0101
0000
0001
1000
0001
1000
,  // measure 6
0100
0000
0010
0000
0001
0000
0100
0010
1000
0010
1000
0001
0200
0000
0000
0000
,  // measure 7
0300
0000
0110
0000
1001
0000
0001
0010
,  // measure 8
0100
1000
1100
0000
0020
0001
0032
0000
,  // measure 9
0103
0010
1000
0010
1000
0001
0011
0000
,  // measure 10
0010
0100
1000
0100
1000
0001
0010
0001
,  // measure 11
0010
0100
1100
0000
1000
0010
0100
0001
,  // measure 12
2000
3100
0200
0310
0020
0031
0002
0203
,  // measure 13
0320
2030
3002
0023
0230
1300
1000
0010
,  // measure 14
0100
0000
0001
0000
1001
0000
0000
0000
0010
0100
0010
0000
0100
0010
0100
0010
,  // measure 15
1000
0100
0010
0100
0010
0001
0101
0100
,  // measure 16
0010
1000
0010
0100
0002
1000
1003
0100
,  // measure 17
0020
0130
0110
1000
0010
0100
0001
1000
,  // measure 18
0100
0001
0100
0010
1000
0010
0100
0001
,  // measure 19
0100
0010
1000
0010
0001
0100
0010
1000
,  // measure 20
0001
0010
0110
0000
2000
0010
3020
0000
,  // measure 21
0130
0100
0001
0010
0100
1000
1010
0000
,  // measure 22
0010
0100
0001
1000
0100
0010
0001
1000
,  // measure 23
0010
0100
0101
0000
0001
0010
0100
1000
,  // measure 24
0020
0130
0200
0301
0002
1003
2000
3200
,  // measure 25
0320
0032
0203
0320
1030
1000
0001
0010
,  // measure 26
0100
0000
0010
0000
0110
0000
0000
0000
0001
0100
0001
0000
1000
0010
1000
0010
,  // measure 27
0100
0001
0010
0100
0010
0001
0011
0000
,  // measure 28
0100
1000
0010
0100
0001
1000
0100
0010
,  // measure 29
0100
1000
1100
0000
0010
0100
0001
1000
,  // measure 30
0200
0310
0002
1003
0200
0310
0002
1003
,  // measure 31
2000
3020
0230
0302
0023
0130
0100
1000
,  // measure 32
0010
0100
0101
0000
0020
1000
2030
0000
,  // measure 33
3100
0100
0010
0001
1000
0010
0110
0000
,  // measure 34
0100
0001
0010
0100
1000
0010
0100
0001
,  // measure 35
1000
0100
0110
0000
0010
0001
1000
0010
,  // measure 36
0200
0301
0020
0130
2000
3010
0200
0301
,  // measure 37
2000
3100
0020
0031
0101
0100
0110
0010
,  // measure 38
1010
0000
1000
0000
1001
0000
0000
0000
0001
0100
0010
0000
1000
0010
0100
0000
,  // measure 39
0001
0010
1000
0010
0001
0010
0110
0100
,  // measure 40
1000
0100
0001
0100
1000
0100
0010
0001
,  // measure 41
0100
0010
0110
0100
0001
0010
1000
0010
,  // measure 42
0100
0001
0100
0010
1000
0010
0100
0001
,  // measure 43
0100
1000
0010
0100
0001
0010
0100
1000
,  // measure 44
0010
0100
0110
0000
0002
0100
0203
0000
,  // measure 45
0310
1000
0100
0001
0100
0010
0011
0000
,  // measure 46
0001
0100
0010
1000
0100
0001
0100
0010
,  // measure 47
0001
0100
0110
0000
0010
1000
0001
0010
,  // measure 48
0200
0000
0000
1300
0000
0000
0002
0000
0000
0013
0000
0000
0200
0000
0000
0310
0000
0000
0010
0000
0001
0000
0100
0000
,  // measure 49
0010
0000
1000
0000
0001
0000
0010
0000
0100
0000
1000
0000
0010
0000
0000
0100
0000
0000
0001
0000
0000
0100
0000
0000
,  // measure 50
1000
0000
0100
0000
0110
0000
0000
0000
1001
0000
0000
0000
0010
0100
0010
0100
,  // measure 51
0001
0001
0010
0010
0100
0100
1000
1000
,  // measure 52
0010
0010
0100
0100
0001
0001
1000
1000
,  // measure 53
0100
0100
0010
0010
0001
0001
0100
0100
,  // measure 54
0020
1030
0002
0103
0020
1030
0002
0103
,  // measure 55
0020
2030
3200
0320
0031
0001
0100
0100
,  // measure 56
1000
1000
0001
0001
0010
0010
1000
1000
,  // measure 57
0110
0001
0100
1000
0100
0001
0100
1000
,  // measure 58
0100
0001
0100
0010
1001
1000
0010
0001
,  // measure 59
0010
1000
0010
0001
0010
1000
0010
0100
,  // measure 60
1001
0001
0101
0100
0110
0010
1010
1000
,  // measure 61
1100
0000
0100
0000
0110
0000
0010
0000
0001
0100
0010
0000
1000
0010
0100
0000
,  // measure 62
0001
0010
0100
0000
1000
0100
0010
0000
0001
1000
0010
0000
1000
0001
0100
0000
,  // measure 63
0010
0100
0001
0010
0100
1000
1010
0100
,  // measure 64
0001
0010
1000
0001
0100
1000
0010
0100
,  // measure 65
0001
1000
1100
0010
0001
0100
1000
0100
,  // measure 66
0010
0001
0010
0100
1000
0100
0010
0001
,  // measure 67
0010
1000
0100
0010
0001
0100
1000
0001
,  // measure 68
0010
0100
0101
0000
2000
0100
3200
0000
,  // measure 69
0301
0100
0010
0001
1000
0010
0110
0000
,  // measure 70
0001
0010
0100
0001
0100
1000
0010
0100
,  // measure 71
1000
0100
0101
0000
0010
1000
0100
0010
,  // measure 72
0002
0000
0000
0103
0000
0000
0020
0000
0000
1030
0000
0000
0002
0000
0000
0013
0000
0000
0010
0000
0100
0000
1000
0000
,  // measure 73
0010
0000
0100
0000
0001
0000
1000
0000
0100
0000
0010
0000
0001
0000
0000
0100
0000
0000
1000
0000
0000
0100
0000
0000
,  // measure 74
0001
0000
0010
0000
0110
0000
0000
0000
1001
0000
0000
0000
1000
0010
0100
0001
,  // measure 75
1000
0100
0010
1000
0010
0001
0201
0000
,  // measure 76
0320
2030
3002
0010
,  // measure 77
0100
2003
0010
3100
,  // measure 78
1001
0001
0100
0010
0001
0010
2010
0000
,  // measure 79
3200
0302
0023
1000
,  // measure 80
0001
0000
0230
0000
0302
1000
2003
0000
,  // measure 81
3020
0032
2003
3200
,  // measure 82
0301
0010
0100
1000
1002
0000
0203
0000
,  // measure 83
2300
0000
3020
0000
0031
0100
0010
0001
,  // measure 84
1000
0100
0010
1000
0001
0010
0100
1000
,  // measure 85
1010
0000
0110
0000
0101
0000
1001
0000
1000
0010
0100
0000
1000
0000
0100
0000
,  // measure 86
0010
0000
0100
0000
0001
0100
0010
0000
0001
0000
0010
0000
0100
0000
0010
0000
,  // measure 87
1000
0100
0010
0000
0100
0000
0001
0000
0100
0000
0010
0000
0001
0010
0100
0000
,  // measure 88
0010
0000
1000
0000
0010
0000
0100
0000
1000
0010
0100
0000
0001
0100
0010
0000
,  // measure 89
1000
0100
0010
0000
0001
0010
0100
0000
1000
0010
1000
0010
0100
0001
0100
0002
,  // measure 90
2000
0000
0000
0000
,  // measure 91
0000
0000
0000
0000
,  // measure 92
0000
3003
0000
0000
;

//---------------dance-double - ----------------
#NOTEDATA:;
#CHARTNAME:;
#STEPSTYPE:dance-double;
#DESCRIPTION:;
#CHARTSTYLE:;
#DIFFICULTY:Challenge;
#METER:16;
#RADARVALUES:0.914510,1.020998,0.425001,0.540105,0.208073,723.000000,675.000000,48.000000,61.000000,0.000000,0.000000,0.000000,0.000000,0.000000,0.914510,1.020998,0.425001,0.540105,0.208073,723.000000,675.000000,48.000000,61.000000,0.000000,0.000000,0.000000,0.000000,0.000000;
#CREDIT:MILEN;
#DISPLAYBPM:204.000000;
#NOTES:
00000000
00000000
00000000
00000000
,
00000000
00000000
00000000
00000000
,
00000000
00000000
00000000
00000000
00001000
00000000
00001000
00000000
00010000
00001000
00010000
00000000
00001000
00010000
00001000
00010000
,
00000100
00001000
00000100
00000010
00000001
00001000
00001010
00000000
,
00000010
00010000
00001000
00010000
00001000
00100000
01000000
00100000
,
01000000
10000000
10100000
00000000
00100000
01000000
00100000
01000000
,
00001000
00000000
00010000
00000000
00000100
00000000
00001000
00000010
00001000
00000010
00000100
00000001
00002000
00000000
00000000
00000000
,
00003000
00000000
00001100
00000000
00000011
00000000
00000001
00000100
,
00001000
00010000
00011000
00000000
00200000
00010000
00320000
00000000
,
01030000
00100000
10000000
00100000
10000000
00010000
01010000
00000000
,
01000000
00001000
00010000
00001000
00010000
00000100
00000010
00000100
,
00000010
00000001
00000101
00000000
00001000
00000100
00000010
00000001
,
00000200
00001300
00002000
00013000
00020000
01030000
01000000
10000000
,
01000000
00100000
00010000
00001000
00000100
00000001
00001000
00000100
,
00000010
00000000
00000001
00000000
00001001
00000000
00000000
00000000
00000001
00000100
00000001
00000000
00001000
00000010
00001000
00000010
,
00010000
00001000
00100000
01000000
10000000
00100000
01100000
01000000
,
00010000
00100000
01000000
00100000
00002000
00010000
00013000
00000100
,
00002000
00003010
00000110
00000100
00000001
00001000
00000010
00010000
,
00001000
00100000
01000000
00010000
00001000
00000010
00000100
00010000
,
00001000
00100000
01000000
00010000
00001000
00000010
00000001
00000100
,
00000010
00010000
00011000
00000000
00000200
00001000
00002300
00000000
,
00003010
00000010
00010000
00001000
00100000
01000000
11000000
00000000
,
10000000
00100000
00010000
00100000
01000000
00100000
00010000
00001000
,
00000100
00000001
00000011
00000000
00000010
00000100
00000001
00000100
,
00002000
00003010
00000020
00010030
00020000
00031000
00001000
00010000
,
01000000
10000000
00100000
01000000
00010000
00001000
00000100
00000010
,
00000001
00000000
00000100
00000000
00000110
00000000
00000000
00000000
00000010
00010000
00001000
00000000
00100000
00001000
00010000
00000000
,
01000000
10000000
01000000
00100000
01000000
00010000
00011000
00000000
,
00100000
01000000
10000000
00100000
00010000
00100000
00010000
00001000
,
00000100
00000001
00000011
00000000
00001000
00000100
00000010
00000001
,
00002000
00003010
00020000
00031000
00200000
00310000
02000000
03001000
,
00001000
00000100
00000001
00000010
00000100
00001000
00010000
01000000
,
00100000
10000000
11000000
00000000
00200000
00001000
00302000
00000000
,
00013000
00010000
00001000
00000100
00000001
00000010
00000110
00000000
,
00001000
00000010
00010000
00001000
01000000
00100000
00010000
00100000
,
10000000
01000000
01100000
00000000
00010000
01000000
00001000
00010000
,
00000200
00000310
00000002
00000103
00002000
00013000
00200000
10300000
,
02000000
03010000
00002000
00003100
00000101
00000000
00001100
00000000
,
00011000
00000000
00000000
00000000
01001000
00000000
00000000
00000000
01000000
00010000
00100000
00000000
01000000
10000000
00100000
00000000
,
00010000
00001000
00100000
01000000
00010000
00001000
00011000
00010000
,
00000100
00000010
00000001
00001000
00000010
00000100
00001000
00010000
,
00100000
10000000
11000000
01000000
00010000
00001000
00100000
01000000
,
00010000
00001000
00000100
00000010
00010000
00001000
01000000
00100000
,
00010000
00001000
00000100
00000001
00000010
00000100
00000001
00000100
,
00001000
00000010
00000110
00000000
00002000
00000001
00003002
00000000
,
00000103
00000100
00001000
00010000
00100000
10000000
10010000
00000000
,
00010000
01000000
00001000
00010000
00100000
01000000
00001000
00010000
,
00000100
00000010
00000011
00000000
00001000
00000010
00010000
00001000
,
00200000
00000000
00000000
01300000
00000000
00000000
20000000
00000000
00000000
30100000
00000000
00000000
00020000
00000000
00000000
00031000
00000000
00000000
00001000
00000000
00010000
00000000
00000010
00000000
,
00001000
00000000
00000010
00000000
00000100
00000000
00000001
00000000
00000100
00000000
00000010
00000000
00001000
00000000
00000000
00000100
00000000
00000000
00000010
00000000
00000000
00000001
00000000
00000000
,
00000100
00000000
00001000
00000000
00011000
00000000
00000000
00000000
01010000
00000000
00000000
00000000
01000000
10000000
01000000
10000000
,
00100000
00100000
01000000
01000000
00010000
00010000
00100000
00100000
,
00001000
00001000
00010000
00010000
00000100
00000100
00001000
00001000
,
00000010
00000010
00010000
00010000
00001000
00001000
00000100
00000100
,
00000002
00000013
00002000
00013000
00200000
10300000
02000000
03010000
,
00010000
00001000
00000100
00000001
00000010
00000010
00000100
00000100
,
00010000
00010000
00001000
00001000
00100000
00100000
01000000
01000000
,
11000000
10000000
00100000
00010000
00001000
00010000
00100000
00010000
,
00001000
00000100
00000001
00000010
00000011
00000001
00000100
00001000
,
00010000
00001000
00000100
00001000
00010000
00100000
10000000
01000000
,
11000000
01010000
00101000
00010010
,
00001100
00000000
00000000
00000000
00000101
00000000
00000001
00000000
00001000
00000010
00000100
00000000
00000010
00010000
00001000
00000000
,
01000000
00001000
00010000
00000000
00001000
00100000
00010000
00000000
01000000
00100000
10000000
00000000
00100000
01000000
00010000
00000000
,
10000000
01000000
00100000
01000000
00010000
00001000
00011000
00010000
,
00000100
00000010
00000001
00001000
00000010
00000100
00000010
00000001
,
00000010
00001000
00001100
00000100
00000010
00000001
00000100
00001000
,
00010000
01000000
00010000
00001000
00000100
00001000
00010000
00100000
,
00010000
00001000
00000010
00001000
00010000
00100000
10000000
01000000
,
00100000
00010000
01010000
00000000
20000000
00100000
30200000
00000000
,
00310000
00001000
00000100
00000001
00001000
00000100
00000110
00000000
,
00000001
00000100
00001000
00010000
00000100
00010000
00001000
01000000
,
00001000
00010000
00011000
00000000
01000000
00100000
10000000
01000000
,
00020000
00000000
00000000
00031000
00000000
00000000
00000200
00000000
00000000
00000310
00000000
00000000
00002000
00000000
00000000
00003001
00000000
00000000
00000001
00000000
00000100
00000000
00000010
00000000
,
00000100
00000000
00001000
00000000
00010000
00000000
00100000
00000000
01000000
00000000
00100000
00000000
10000000
00000000
00000000
00010000
00000000
00000000
01000000
00000000
00000000
00100000
00000000
00000000
,
00010000
00000000
00001000
00000000
00011000
00000000
00000000
00000000
00010010
00000000
00000000
00000000
00000010
00001000
00000010
00000100
,
00000001
00000010
00000100
00000001
00000100
00001000
00001020
00000000
,
00020030
00032000
00203000
01000000
,
10000000
00320000
01000000
10030000
,
10000000
01000000
00100000
00001000
00010000
00000100
00002100
00000000
,
00003020
00000032
00000023
00001000
,
00010000
00000000
00002030
00000000
00003200
00010000
00020300
00000000
,
02030000
23000000
30200000
02300000
,
03010000
00100000
01000000
10000000
10200000
00000000
00320000
00000000
,
00032000
00000000
00003200
00000000
00000301
00000010
00000100
00000010
,
00000001
00000010
00000100
00010000
00001000
00100000
01000000
10000000
,
00100000
00000000
00100000
00000000
00100000
00000000
00100000
00000000
00010000
00001000
00010000
00000000
00000100
00000000
00001000
00000000
,
00000010
00000000
00010000
00000000
00001000
00010000
00001000
00000000
00100000
00000000
00010000
00000000
01000000
00000000
00001000
00000000
,
00010000
00001000
00000100
00000000
00000001
00000000
00000010
00000000
00001000
00000000
00010000
00000000
00001000
00010000
01000000
00000000
,
10000000
00000000
00100000
00000000
00010000
00000000
00001000
00000000
00010000
00000100
00001000
00000000
00000010
00010000
00001000
00000000
,
00100000
00010000
01000000
00000000
00001000
00010000
00000100
00000000
00000010
00000001
00000010
00000001
00001000
00000100
00010000
00002000
,
00020000
00000000
00000000
00000000
,
00000000
00000000
00000000
00000000
,
00000000
00033000
00000000
00000000
;

//---------------dance-single - ----------------
#NOTEDATA:;
#CHARTNAME:;
#STEPSTYPE:dance-single;
#DESCRIPTION:;
#CHARTSTYLE:;
#DIFFICULTY:Beginner;
#METER:5;
#RADARVALUES:0.158110,0.285879,0.053125,0.008854,0.000000,125.000000,119.000000,6.000000,1.000000,0.000000,0.000000,0.000000,0.000000,0.000000,0.158110,0.285879,0.053125,0.008854,0.000000,125.000000,119.000000,6.000000,1.000000,0.000000,0.000000,0.000000,0.000000,0.000000;
#CREDIT:MILEN;
#DISPLAYBPM:204.000000;
#NOTES:
0000
0000
0000
0000
,
0000
0000
0000
0000
,
0000
0000
0000
0000
,
0010
0000
0000
1000
,
0000
0000
0010
0000
,
0000
1000
0000
0000
,
0001
0000
0000
0100
,
0000
0000
0001
0000
,
0000
0100
0000
0000
,
0001
0000
0000
0010
,
0000
0000
0001
0000
,
0000
0010
0000
0000
,
0100
0000
0000
1000
,
0000
0000
0100
0000
,
0000
1000
0000
0000
,
0100
0000
0000
0010
,
0000
0000
0001
0000
,
0000
0010
0000
0000
,
0100
0000
0000
1000
,
0000
0000
0010
0000
,
0000
0100
0000
0000
,
0010
0000
0000
0010
,
0000
0000
1000
0000
,
0000
1000
0000
0000
,
0001
0000
0000
0100
,
0000
0000
0010
0000
,
0000
0100
0000
0000
,
0001
0000
0000
1000
,
0000
0000
0001
0000
,
0000
1000
0000
0000
,
0100
0000
0000
1000
,
0000
0000
0100
0000
,
0000
0100
0000
0000
,
0010
0000
0000
0001
,
0000
0000
0010
0000
,
0000
0001
0000
0000
,
0100
0000
0000
0100
,
0000
0000
0010
0000
,
0000
0010
0000
0000
,
1000
0000
0000
0001
,
0000
0000
0010
0000
,
0000
0100
0000
0000
,
1000
0000
0000
0010
,
0000
0000
0100
0000
,
0000
0001
0000
0000
,
0100
0000
0000
0010
,
0000
0000
0010
0000
,
0000
1000
0000
0000
,
0001
0000
0000
1000
,
0000
0000
0100
0000
,
0000
0010
0000
0000
,
0001
0000
0000
0100
,
0000
0000
0001
0000
,
0000
0010
0000
0000
,
0001
0000
0000
0001
,
0000
0000
0100
0000
,
0000
0100
0000
0000
,
1000
0000
0000
1000
,
0000
0000
0010
0000
,
0000
0010
0000
0000
,
0001
0000
0000
1000
,
0000
0000
0001
0000
,
0000
1001
0000
0000
,
1001
0000
0000
0100
,
0000
0000
1000
0000
,
0000
0001
0000
0000
,
0010
0000
0000
0100
,
0000
0000
1000
0000
,
0000
0010
0000
0000
,
0100
0000
0000
0001
,
0000
0000
0100
0000
,
0000
1000
0000
0000
,
0100
0000
0000
0001
,
0000
0000
0010
0000
,
0000
0100
0000
0000
,
1000
0000
0000
0010
,
0000
0000
0010
0000
,
0000
0001
0000
0000
,
0010
0000
0000
0100
,
0000
0000
0010
0000
,
0000
1000
0000
0000
,
0001
0000
0000
0010
,
0000
0000
0100
0000
,
0000
1000
0000
0000
,
0100
0000
0000
0010
,
0000
0000
1001
0000
,
0000
0100
0000
0000
,
1001
0000
0000
0010
,
0000
0000
1001
0000
,
0000
1001
0100
0100
,
0200
0000
0000
0000
,
0000
0000
0000
0000
,
0000
0300
0000
0000
;

//---------------dance-single - ----------------
#NOTEDATA:;
#CHARTNAME:;
#STEPSTYPE:dance-single;
#DESCRIPTION:;
#CHARTSTYLE:;
#DIFFICULTY:Easy;
#METER:7;
#RADARVALUES:0.351637,0.408399,0.247917,0.079688,0.000000,278.000000,250.000000,28.000000,9.000000,0.000000,0.000000,0.000000,0.000000,0.000000,0.351637,0.408399,0.247917,0.079688,0.000000,278.000000,250.000000,28.000000,9.000000,0.000000,0.000000,0.000000,0.000000,0.000000;
#CREDIT:MILEN;
#DISPLAYBPM:204.000000;
#NOTES:
0000
0000
0000
0000
,
0000
0000
0000
0000
,
0000
0000
0000
0010
,
0020
0000
0000
0030
,
0001
1000
0001
0000
,
0000
1001
0000
1000
,
0010
0000
0010
0100
,
0000
0100
0001
0000
,
0000
1001
0000
1000
,
0100
0000
0100
0010
,
0000
0010
0001
0000
,
0000
1001
0000
0000
,
1000
0010
0100
0001
,
0100
0010
1000
0000
,
0000
0001
0000
0100
,
0200
0000
0300
0010
,
1000
0010
1000
0000
,
1100
0000
0100
0100
,
0010
0001
0010
0100
,
1000
0100
0010
0000
,
0000
0011
0000
0001
,
0100
0000
0100
0010
,
0000
0010
1000
0000
,
0000
1001
0000
0000
,
0001
0010
0100
1000
,
0100
0010
0001
0000
,
0000
0000
0010
0010
,
0200
0000
0300
0010
,
0000
0100
0100
0000
,
0000
1001
0000
0000
,
0001
0100
0010
1000
,
0100
0010
0001
0000
,
0000
1001
0000
1000
,
0010
0000
0000
0110
,
0000
0100
0001
0000
,
0000
1001
0000
0000
,
1000
0010
0100
0001
,
0010
0100
1000
0001
,
1000
0001
1000
0001
,
2002
0000
3003
1000
,
0010
0100
0010
0000
,
0110
0000
0100
0100
,
0001
0100
0010
1000
,
0010
0100
0001
0000
,
0000
1001
0000
1000
,
0010
0000
0010
0100
,
0000
0100
0001
0000
,
0000
0011
0000
0000
,
0010
0100
1000
0001
,
0010
0100
1000
0000
,
0000
1010
0001
0001
,
0100
0010
0100
0001
,
1000
0001
0100
0010
,
0100
0001
1000
0001
,
0100
0010
1000
0001
,
0010
0100
1000
0010
,
1000
0001
0100
0001
,
1000
0100
1000
0001
,
0010
0001
0100
0010
,
0100
0001
1000
0001
,
0100
0100
0100
0010
,
0010
0010
1000
0001
,
0010
0100
1000
0001
,
1001
0000
0000
1000
,
0100
0010
0001
0000
,
0101
0000
0100
0010
,
1000
0010
0100
0001
,
0100
0010
1000
0000
,
0000
1100
0000
0100
,
0010
0000
0010
0001
,
0000
0001
0100
0000
,
0000
0110
0000
0000
,
0010
1000
0100
0010
,
0001
0100
0010
0000
,
0000
0100
0010
0100
,
0110
0000
0000
0010
,
1000
0001
0200
0000
,
0000
0310
0000
0000
,
1001
0000
0000
0001
,
0010
0100
2000
3000
,
0001
1000
0010
0100
,
0001
1000
0100
0010
,
0001
0100
0010
0010
,
0100
0001
1000
0001
,
0010
0100
1000
0001
,
0010
0100
1100
0000
,
1000
1010
0000
0010
,
0011
0000
0001
0101
,
0000
0100
0110
0000
,
0000
1001
0000
0000
,
0220
0000
0000
0000
,
0000
0000
0000
0000
,
0000
0330
0000
0000
;

//---------------dance-double - ----------------
#NOTEDATA:;
#CHARTNAME:;
#STEPSTYPE:dance-double;
#DESCRIPTION:;
#CHARTSTYLE:;
#DIFFICULTY:Easy;
#METER:8;
#RADARVALUES:0.351637,0.408399,0.247917,0.079688,0.000000,278.000000,250.000000,28.000000,9.000000,0.000000,0.000000,0.000000,0.000000,0.000000,0.351637,0.408399,0.247917,0.079688,0.000000,278.000000,250.000000,28.000000,9.000000,0.000000,0.000000,0.000000,0.000000,0.000000;
#CREDIT:MILEN;
#DISPLAYBPM:204.000000;
#NOTES:
00000000
00000000
00000000
00000000
,
00000000
00000000
00000000
00000000
,
00000000
00000000
00000000
00100000
,
00200000
00000000
00000000
00300000
,
00001000
00010000
00001000
00000000
,
00000000
00011000
00000000
00010000
,
00000100
00000000
00000100
00001000
,
00000000
00001000
00000010
00000000
,
00000000
00000110
00000000
00000100
,
00000001
00000000
00000001
00001000
,
00000000
00001000
00000010
00000000
,
00000000
00000110
00000000
00000000
,
00000100
00000001
00000100
00000010
,
00001000
00000010
00010000
00000000
,
00000000
00001000
00000000
00100000
,
00200000
00000000
00300000
00010000
,
01000000
00010000
01000000
00000000
,
01100000
00000000
00100000
00100000
,
10000000
01000000
10000000
00010000
,
00100000
00010000
01000000
00000000
,
00000000
01100000
00000000
00100000
,
10000000
00000000
10000000
00010000
,
00000000
00010000
01000000
00000000
,
00000000
01100000
00000000
00000000
,
00100000
00010000
00001000
00010000
,
00000100
00001000
00000100
00000000
,
00000000
00000000
00000010
00000010
,
00000002
00000000
00000003
00000100
,
00000000
00000001
00000001
00000000
,
00000000
00001001
00000000
00000000
,
00001000
00000010
00010000
00001000
,
00100000
00010000
01000000
00000000
,
00000000
01100000
00000000
00100000
,
10000000
00000000
00000000
10010000
,
00000000
00010000
01000000
00000000
,
00000000
01100000
00000000
00000000
,
00100000
10000000
00100000
01000000
,
00010000
01000000
00001000
00010000
,
00001000
00010000
00001000
00010000
,
00022000
00000000
00033000
00001000
,
00100000
00010000
01000000
00000000
,
01100000
00000000
00100000
00100000
,
10000000
01000000
00100000
00010000
,
01000000
00100000
10000000
00000000
,
00000000
10010000
00000000
00010000
,
01000000
00000000
01000000
00001000
,
00000000
00001000
00010000
00000000
,
00000000
00011000
00000000
00000000
,
00001000
00010000
00000100
00010000
,
00001000
01000000
00001000
00000000
,
00000000
00011000
00000100
00000100
,
00000010
00000001
00000010
00000001
,
00001000
00000100
00001000
00000100
,
00010000
00001000
00010000
00001000
,
01000000
00010000
01000000
00010000
,
10000000
00100000
10000000
00100000
,
01000000
00010000
01000000
00010000
,
00100000
00001000
00100000
00001000
,
00010000
00000010
00010000
00000010
,
00001000
00000100
00001000
00000100
,
00000010
00000010
00000010
00000001
,
00000001
00000001
00000100
00001000
,
00010000
00100000
10000000
00010000
,
10010000
00000000
00000000
10000000
,
01000000
00100000
00010000
00000000
,
01010000
00000000
01000000
00001000
,
00010000
00000100
00010000
00001000
,
01000000
00001000
00010000
00000000
,
00000000
00010100
00000000
00000100
,
00000010
00000000
00000010
00000001
,
00000000
00000001
00000100
00000000
,
00000000
00001100
00000000
00000000
,
00001000
00010000
00100000
00010000
,
00001000
00100000
01000000
00000000
,
00000000
01000000
10000000
00010000
,
10010000
00000000
00000000
10000000
,
00100000
00010000
00002000
00000000
,
00000000
00003010
00000000
00000000
,
00000110
00000000
00000000
00000001
,
00000010
00000100
00020000
00000000
,
00031000
00100000
01000000
10000000
,
00100000
01000000
00010000
00100000
,
01000000
00010000
00001000
00001000
,
00010000
00000100
00000010
00000001
,
00001000
00000100
00000010
00000001
,
00000100
00001000
00011000
00000000
,
00010000
00010010
00000000
00001000
,
00101000
00000000
00010000
00010100
,
00000000
00001000
01001000
00000000
,
00000000
00011000
00000000
00000000
,
00022000
00000000
00000000
00000000
,
00000000
00000000
00000000
00000000
,
00000000
00033000
00000000
00000000
;

//---------------dance-single - ----------------
#NOTEDATA:;
#CHARTNAME:;
#STEPSTYPE:dance-single;
#DESCRIPTION:;
#CHARTSTYLE:;
#DIFFICULTY:Medium;
#METER:12;
#RADARVALUES:0.610938,0.735118,0.345313,0.389584,0.000000,483.000000,444.000000,39.000000,44.000000,0.000000,0.000000,0.000000,0.000000,0.000000,0.610938,0.735118,0.345313,0.389584,0.000000,483.000000,444.000000,39.000000,44.000000,0.000000,0.000000,0.000000,0.000000,0.000000;
#CREDIT:MILEN;
#DISPLAYBPM:204.000000;
#NOTES:
0000
0000
0000
0000
,
0000
0000
0000
0000
,
0000
0000
0000
0100
,
0100
0010
0100
0110
,
0010
1000
0100
0010
,
0001
1001
1000
0010
,
0100
0000
0001
1000
0001
1000
0001
0000
,
0100
0010
1000
0001
,
0100
0000
0110
0000
0010
1000
0010
0000
,
0100
0001
1000
1001
,
0001
0100
0010
1000
,
0100
0110
0010
0001
,
0100
0000
0010
0000
1000
0000
0001
0100
,
0001
0100
0010
1000
0010
0000
0100
0000
,
0001
1001
1000
0020
,
0130
0000
0010
0000
0100
0000
0001
0010
,
0001
0010
0100
1000
0100
0000
1000
0000
,
0010
0000
0110
0000
0100
0001
0100
0001
,
0100
0000
0010
1000
0010
1000
0010
0000
,
0100
0010
0100
0010
0100
0000
0010
0000
,
1000
0000
1001
0000
0001
0100
0001
0000
,
0010
0100
0010
0110
,
0100
1000
0010
0100
,
0001
1001
1000
0100
,
0010
0000
0001
0000
0100
0000
0010
1000
,
0010
1000
0001
0100
0001
0000
1000
0000
,
0010
0110
0200
0302
,
1003
0001
1000
1100
,
0100
1000
0010
0100
,
0001
0101
0100
0010
,
2000
3002
0023
0230
,
1300
0010
1000
0010
1000
0000
0001
0000
,
0100
0000
0110
0000
0010
0000
1000
0100
,
1000
0100
0010
0011
,
0001
0100
0010
1000
,
0100
1100
1000
0010
,
0200
0302
2003
3200
,
0320
0032
2003
0010
,
3010
0002
0100
0103
,
0110
0000
0010
0000
1000
0000
0100
0010
,
0100
0010
0001
0100
0001
0000
1000
0000
,
0010
0000
0110
0000
0100
0001
0100
0001
,
1000
0000
0010
1000
0010
1000
0001
0000
,
0010
0001
0010
0001
1000
0000
0100
0000
,
1000
0000
1010
0000
0010
0100
0001
0000
,
1000
0100
0010
0011
,
0001
1000
0001
0010
,
0100
1100
1000
0010
,
0200
0000
0302
0000
2003
0000
3010
0100
,
0001
0100
0010
1000
0010
0000
1000
0000
,
0001
0101
0200
0320
,
1030
0010
1000
0000
0001
0000
0100
0010
,
0100
0000
1000
0000
0100
0010
0100
0000
,
0001
0000
0010
0001
0010
0000
0100
0000
,
2000
3020
0230
0302
,
1003
0100
0010
0100
1000
0000
0001
0100
,
0010
0000
1000
0000
0010
0100
0001
0000
,
1001
0000
1000
0010
1000
0000
0100
0000
,
0010
0100
0010
0000
0001
0000
0010
0100
,
0010
0000
1000
0000
0010
0100
0010
0000
,
0002
0203
0320
2030
,
3200
0000
0320
0000
0031
0100
0001
0100
,
0001
0100
0010
1000
0010
1000
0010
1000
,
0001
0000
0010
0000
0100
0000
1000
0001
,
1000
0001
0100
0010
0100
0000
0010
0000
,
0100
0000
0101
0000
0001
1000
0100
1000
,
0001
0000
1000
0001
0100
0001
1000
0000
,
0001
0010
0100
0010
0001
0000
0100
0000
,
0010
0000
1010
0000
1000
0001
0100
0000
,
0010
1000
0100
1100
,
1000
0100
0010
0001
,
0010
0011
0001
0100
,
0020
0000
2030
0000
3002
0000
0103
0010
,
0100
0001
0010
0001
0010
0000
0100
0000
,
1000
1010
0010
0200
,
0301
0100
0010
2010
,
3001
0102
1003
0100
,
0010
0011
0100
1000
,
1100
0010
0100
0120
,
1030
0210
0301
1000
,
0100
0120
0001
1030
,
0012
0103
2010
3100
,
0100
0010
0001
0100
0010
0000
1000
0000
,
1200
0000
0301
0000
0001
0100
1000
0010
,
0100
0001
0100
0001
1000
0010
1000
0010
,
0100
0001
0100
0010
1000
0001
1000
0001
,
1000
0001
0010
0100
0010
0100
0010
0100
,
1000
0010
1000
0010
1000
0010
0001
0100
,
0001
0100
0001
0100
1000
0010
0100
0001
,
0010
0100
1000
0010
0100
0001
1000
0100
,
0220
0000
0000
0000
,
0000
0000
0000
0000
,
0000
0330
0000
0000
;

//---------------dance-double - ----------------
#NOTEDATA:;
#CHARTNAME:;
#STEPSTYPE:dance-double;
#DESCRIPTION:;
#CHARTSTYLE:;
#DIFFICULTY:Medium;
#METER:12;
#RADARVALUES:0.594495,0.694278,0.345313,0.301042,0.000000,470.000000,431.000000,39.000000,34.000000,0.000000,0.000000,0.000000,0.000000,0.000000,0.594495,0.694278,0.345313,0.301042,0.000000,470.000000,431.000000,39.000000,34.000000,0.000000,0.000000,0.000000,0.000000,0.000000;
#CREDIT:MILEN;
#DISPLAYBPM:204.000000;
#NOTES:
00000000
00000000
00000000
00000000
,
00000000
00000000
00000000
00000000
,
00000000
00000000
00000000
00001000
,
00001000
00010000
00001000
00011000
,
00010000
00000100
00001000
00000001
,
00001000
00001001
00000001
00000100
,
00000010
00000000
00010000
00001000
00010000
00001000
00010000
00000000
,
00000100
00001000
00000010
00010000
,
00001000
00000000
00011000
00000000
00010000
00001000
00010000
00000000
,
00001000
00100000
00010000
10010000
,
10000000
00100000
01000000
00001000
,
00010000
00011000
00001000
00100000
,
00010000
00000000
01000000
00000000
00001000
00000000
00010000
00000100
,
00010000
00000100
00001000
00000010
00001000
00000000
00000001
00000000
,
00001000
00001001
00000001
00000200
,
00000310
00000000
00000100
00000000
00000001
00000000
00001000
00000010
,
00001000
00000010
00010000
00001000
00010000
00000000
00001000
00000000
,
00100000
00000000
00110000
00000000
00010000
10000000
01000000
00000000
,
10000000
00000000
00010000
10000000
01000000
00000000
10000000
00000000
,
00010000
10000000
01000000
00000000
10000000
00000000
00010000
00000000
,
01000000
00000000
01100000
00000000
00100000
10000000
00100000
00000000
,
01000000
00010000
00100000
00101000
,
00001000
00010000
00000100
00001000
,
00000010
00000110
00000100
00000001
,
00001000
00000000
00000100
00000000
00000010
00000000
00000001
00000100
,
00000001
00000100
00000010
00001000
00000010
00000000
00010000
00000000
,
00001000
01001000
02000000
03020000
,
10030000
00010000
10000000
10100000
,
00100000
01000000
00010000
00100000
,
00001000
00011000
00010000
00000100
,
00002000
00003010
00000200
00000301
,
00000001
00000010
00000100
00000010
00000001
00000000
00001000
00000000
,
00000010
00000000
00010010
00000000
00010000
00000000
00001000
00100000
,
00001000
00010000
00100000
10100000
,
10000000
01000000
00100000
00010000
,
01000000
01100000
00100000
10000000
,
00020000
01030000
00002000
00013000
,
00000200
00001300
00000020
00010000
,
00010030
00002000
00100000
00103000
,
00011000
00000000
00010000
00000000
00000100
00000000
00001000
00000100
,
00001000
00000100
00000010
00000001
00000010
00000000
00001000
00000000
,
00010000
00000000
00011000
00000000
00001000
00010000
01000000
00000000
,
00010000
00000000
00001000
00010000
01000000
00000000
00010000
00000000
,
00001000
00010000
01000000
00000000
10000000
00000000
00100000
00000000
,
01000000
00000000
01010000
00000000
00010000
00100000
00001000
00000000
,
00010000
00000100
00001000
00001001
,
00000001
00000100
00001000
00010000
,
00100000
10100000
10000000
01000000
,
00200000
00000000
00302000
00000000
00023000
00000000
00030100
00001000
,
00000100
00000010
00000001
00000010
00000001
00000000
00000100
00000000
,
00000010
00001010
00002000
00003200
,
00010300
00001000
00010000
00000000
00100000
00000000
00010000
00001000
,
00010000
00000000
00000010
00000000
00010000
00001000
00010000
00000000
,
00100000
00000000
00010000
00001000
00010000
00000000
00000010
00000000
,
00000200
00000301
00002000
00003010
,
00000010
00010000
00001000
00010000
00000100
00000000
00001000
00000100
,
00000010
00000000
00000100
00000000
00010000
00001000
00100000
00000000
,
00110000
00000000
00010000
01000000
00010000
00000000
00100000
00000000
,
01000000
10000000
01000000
00000000
00010000
00000000
01000000
10000000
,
01000000
00000000
00100000
00000000
01000000
10000000
01000000
00000000
,
00020000
00031000
00200000
01300000
,
00020000
00000000
00031000
00000000
00001000
00000100
00001000
00000100
,
00001000
00000100
00000001
00000010
00000001
00000010
00000001
00000010
,
00000100
00000000
00010000
00000000
00001000
00000000
00100000
00010000
,
00100000
00010000
01000000
00100000
01000000
00000000
10000000
00000000
,
01000000
00000000
01010000
00000000
00010000
10000000
01000000
00000000
,
00010000
00000000
00001000
00010000
00000100
00000000
00001000
00000000
,
00000001
00001000
00000010
00000000
00000001
00000000
00000010
00000000
,
00000100
00000000
00000110
00000000
00000010
00001000
00000100
00000000
,
00010000
00001000
00100000
01100000
,
01000000
10000000
00100000
00010000
,
00001000
00011000
00010000
00000100
,
00002000
00000000
00003020
00000000
00020030
00000000
00031000
00100000
,
00001000
01000000
00010000
01000000
00010000
00000000
10000000
00000000
,
00100000
01100000
00010000
20000000
,
31000000
00010000
00001000
00021000
,
00030010
00012000
01003000
00001000
,
00010000
00010100
00000100
00001000
,
00001001
00000001
00000100
00000120
,
00001030
00000210
00000301
00000010
,
00001000
00021000
00000100
01030000
,
21000000
30100000
01020000
00130000
,
00100000
01000000
00100000
01000000
10000000
00000000
00100000
00000000
,
02100000
00000000
03010000
00000000
00010000
00100000
00001000
00010000
,
00000010
00001000
00000010
00001000
00000001
00000100
00000001
00000100
,
00000010
00001000
00000100
00010000
00001000
00100000
01000000
00100000
,
00001000
00000000
00010000
00000100
00000010
00000100
00010000
00000000
,
00001000
00010000
01000000
00010000
00001000
00000000
00010000
00001000
,
00000100
00001000
00010000
00000000
00001000
00010000
01000000
10000000
,
00100000
00010000
00001000
00000100
00000001
00000010
00001000
00010000
,
00022000
00000000
00000000
00000000
,
00000000
00000000
00000000
00000000
,
00000000
00033000
00000000
00000000
;
