#TITLE:Can't Tame Her;
#SUBTITLE:;
#ARTIST:Zara Larsson;
#TITLETRANSLIT:;
#SUBTITLETRANSLIT:;
#ARTISTTRANSLIT:;
#GENRE:POP CHARTS;
#CREDIT:MUINELIM;
#BANNER:Can't Tame Her.png;
#BACKGROUND:Can't Tame Her-bg.png;
#LYRICSPATH:;
#CDTITLE:;
#MUSIC:Can't Tame Her.mp3;
#OFFSET:0.041000;
#SAMPLESTART:44.464493;
#SAMPLELENGTH:11.868134;
#SELECTABLE:YES;
#BPMS:0.000000=182,234.000000=91,270.000000=182
;
#STOPS:270.000000=1.31868
;
#BGCHANGES:0.000=Can't Tame Her.mp4=1.000=1=0=0=StretchNoLoop==CrossFade==,
99999=-nosongbg-=1.000=0=0=0 // don't automatically add -songbackground-
;
#KEYSOUNDS:;
#ATTACKS:;

//---------------dance-single - ----------------
#NOTES:
     dance-single:
     :
     Hard:
     13:
     0.597799,0.772342,0.560898,0.642081,0.118084,567.000000,491.000000,76.000000,87.000000,0.000000,0.000000,0.597799,0.772342,0.560898,0.642081,0.118084,567.000000,491.000000,76.000000,87.000000,0.000000,0.000000:
0000
0000
0000
0000
,
0000
0000
0000
0000
,
0000
0000
0000
0000
,
0000
0000
0000
0000
,
0000
0000
1000
0100
,
0010
0000
0001
0000
0100
0000
0020
0200
,
0000
0330
0000
0110
0000
0000
0100
0000
,
0001
0000
0010
0000
0100
0000
1000
0001
,
0000
0101
0000
1010
2000
0000
3100
0000
,
0002
0000
0103
0000
1001
0000
1000
1010
,
0000
0110
0000
0101
0002
0000
0013
0000
,
2000
0000
3010
0000
1001
0000
0001
0011
,
0000
0110
0000
1100
2000
0000
3010
0000
,
0002
0000
0103
0000
1001
0000
1000
1100
,
0000
0110
0000
0011
0002
0000
0103
0000
,
2000
0000
3010
0000
1001
0001
0010
0100
,
1000
0010
0100
0020
0000
1030
1000
0000
,
0100
0010
0001
0100
0000
0010
1000
0100
,
0000
1000
1010
0020
0000
0130
0100
0000
,
0001
0010
0100
1000
0000
0010
0100
0001
,
0000
1000
1100
0200
0000
0310
0010
0001
,
0000
0100
0010
1000
0000
0010
0100
0001
,
0000
1000
1001
0002
0000
0103
0020
2000
,
0000
3030
0000
1010
0000
0010
0200
0002
,
0000
0303
0000
0101
0000
0001
0020
0000
,
0130
1000
0100
0010
0000
0100
0010
0001
,
0000
0010
0011
0002
0000
0103
0010
1000
,
0000
0010
0100
0001
0000
0010
0100
1000
,
0000
0010
0110
0200
0000
0301
0010
0100
,
0000
1000
0010
0100
0000
1000
0100
0001
,
0000
0010
0110
0200
0000
1300
0002
0020
,
0000
0033
0000
0011
0000
0001
1000
0200
,
0000
1300
0010
0100
0002
0000
0023
0000
,
0230
0000
2300
0000
3020
0000
0130
0110
,
0000
1001
0000
0220
0000
0330
1001
0000
,
1000
0010
0100
0101
0000
0001
0010
0100
,
0000
0001
0100
2100
0000
0000
0010
0000
,
3002
0000
0010
0000
0103
0000
0100
0010
,
1000
0010
0100
0001
0010
0100
1000
0000
,
1010
0000
0011
0000
0101
0000
0100
1000
,
0000
1001
0000
0220
0000
0330
1001
0000
,
0001
0010
0100
2100
0000
0000
3010
0100
,
0001
1000
0100
0220
0000
0330
1001
0000
,
0001
0010
0100
1100
0000
1000
0010
0100
,
0000
1000
0100
0102
0000
0000
0010
0000
,
2003
0000
0010
0000
3100
0000
0100
0010
,
0001
0010
0100
1000
0010
0100
0001
0000
,
0011
0000
1010
0000
1100
0000
0100
0001
,
0000
1001
0000
0220
0000
0330
1001
0000
,
0001
0010
0100
2000
0000
0000
0020
3030
,
0000
0101
0000
0011
0020
0000
0130
0000
,
2000
0000
3001
0000
0001
0100
0010
1000
,
0001
0010
0100
0000
2000
0000
3001
0000
,
0200
0000
0310
0000
0010
1000
0001
0010
,
0100
1000
0010
0000
0200
0000
0301
0000
,
0020
0000
1030
0000
1000
0100
0010
0001
,
0100
0010
1000
2200
0000
3300
0011
0000
,
0000
0001
0100
0120
0000
0000
1030
1100
,
0000
0101
0000
0001
2000
0000
0000
0000
,
3020
0000
0230
0000
,
0302
0000
0023
0230
,
2300
0000
3020
0000
0130
0100
0001
0001
,
0010
0000
0100
0000
2000
0000
0000
3010
0000
0100
0001
0000
0010
0001
0100
0010
,
0000
1000
0010
0200
0000
0000
0000
0301
0000
0010
0100
1000
0000
0001
0010
0100
,
0000
0010
0100
2000
0000
0000
0000
3010
0000
0100
0001
0010
0000
0100
1000
0010
,
0000
0100
0001
0020
0000
0000
0000
0130
0000
1000
0010
0002
0000
0000
0000
1003
,
0000
1000
0100
0001
0000
0001
0010
0200
0000
0000
0010
0000
0010
0000
0310
0000
,
0010
0100
1000
0010
0100
0001
0010
0100
0220
0000
0330
0000
1000
0000
0001
0000
,
0000
1000
1000
1000
0001
0100
0010
1000
,
0010
0100
0001
0100
0010
1000
0100
0010
,
0001
1000
0010
0100
0001
0010
0100
0000
,
1100
0000
0011
0000
1001
0000
1000
0001
,
0010
0100
0001
0100
1100
0000
0022
0030
,
0000
1003
0020
0200
0030
0000
0010
0310
,
0000
0100
0100
0100
1001
1000
0010
0100
,
0001
0100
0010
1000
0010
0100
0001
0010
,
0100
1000
0010
0100
0001
0010
0100
0010
,
1000
0010
0100
0001
0100
0010
0100
1000
,
0010
0100
0001
1000
0100
0010
0001
0000
,
0101
0000
1010
0000
1001
0000
1000
0001
,
0100
1000
0100
0010
1010
0000
0202
0300
,
0000
0013
0100
2100
0000
3010
0100
1000
,
0100
0001
0010
0100
2100
0000
3001
0000
,
0012
0000
1003
0000
1000
0010
0100
1000
,
0000
0100
0001
0100
0102
0000
1003
0000
,
2010
0000
3001
0000
0001
0010
0100
0001
,
0000
0100
1000
0100
1200
0000
0310
0000
,
0021
0000
0130
0000
0010
0100
1000
0020
,
0000
0031
0010
0200
0000
0000
1300
0000
,
1000
0100
0001
0010
0100
1000
0010
0110
,
0000
0101
0100
0010
2000
0000
0002
0000
,
3003
0000
0000
0000
;

//---------------dance-double - ----------------
#NOTES:
     dance-double:
     :
     Hard:
     13:
     0.559844,0.703244,0.309970,0.642081,0.103323,531.000000,489.000000,42.000000,87.000000,0.000000,0.000000,0.559844,0.703244,0.309970,0.642081,0.103323,531.000000,489.000000,42.000000,87.000000,0.000000,0.000000:
// measure 0
00000000
00000000
00000000
00000000
,  // measure 1
00000000
00000000
00000000
00000000
,  // measure 2
00000000
00000000
00000000
00000000
,  // measure 3
00000000
00000000
00000000
00000000
,  // measure 4
00000000
00000000
10000000
01000000
,  // measure 5
00100000
00000000
00010000
00000000
01000000
00000000
00002000
00020000
,  // measure 6
00000000
00033000
00000000
00011000
00000000
00000000
00010000
00000000
,  // measure 7
00000100
00000000
00001000
00000000
00000001
00000000
00000100
00000010
,  // measure 8
00000000
00000110
00000000
00001001
00000002
00000000
00000203
00000000
,  // measure 9
00002300
00000000
00023000
00000000
00130000
00000000
00100000
10000000
,  // measure 10
00000000
01000000
00000000
01100000
00200000
00000000
00320000
00000000
,  // measure 11
02030000
00000000
03002000
00000000
00013000
00000000
00010000
00000100
,  // measure 12
00000000
00000010
00000000
00000011
00000002
00000000
00002003
00000000
,  // measure 13
00003020
00000000
00020030
00000000
00031000
00000000
00001000
01000000
,  // measure 14
00000000
00100000
00000000
10100000
20000000
00000000
32000000
00000000
,  // measure 15
03200000
00000000
00302000
00000000
00013000
00010000
00000100
00010000
,  // measure 16
00001000
01000000
00001000
00020000
00000000
00030010
00000010
00000000
,  // measure 17
00001000
00000100
00000010
00000001
00000000
00000100
00000010
00001000
,  // measure 18
00000000
00000010
00000100
00000002
00000000
00001003
00001000
00000000
,  // measure 19
00000010
00010000
00001000
00100000
00000000
00001000
00010000
00000100
,  // measure 20
00000000
00010000
00001000
02000000
00000000
03010000
00010000
00100000
,  // measure 21
00000000
01000000
10000000
00100000
00000000
01000000
00001000
00010000
,  // measure 22
00000000
00001000
00010000
00000200
00000000
00001300
00000100
00000020
,  // measure 23
00000000
00000030
00000000
00000011
00000000
00000001
00000100
00002000
,  // measure 24
00000000
00003000
00000000
00011000
00000000
00010000
00200000
00000000
,  // measure 25
10300000
01000000
00100000
00010000
00000000
01000000
00001000
00010000
,  // measure 26
00000000
00001000
00100000
00020000
00000000
01030000
00100000
00010000
,  // measure 27
00000000
00100000
00010000
00001000
00000000
00010000
00000100
00001000
,  // measure 28
00000000
00000100
00000010
00000002
00000000
00001003
00000010
00010000
,  // measure 29
00000000
00001000
00010000
00100000
00000000
01000000
00010000
00100000
,  // measure 30
00000000
01000000
10000000
00200000
00000000
00310000
00001000
00000200
,  // measure 31
00000000
00000300
00000000
00000101
00000000
00000001
00001000
00000020
,  // measure 32
00000000
00010030
00001000
00100000
01000000
00000000
10000000
00000000
,  // measure 33
00100000
00000000
00010000
00000000
00001000
00000000
00010000
00011000
,  // measure 34
00000000
00101000
00000000
00020020
00000000
00030030
00011000
00000000
,  // measure 35
00010000
01000000
10000000
00010000
00000000
10000000
01000000
00010000
,  // measure 36
00000000
00010000
00001000
00200000
00000000
00000000
00010000
00000000
,  // measure 37
02300000
00000000
03020000
00000000
00032000
00000000
00003010
00000001
,  // measure 38
00000100
00000010
00001000
00000100
00000010
00000001
00000100
00000000
,  // measure 39
00001100
00000000
00010000
00000000
00011000
00000000
00001000
00100000
,  // measure 40
00000000
01100000
00000000
21000000
00000000
00000000
30100000
00000000
,  // measure 41
00100000
00010000
00001000
00000020
00000000
00000000
00000130
00000010
,  // measure 42
00000001
00000100
00001000
00202000
00000000
00303000
00011000
00000000
,  // measure 43
00001000
00000100
00000001
00001000
00000000
00000001
00000100
00001000
,  // measure 44
00000000
00001000
00010000
00000020
00000000
00000000
00001000
00000000
,  // measure 45
00000230
00000000
00002300
00000000
00023000
00000000
00130000
10000000
,  // measure 46
01000000
00100000
00010000
01000000
00100000
10000000
01000000
00000000
,  // measure 47
01010000
00000000
00001000
00000000
00011000
00000000
00010000
00000010
,  // measure 48
00000000
00000110
00000000
00000102
00000000
00000000
00001003
00000000
,  // measure 49
00001000
00000100
00000010
00002000
00000000
00000000
00023000
00000000
,  // measure 50
00000000
00130000
10000000
01000000
01200000
00000000
00302000
00000000
,  // measure 51
00023000
00000000
00030200
00000000
00000310
00000001
00000010
00000100
,  // measure 52
00001000
00000010
00010000
00000000
00012000
00000000
00203000
00000000
,  // measure 53
02300000
00000000
23000000
00000000
30100000
01000000
00010000
10000000
,  // measure 54
01000000
00100000
00010000
00000000
02010000
00000000
03002000
00000000
,  // measure 55
00023000
00000000
00030200
00000000
00000310
00000001
00000100
00001000
,  // measure 56
00010000
00100000
01000000
01200000
00000000
00000000
10300000
00000000
,  // measure 57
00000000
10000000
01000000
00020000
00000000
00000000
00031000
00011000
,  // measure 58
00000000
00010100
00000000
00000100
00000010
00000000
00000000
00000000
,  // measure 59
00000001
00000000
00000100
00000000
,  // measure 60
00001000
00000000
00010000
00100000
,  // measure 61
10000000
00000000
01000000
00000000
00010000
00001000
00100000
01000000
,  // measure 62
00010000
00000000
00001000
00000000
00000020
00000000
00000000
00000031
00000000
00000001
00000100
00000000
00001000
00010000
00001000
00010000
,  // measure 63
00000000
00100000
01000000
00200000
00000000
00000000
00000000
10300000
00000000
10000000
01000000
10000000
00000000
01000000
00010000
01000000
,  // measure 64
00000000
00010000
00001000
00020000
00000000
00000000
00000000
00030100
00000000
00000100
00001000
00000100
00000000
00000010
00000001
00000010
,  // measure 65
00000000
00000001
00001000
00000002
00000000
00000000
00000000
00000103
00000000
00001000
00010000
00002000
00000000
00000000
00000000
00103000
,  // measure 66
00000000
01000000
10000000
01000000
00000000
00100000
00010000
00100000
00010000
00000000
01000000
00000000
00001000
00000000
00010000
00000000
,  // measure 67
00000100
00001000
00000010
00010000
00011000
00000000
00001000
00001000
,  // measure 68
00000000
00010000
00010000
00010000
00000100
00001000
00000010
00010000
,  // measure 69
00001000
00010000
00000100
00001000
00000010
00000100
00000010
00001000
,  // measure 70
00000100
00000010
00000001
00000010
00000100
00001000
00000010
00000000
,  // measure 71
00010010
00000000
00001000
00000000
00101000
00000000
00100000
01000000
,  // measure 72
10000000
00100000
00010000
00001000
00101000
00000000
00020020
00030000
,  // measure 73
00000000
00010030
00001000
00000200
00000000
00000000
00000001
00000301
,  // measure 74
00000000
00001000
00001000
00001000
00000001
00000100
00000010
00001000
,  // measure 75
00000100
00010000
00001000
00100000
00010000
01000000
00100000
10000000
,  // measure 76
01000000
00100000
00010000
01000000
00001000
00010000
00000010
00001000
,  // measure 77
00000100
00000010
00000001
00000100
00001000
00010000
00001000
00100000
,  // measure 78
00010000
01000000
00100000
10000000
01000000
00010000
00001000
00000000
,  // measure 79
01001000
00000000
00010000
00000000
00011000
00000000
00001000
00000100
,  // measure 80
00000001
00000010
00000100
00001000
00000010
00000000
00020020
00000030
,  // measure 81
00000000
00031000
00100000
02000000
00000000
13000000
00100000
00010000
,  // measure 82
00100000
01000000
00010000
00100000
02100000
00000000
23000000
00000000
,  // measure 83
30200000
00000000
00320000
00000000
00031000
00100000
00010000
01000000
,  // measure 84
00000000
00001000
00010000
00000100
00020100
00000000
00032000
00000000
,  // measure 85
00003020
00000000
00000032
00000000
00001003
00000100
00000010
00000001
,  // measure 86
00000000
00001000
00000010
00010000
00012000
00000000
00203000
00000000
,  // measure 87
02300000
00000000
23000000
00000000
30100000
00010000
00001000
00200000
,  // measure 88
00000000
01300000
00010000
00002000
00000000
00000000
00003010
00000000
,  // measure 89
00000010
00000001
00000010
00000100
00010000
00001000
00100000
02000000
,  // measure 90
00000000
13000000
00100000
00010000
00011000
00000000
00001100
00000000
;

//---------------dance-single - ----------------
#NOTES:
     dance-single:
     :
     Beginner:
     4:
     0.121247,0.268641,0.029521,0.022141,0.000000,115.000000,111.000000,4.000000,3.000000,0.000000,0.000000,0.121247,0.268641,0.029521,0.022141,0.000000,115.000000,111.000000,4.000000,3.000000,0.000000,0.000000:
0000
0000
0000
0000
,
0000
0000
0000
0000
,
0000
0000
0000
0000
,
0000
0000
0000
0000
,
0000
0000
0000
0000
,
0000
0000
0000
0000
,
0000
0000
0000
0000
,
0000
0000
0000
0000
,
0000
0000
1000
0000
,
0000
0000
1000
0000
,
0000
0000
1000
0000
,
0000
0000
1000
0000
,
0000
0000
0001
0000
,
0000
0000
0001
0000
,
0000
0000
0001
0000
,
0000
0000
0001
0000
,
0000
0000
0100
0000
,
0000
0000
0100
0000
,
0000
0000
0010
0000
,
0000
0000
0010
0000
,
0000
0000
0100
0000
,
0000
0000
0010
0000
,
0000
0000
0100
0000
,
0000
0000
0010
0000
,
0000
0000
1000
0000
,
0000
0000
1000
0000
,
0000
0000
0001
0000
,
0000
0000
0001
0000
,
0000
0000
1000
0000
,
0000
0000
0001
0000
,
0000
0000
1000
0000
,
0000
0000
0001
0000
,
0000
0000
1001
0000
,
0000
0000
0000
0000
,
0000
0000
1000
0000
,
1000
0000
1000
0000
,
0000
0000
0100
0000
,
0100
0000
0100
0000
,
0000
0000
0010
0000
,
0010
0000
0010
0000
,
0000
0000
0001
0000
,
0001
0000
0001
0000
,
0000
0000
0100
0000
,
0100
0000
0100
0000
,
0000
0000
0010
0000
,
0010
0000
0010
0000
,
0000
0000
1000
0000
,
1000
0000
1000
0000
,
0000
0000
0001
0000
,
0001
0000
0001
0000
,
0000
0000
1000
0000
,
0000
0000
0010
0000
,
0000
0000
1000
0000
,
0000
0000
0010
0000
,
0000
0000
0100
0000
,
0000
0000
0001
0000
,
0000
0000
0100
0000
,
0000
0000
0001
0000
,
0000
0000
1001
0000
,
0000
0000
0000
0000
,
0000
0000
2000
0000
,
3000
0000
0002
0000
,
0003
0000
0100
0100
,
0100
0000
0010
0010
,
0010
0000
0100
0100
,
0001
0000
0010
0010
,
1000
0000
1001
0000
,
0000
0000
1001
0000
,
0000
0000
1000
0000
,
0100
0000
0010
0000
,
0000
0000
0001
0000
,
0010
0000
0100
0000
,
0000
0000
1000
0000
,
0001
0000
1000
0000
,
0010
0000
0100
0000
,
0100
0000
0001
0000
,
0001
0000
1000
0000
,
1000
0000
0010
0000
,
0010
0000
0100
0000
,
0010
0000
0010
0000
,
1000
0000
0001
0000
,
1000
0000
0010
0000
,
0100
0000
0010
0000
,
0000
0000
1000
0000
,
0000
0000
0001
0000
,
0000
0000
0100
0000
,
0000
0000
0010
0000
,
0000
0000
1000
0000
,
0000
0000
0001
0000
,
0000
0000
0100
0000
,
0010
0010
0020
0000
,
0030
0000
0000
0000
;

//---------------dance-single - ----------------
#NOTES:
     dance-single:
     :
     Easy:
     7:
     0.275177,0.369381,0.073802,0.214027,0.000000,261.000000,251.000000,10.000000,29.000000,0.000000,0.000000,0.275177,0.369381,0.073802,0.214027,0.000000,261.000000,251.000000,10.000000,29.000000,0.000000,0.000000:
0000
0000
0000
0000
,
0000
0000
0000
0000
,
0000
0000
0000
0000
,
0000
0000
0000
0000
,
0000
0000
0000
0000
,
0000
0000
0000
0000
,
0000
0000
0000
0000
,
0000
0000
0000
0000
,
0000
0000
1000
0000
,
1000
0000
1000
0100
,
1000
0000
0001
0000
,
0001
0000
0001
0010
,
0001
0000
1000
0000
,
1000
0000
1000
0010
,
1000
0000
0001
0000
,
0001
0000
0001
0100
,
0001
0000
1000
0001
,
1000
0001
0100
0010
,
0100
0000
0001
1000
,
0001
1000
0010
0100
,
0010
0000
1000
0100
,
1000
0100
0010
0001
,
0010
0000
0001
0100
,
0020
0000
1030
0010
,
0200
0000
0301
1000
,
0001
1000
0100
0010
,
0100
0000
1000
0001
,
1000
0001
0010
0100
,
0010
0000
0001
0100
,
0001
0100
0010
1000
,
0010
0000
1000
0100
,
0020
0000
0031
0010
,
0200
0000
1300
0000
,
0000
0000
0000
0000
,
0000
0000
2000
0000
,
3002
0000
2003
3001
,
1000
0001
0200
0000
,
0320
0000
0230
0300
,
0010
0010
1000
0001
,
1000
0001
1001
0000
,
1000
0100
0010
0010
,
0000
0002
1003
1000
,
0100
0010
0002
0000
,
2003
0000
3002
1003
,
0001
1000
0020
0000
,
0230
0000
0320
0030
,
0100
0100
0001
1000
,
0001
1000
1001
0000
,
0001
0010
0100
0100
,
0000
2000
3001
1000
,
0000
0020
0130
0010
,
0000
0010
0000
0010
,
1000
0010
0000
0100
,
0000
0100
0000
0100
,
0001
0100
0000
0010
,
0000
0010
0000
0010
,
1000
0001
0200
0310
,
0000
1000
0020
0130
,
0000
0110
1001
0000
,
0000
0000
0000
0000
,
0000
0000
1000
0000
,
0010
0000
0001
0000
,
0100
0000
1000
0001
,
1000
1000
1000
0000
0010
0000
0100
0000
,
0010
0010
0010
0000
1000
0000
0100
0000
,
0010
0001
0010
0000
0001
0000
0100
0000
,
0010
1000
1001
0000
,
0000
0010
0010
0010
0110
0000
0000
0000
,
0000
0000
0100
0001
,
0100
0010
1000
0010
,
0100
0001
1000
0001
,
0100
0110
0110
0010
,
1000
0100
0020
0031
,
0000
0200
1300
0000
,
1000
0001
1000
0010
,
0100
0001
0100
0010
,
1000
0001
0010
0100
,
1000
0100
0010
0001
,
1000
0010
0100
0001
,
1000
0010
0110
0100
,
0001
0100
0020
1030
,
0000
0010
0200
0301
,
0000
0100
0010
0000
,
1000
0000
0100
1000
,
0010
0000
0100
0000
,
0001
0000
0010
0001
,
0100
0000
0001
0000
,
1000
0000
0010
0100
,
0010
1000
0002
0103
,
0000
0001
2000
3010
,
0000
1000
0001
2002
,
3003
0000
0000
0000
;

//---------------dance-single - ----------------
#NOTES:
     dance-single:
     :
     Medium:
     11:
     0.460738,0.638022,0.184506,0.258308,0.036901,437.000000,412.000000,25.000000,35.000000,0.000000,0.000000,0.460738,0.638022,0.184506,0.258308,0.036901,437.000000,412.000000,25.000000,35.000000,0.000000,0.000000:
0000
0000
0000
0000
,
0000
0000
0000
0000
,
0000
0000
0000
0000
,
0000
0000
0000
0000
,
0000
0000
1000
0010
,
0100
0000
0001
0000
1000
0000
0010
0020
,
0000
0030
0000
0110
0000
0000
0100
0000
,
0001
0000
1000
0000
0010
0000
0100
0100
,
0000
0010
0000
1000
0001
0000
0100
0000
,
0010
0000
1000
0000
0001
0000
0010
0100
,
0000
0100
0000
1100
0000
0000
1000
0000
,
0010
0000
0100
0000
0001
0000
1000
0010
,
0000
0010
0000
0110
0000
0000
0100
0000
,
0001
0000
1000
0000
0100
0000
0010
0001
,
0000
0001
0000
1001
0000
0000
1000
0000
,
0010
0000
0100
0000
0001
0010
0001
0010
,
0000
0100
1000
0100
0000
1000
0010
0000
,
0100
0000
0001
0000
0010
0000
0100
1000
,
0000
0010
0100
0010
0000
0100
0001
0000
,
1000
0000
0100
0000
0010
0000
0001
0100
,
0000
0010
1000
0010
0000
1000
0001
0000
,
0010
0000
0100
0000
1000
0000
0010
0100
,
0000
0010
1000
0010
0000
0100
0001
0200
,
0000
0000
0000
0310
0000
0100
0001
0100
,
0000
0110
0000
0010
1000
0000
0100
0000
,
0010
0000
0001
0100
0000
0010
1000
0100
,
0000
1000
0001
0000
0010
0000
0100
0000
,
1000
0000
0010
0100
0000
0001
1000
0100
,
0000
0010
0001
0000
0100
0000
0010
0000
,
1000
0000
0001
0010
0000
0100
1000
0010
,
0000
0100
0001
1000
0000
0100
0010
0002
,
0000
0000
0000
0013
0000
0010
0100
1000
,
0000
0010
0100
0010
0220
0000
0000
0000
,
0000
0000
0000
0000
0330
0000
0100
0001
,
0000
0010
0000
0100
2000
0000
3010
0000
,
0002
0000
0013
0100
0000
0010
0100
0000
,
1000
0010
0200
0301
,
0200
1300
0100
0001
,
0010
0100
1000
0100
0010
0000
0001
0000
,
1000
0000
1010
0000
0101
0000
0001
0010
,
0000
0100
0000
2100
0000
0000
3002
0000
,
0000
1003
0010
0200
0000
0000
0301
0010
,
0000
0001
0000
0100
0002
0000
0013
0000
,
2000
0000
3010
0100
0000
0010
0100
0000
,
0001
0010
0200
1300
,
0200
0301
0100
1000
,
0010
0100
0001
0100
0010
0000
1000
0000
,
0001
0000
0011
0000
1100
0000
1000
0010
,
0000
0100
0000
0102
0000
0000
2003
0000
,
0000
3001
0010
0200
0000
0000
1300
0010
,
0000
1000
0000
0100
1000
0000
0010
0000
,
0001
0000
0010
0000
1000
0000
0100
0010
,
0000
0010
0000
0011
0000
0000
0001
0000
,
0100
0000
1000
0000
0100
0000
0001
0010
,
0000
0010
0000
0110
0000
0000
0100
0000
,
1000
0000
0010
0000
0100
0000
0001
1000
,
0000
1000
0000
1010
0000
0000
0101
0000
,
0000
0001
1000
0020
0000
0000
0230
0000
,
0000
0310
1000
0001
1001
0000
1000
0000
,
0100
0010
0001
0100
,
1000
0001
0010
1000
,
0100
0000
0010
0000
0001
0100
0010
1000
,
0010
0000
0100
0000
0002
0000
0000
1003
0000
1000
0100
0000
1000
0000
0001
0000
,
0010
0000
0100
1000
0100
0000
0000
1000
0000
1000
0010
0000
0100
0000
0001
0000
,
1000
0000
0100
0010
0100
0000
0000
0010
0000
0010
0001
0000
0100
0000
0010
0000
,
1000
0000
0001
1000
0001
0000
0000
0000
1000
0000
0010
0000
0001
0000
0000
0000
,
0001
0000
0100
0000
1000
0000
0001
1000
0001
0000
0000
0000
0010
0000
0000
0000
,
1000
0000
0100
0010
0110
0000
0001
0001
,
0000
1000
0010
1000
0100
0000
0010
0000
,
0001
0100
0010
1000
,
0001
0010
0001
0010
0100
1000
0100
0000
,
1000
0000
1010
0000
0101
0000
0001
2000
,
0000
3020
0000
0230
0000
0000
0302
0000
,
0000
0013
0100
2000
0000
0000
3010
0010
,
0000
0100
0001
0100
0010
0000
1000
0000
,
0001
0000
0010
0000
0100
0000
1000
0010
,
0000
0100
0001
0000
0010
0000
0100
0000
,
1000
0000
0001
0000
0100
0000
0010
1000
,
0000
0001
0100
0001
0010
0100
1000
0000
,
0001
0000
0011
0000
1100
0000
1000
0010
,
0000
0100
0001
0100
0020
0000
2030
0000
,
0000
3100
0010
0002
0000
0000
0203
0000
,
0000
1300
0100
0010
0100
0000
0001
0000
,
0010
0000
0100
0000
1000
0000
0010
0100
,
0000
0001
0000
0011
0000
0000
0010
0000
,
0100
0000
1000
0000
0001
0000
0100
0010
,
0000
1000
0000
1100
0000
0000
0100
0000
,
0010
0000
0001
0000
0100
0000
0010
1000
,
0000
1000
0100
0010
0001
0000
0201
0000
,
0000
0310
1000
0200
0000
0000
0310
0001
,
0000
0010
0100
1000
0002
0000
2000
0000
,
3003
0000
0000
0000
;

//---------------dance-double - ----------------
#NOTES:
     dance-double:
     :
     Easy:
     8:
     0.280449,0.369381,0.103323,0.206647,0.000000,266.000000,252.000000,14.000000,28.000000,0.000000,0.000000,0.280449,0.369381,0.103323,0.206647,0.000000,266.000000,252.000000,14.000000,28.000000,0.000000,0.000000:
// measure 0
00000000
00000000
00000000
00000000
,  // measure 1
00000000
00000000
00000000
00000000
,  // measure 2
00000000
00000000
00000000
00000000
,  // measure 3
00000000
00000000
00000000
00000000
,  // measure 4
00000000
00000000
00000000
00000000
,  // measure 5
00000000
00000000
00000000
00000000
,  // measure 6
00000000
00000000
00000000
00000000
,  // measure 7
00000000
00000000
00000000
00000000
,  // measure 8
00000000
00000000
00001000
00000000
,  // measure 9
00010000
00000000
00001000
00100000
,  // measure 10
00001000
00000000
00010000
00000000
,  // measure 11
00001000
00000000
00010000
00000010
,  // measure 12
00010000
00000000
00001000
00000000
,  // measure 13
00010000
00000000
00001000
01000000
,  // measure 14
00001000
00000000
00010000
00000000
,  // measure 15
00001000
00000000
00010000
00000100
,  // measure 16
00010000
00000000
00001000
00010000
,  // measure 17
00100000
01000000
00001000
00010000
,  // measure 18
00001000
00000000
00010000
00001000
,  // measure 19
00000100
00000010
00010000
00001000
,  // measure 20
00010000
00000000
00001000
00010000
,  // measure 21
01000000
10000000
00100000
00010000
,  // measure 22
00100000
00000000
01000000
00100000
,  // measure 23
00020000
00030000
00100000
00010000
,  // measure 24
00002000
00003000
00010000
00001000
,  // measure 25
00000010
00000100
00010000
00001000
,  // measure 26
00010000
00000000
00001000
00010000
,  // measure 27
01000000
00100000
00001000
00010000
,  // measure 28
00001000
00000000
00010000
00001000
,  // measure 29
00000100
00000001
00000010
00001000
,  // measure 30
00010000
00000000
00000100
00000010
,  // measure 31
00002000
00003000
00000010
00001000
,  // measure 32
00020000
00030000
00011000
00000000
,  // measure 33
00000000
00000000
00000000
00000000
,  // measure 34
00000000
00000000
00002000
00000000
,  // measure 35
02003000
00000000
03002000
00013000
,  // measure 36
00001000
00011000
00020000
00000000
,  // measure 37
00030020
00000000
00020030
00030000
,  // measure 38
00001000
00001000
00010000
00100000
,  // measure 39
10000000
01000000
00010000
00000000
,  // measure 40
01000000
00010000
00001000
00011000
,  // measure 41
00000000
00000200
00000310
00000001
,  // measure 42
00000100
00001000
00020000
00000000
,  // measure 43
00030200
00000000
00020300
00031000
,  // measure 44
00010000
00011000
00002000
00000000
,  // measure 45
00203000
00000000
00302000
00003000
,  // measure 46
00010000
00010000
00001000
00000010
,  // measure 47
00000001
00000100
00001000
00000000
,  // measure 48
00000100
00001000
00010000
00011000
,  // measure 49
00000000
02000000
03100000
10000000
,  // measure 50
01000000
00010000
00001000
00100000
,  // measure 51
00000000
01000000
00000000
00100000
,  // measure 52
00001000
00010000
00000000
00000100
,  // measure 53
00000000
00000010
00000000
00000100
,  // measure 54
00010000
00001000
00000000
00100000
,  // measure 55
00000000
01000000
00000000
00100000
,  // measure 56
00001000
00010000
00000200
00000310
,  // measure 57
00000000
00001000
00200000
01300000
,  // measure 58
00000000
00010000
00011000
00000000
,  // measure 59
00000000
00000000
00000000
00000000
,  // measure 60
00000000
00000000
00001000
00000000
,  // measure 61
00000100
00000000
00001000
00000000
,  // measure 62
00010000
00000000
01000000
00010000
,  // measure 63
00001000
00000010
00001000
00000000
00010000
00000000
00001000
00000000
,  // measure 64
00010000
00100000
00010000
00000000
00001000
00000000
00010000
00000000
,  // measure 65
00001000
00000100
00000001
00000000
00000010
00000000
00001000
00000000
,  // measure 66
00010000
00001000
00011000
00000000
,  // measure 67
00000000
01000000
00001000
00010000
00011000
00000000
00000000
00000000
,  // measure 68
00000000
00000000
00001000
00100000
,  // measure 69
00010000
01000000
00100000
10000000
,  // measure 70
01000000
00100000
00010000
01000000
,  // measure 71
00001000
00010000
00011000
00001000
,  // measure 72
00000100
00000001
00000020
00000130
,  // measure 73
00000000
00002000
00003001
00000000
,  // measure 74
00000001
00000100
00001000
00010000
,  // measure 75
00000010
00010000
00001000
00100000
,  // measure 76
00001000
00010000
00000100
00010000
,  // measure 77
00001000
01000000
00001000
00010000
,  // measure 78
00100000
10000000
01000000
00100000
,  // measure 79
00001000
00010000
00011000
00000100
,  // measure 80
00000010
00000001
00000200
00001300
,  // measure 81
00000000
00010000
00200000
10300000
,  // measure 82
00000000
10000000
11000000
00000000
,  // measure 83
00010000
00000000
01000000
00010000
,  // measure 84
00001000
00000000
00000011
00000000
,  // measure 85
00001000
00000000
00000010
00001000
,  // measure 86
00010000
00000000
10100000
00000000
,  // measure 87
00010000
00000000
00100000
00010000
,  // measure 88
00001000
00000100
00000020
00001030
,  // measure 89
00000000
00100000
02000000
03010000
,  // measure 90
00000000
00001000
00010000
00022000
,  // measure 91
00033000
00000000
00000000
00000000
;

//---------------dance-double - ----------------
#NOTES:
     dance-double:
     :
     Medium:
     11:
     0.445977,0.570861,0.132844,0.302590,0.025831,423.000000,405.000000,18.000000,41.000000,0.000000,0.000000,0.445977,0.570861,0.132844,0.302590,0.025831,423.000000,405.000000,18.000000,41.000000,0.000000,0.000000:
// measure 0
00000000
00000000
00000000
00000000
,  // measure 1
00000000
00000000
00000000
00000000
,  // measure 2
00000000
00000000
00000000
00000000
,  // measure 3
00000000
00000000
00000000
00000000
,  // measure 4
00000000
00000000
10000000
01000000
,  // measure 5
00010000
00000000
00001000
00000000
00000010
00000000
00000001
00000002
,  // measure 6
00000000
00000003
00000000
00000101
00000000
00000000
00000100
00000000
,  // measure 7
00001000
00000000
00010000
00000000
00001000
00000000
00000100
00001000
,  // measure 8
00000000
00010000
00000000
00001000
01000000
00000000
00010000
00000000
,  // measure 9
00100000
00000000
01000000
00000000
10000000
00000000
00100000
00010000
,  // measure 10
00000000
00001000
00000000
00010000
00000000
00000000
00000100
00000000
,  // measure 11
00001000
00000000
00000010
00000000
00000100
00000000
00000001
00001000
,  // measure 12
00000000
00000100
00000000
00000010
00000000
00000000
00000100
00000000
,  // measure 13
00000001
00000000
00000100
00000000
00001000
00000000
00000010
00010000
,  // measure 14
00000000
00001000
00000000
00010000
00000000
00000000
00100000
00000000
,  // measure 15
10000000
00000000
01000000
00000000
00100000
00001000
00100000
00001000
,  // measure 16
00000000
00010000
00000010
00010000
00000000
00001000
00010000
00000000
,  // measure 17
00000100
00000000
00001000
00000000
00000100
00000000
00000010
00000001
,  // measure 18
00000000
00000100
00000010
00000100
00000000
00000010
00010000
00000000
,  // measure 19
00001000
00000000
00100000
00000000
01000000
00000000
10000000
00100000
,  // measure 20
00000000
01000000
00100000
01000000
00000000
00010000
00100000
00000000
,  // measure 21
01000000
00000000
10000000
00000000
00100000
00000000
00010000
00001000
,  // measure 22
00000000
00010000
00000100
00010000
00000000
00000100
00001000
00000200
,  // measure 23
00000000
00000000
00000000
00000310
00000000
00000010
00000001
00000100
,  // measure 24
00000000
00000110
00000000
00000010
00010000
00000000
00001000
00000000
,  // measure 25
00100000
00000000
01000000
10000000
00000000
00100000
01000000
00010000
,  // measure 26
00000000
10000000
00100000
00000000
00010000
00000000
00001000
00000000
,  // measure 27
00000100
00000000
00000001
00001000
00000000
00000100
00000010
00000001
,  // measure 28
00000000
00000100
00001000
00000000
00010000
00000000
00100000
00000000
,  // measure 29
10000000
00000000
01000000
00100000
00000000
01000000
00010000
00001000
,  // measure 30
00000000
00010000
00000100
00001000
00000000
00000100
00000010
00000002
,  // measure 31
00000000
00000000
00000000
00000103
00000000
00000100
00001000
00010000
,  // measure 32
00000000
00001000
00010000
00100000
02200000
00000000
00000000
00000000
,  // measure 33
00000000
00000000
00000000
00000000
03300000
00000000
10000000
01000000
,  // measure 34
00000000
00100000
00000000
00010000
02000000
00000000
03002000
00000000
,  // measure 35
00023000
00000000
00030100
00000010
00000000
00000010
00000100
00000000
,  // measure 36
00001000
00000010
00000200
00000302
,  // measure 37
00000023
00001030
00010000
00001000
,  // measure 38
00100000
01000000
00100000
01000000
00100000
00000000
00010000
00000000
,  // measure 39
10000000
00000000
00100000
00000000
01100000
00000000
01000000
00010000
,  // measure 40
00000000
00100000
00000000
00120000
00000000
00000000
02030000
00000000
,  // measure 41
00000000
03001000
00010000
00000200
00000000
00000000
00000310
00000010
,  // measure 42
00000000
00000001
00000000
00000010
00000200
00000000
00020300
00000000
,  // measure 43
00032000
00000000
01003000
00100000
00000000
00100000
01000000
00000000
,  // measure 44
00010000
00100000
02000000
23000000
,  // measure 45
30200000
00310000
00001000
00010000
,  // measure 46
00000010
00000100
00000010
00000100
00000010
00000000
00001000
00000000
,  // measure 47
00000001
00000000
00000010
00000000
00000110
00000000
00000100
00001000
,  // measure 48
00000000
00000100
00000000
00002010
00000000
00000000
00003200
00000000
,  // measure 49
00000000
00010300
00001000
02000000
00000000
00000000
03100000
00100000
,  // measure 50
00000000
10000000
00000000
00100000
10000000
00000000
01000000
00000000
,  // measure 51
00010000
00000000
00001000
00000000
00100000
00000000
01000000
00010000
,  // measure 52
00000000
00001000
00000000
00011000
00000000
00000000
00010000
00000000
,  // measure 53
00000100
00000000
00000010
00000000
00001000
00000000
00010000
00000100
,  // measure 54
00000000
00000010
00000000
00000110
00000000
00000000
00000001
00000000
,  // measure 55
00000100
00000000
00001000
00000000
00010000
00000000
00100000
10000000
,  // measure 56
00000000
01000000
00000000
11000000
00000000
00000000
01010000
00000000
,  // measure 57
00000000
00010000
00001000
00020000
00000000
00000000
00030200
00000000
,  // measure 58
00000000
00001300
00000001
00001000
00001001
00000000
00000001
00000000
,  // measure 59
00000100
00000010
00001000
00010000
,  // measure 60
00100000
01000000
10000000
00100000
,  // measure 61
01000000
00010000
00001000
00000100
,  // measure 62
00000010
00000000
00000000
00000000
00000002
00000000
00000000
00001003
00000000
00001000
00000010
00000000
00010000
00000000
00001000
00000000
,  // measure 63
00100000
00000000
01000000
00000000
10000000
00000000
00000000
00100000
00000000
00100000
01000000
00000000
00001000
00000000
00010000
00000000
,  // measure 64
00000100
00000000
00000010
00000000
00000001
00000000
00000000
00000100
00000000
00000100
00001000
00000000
00010000
00000000
00100000
00000000
,  // measure 65
10000000
01000000
00100000
00000000
01000000
00010000
00001000
00000000
,  // measure 66
00010000
00000000
00001000
00000000
00000100
00000000
00000001
00001000
00000001
00000000
00000000
00000000
00000010
00000000
00000000
00000000
,  // measure 67
00001000
00000000
00010000
00001000
00011000
00000000
00100000
00100000
,  // measure 68
00000000
00010000
01000000
00010000
10000000
00000000
00100000
00000000
,  // measure 69
00010000
01000000
10000000
00100000
,  // measure 70
01000000
00001000
00010000
00001000
00010000
00000100
00001000
00000000
,  // measure 71
00000001
00000000
00000100
00000000
00000110
00000000
00001000
00000002
,  // measure 72
00000000
00000203
00000000
00002300
00000000
00000000
00023000
00000000
,  // measure 73
00000000
00030100
00001000
00000020
00000000
00000000
00010030
00010000
,  // measure 74
00000000
00001000
00010000
00100000
01000000
00000000
00100000
00000000
,  // measure 75
10000000
00000000
01000000
00000000
00010000
00000000
00000010
00000010
,  // measure 76
00000000
00001000
00000100
00001000
00000001
00000000
00000010
00000000
,  // measure 77
00001000
00000100
00000001
00000010
,  // measure 78
00000100
00010000
00001000
00010000
00001000
01000000
00010000
00000000
,  // measure 79
10000000
00000000
01000000
00000000
01100000
00000000
00010000
20000000
,  // measure 80
00000000
32000000
00000000
03020000
00000000
00000000
00032000
00000000
,  // measure 81
00000000
00103000
00010000
02000000
00000000
00000000
03002000
00000000
,  // measure 82
00000000
00013000
00000100
00000010
00000100
00000000
00001000
00000000
,  // measure 83
00000010
00000000
00000100
00000000
00000001
00000000
00000010
00001000
,  // measure 84
00000000
00010000
00000000
00011000
00000000
00000000
00100000
00000000
,  // measure 85
01000000
00000000
10000000
00000000
00100000
00000000
00010000
00001000
,  // measure 86
00000000
00000100
00000000
00000101
00000000
00000000
00000010
00000000
,  // measure 87
00010000
00000000
00001000
00000000
00100000
00000000
01000000
10000000
,  // measure 88
00000000
10000000
00100000
01000000
00010000
00000000
00210000
00000000
,  // measure 89
00000000
00301000
00010000
00000200
00000000
00000000
00001300
00000010
,  // measure 90
00000000
00001000
00000001
00000100
00002000
00000000
00020000
00000000
,  // measure 91
00033000
00000000
00000000
00000000
;
