#VERSION:0.83;
#TITLE:CODE:0;
#SUBTITLE:;
#ARTIST:BEMANI Sound Team "HEXA";
#TITLETRANSLIT:;
#SUBTITLETRANSLIT:;
#ARTISTTRANSLIT:;
#GENRE:VARIETY;
#ORIGIN:;
#CREDIT:MILEN;
#BANNER:CODE 0.png;
#BACKGROUND:CODE 0-bg.png;
#JACKET:CODE 0-jacket.png;
#CDIMAGE:;
#DISCIMAGE:;
#LYRICSPATH:;
#CDTITLE:;
#MUSIC:CODE 0.mp3;
#OFFSET:-0.120000;
#SAMPLESTART:70.200005;
#SAMPLELENGTH:12.480003;
#SELECTABLE:YES;
#DISPLAYBPM:125.000000:250.000000;
#BPMS:0.000=125.000,
13.000=250.000,
149.500=125.000,
211.500=250.000;
#STOPS:0.000=0.240,
85.000=0.120,
188.750=0.240,
196.250=0.240,
199.750=0.240,
203.250=0.240,
305.000=0.120,
346.000=0.120,
376.000=0.480;
#DELAYS:;
#WARPS:;
#TIMESIGNATURES:0.000=4=4;
#TICKCOUNTS:0.000=4;
#COMBOS:0.000=1;
#SPEEDS:0.000=1.000=0.000=0;
#SCROLLS:0.000=1.000;
#FAKES:;
#LABELS:0.000=Song Start;
#BGCHANGES:0.000=CODE 0.avi=1.000=0=0=0=StretchNoLoop====,
99999=-nosongbg-=1.000=0=0=0 // don't automatically add -songbackground-
;
#KEYSOUNDS:;
#ATTACKS:
;

//---------------dance-single - ----------------
#NOTEDATA:;
#CHARTNAME:;
#STEPSTYPE:dance-single;
#DESCRIPTION:;
#CHARTSTYLE:;
#DIFFICULTY:Hard;
#METER:16;
#RADARVALUES:0.800151,1.140985,0.263673,0.087891,0.191762,701.000000,668.000000,33.000000,11.000000,0.000000,0.000000,0.000000,0.000000,0.000000,0.800151,1.140985,0.263673,0.087891,0.191762,701.000000,668.000000,33.000000,11.000000,0.000000,0.000000,0.000000,0.000000,0.000000;
#CREDIT:MILEN;
#DISPLAYBPM:250.000000;
#NOTES:
0000
0000
0000
0000
,
0000
0000
0000
0000
,
0000
0000
0000
0000
,
0001
0010
0100
1000
0001
0000
0100
0000
0001
0000
0000
0000
1000
0000
0010
0000
,
1000
0000
0001
0010
0001
0000
1000
0100
,
2000
3002
0103
0010
,
1000
0100
0000
1000
0000
0001
0100
0001
,
0100
0010
1000
0001
,
0010
0001
0000
0100
0000
0010
1000
0010
,
1000
0100
0010
0001
,
0100
0010
0000
1000
0000
0001
0010
0001
,
0010
0100
1000
0010
,
0100
0001
0000
1000
0000
0010
0100
0010
,
0100
0000
0010
1000
0001
0000
0100
0000
,
0010
1000
0000
0001
0010
0001
0010
0100
,
0010
0001
0100
0000
0010
0000
1000
0000
,
0001
0100
0000
0010
1000
0010
1000
0010
,
0100
0001
1000
0000
0100
0000
0010
0000
,
0001
0100
0000
0010
0100
0001
0100
0001
,
1000
0100
0010
0000
0001
0000
0100
0000
,
0010
1000
0000
0001
0010
0001
0010
0100
,
1000
0010
0100
0100
0000
0101
0000
0011
,
0000
0010
0100
0010
0100
1000
0010
0000
,
0100
0001
1000
0000
0010
0010
1000
0100
,
0010
0000
0001
0001
0000
0100
0010
1000
,
0010
0100
0001
0100
0001
0010
0100
1000
,
0010
0000
0110
0000
0101
0000
0001
1000
,
0100
0010
0100
0000
1100
0000
1000
0010
,
0100
1000
0100
0001
0010
0100
0000
0010
,
0100
1000
1001
0000
0010
0010
0000
1000
,
0100
0001
0100
0010
0001
0000
0001
0100
,
0010
1000
0010
0100
0100
0000
1000
0100
,
0001
0100
0010
0000
1010
0000
1000
0100
,
0010
0001
0100
0000
1000
0100
0001
0010
,
0100
0100
1000
0000
0110
0000
0001
0010
,
0010
0100
1000
0020
0000
0130
0001
0020
,
0000
0130
1000
0010
0010
0100
0001
1000
,
0100
0010
0001
2001
0000
0010
0010
0000
,
0010
0000
0000
3010
0000
0000
1002
0000
0000
0000
0000
0000
0100
0000
0000
0000
,
0000
0000
0000
0100
0000
0000
0100
0000
0000
0000
0003
0000
0100
0010
0100
0000
,
0010
0000
0000
1010
0000
0000
1100
0000
0000
0000
0100
0000
0010
0001
0010
0000
,
0001
0000
0000
0101
0000
0000
0110
0000
0000
0000
0010
0000
1000
0100
1000
0100
,
0010
0000
0000
0011
0000
0000
0101
0000
0000
0000
0100
0000
0010
1000
0010
1000
,
0001
0000
0000
0101
0000
0000
0110
0000
0000
0000
0010
0000
1000
0100
0010
0001
,
0010
0000
0100
0010
0000
0100
1000
0000
0000
0000
0100
0000
1000
0010
0100
0001
,
1000
0000
0100
0010
0000
0001
0100
0010
0100
0000
0010
0000
1000
0000
0100
0010
,
0100
0000
0010
0000
0001
0000
0100
0010
0100
0000
0010
0000
1000
0000
0100
0010
,
0100
0010
0001
0100
0100
0010
1000
0000
0010
0000
0100
0000
0010
0100
0001
0000
,
0100
0000
0010
0000
0100
0010
1000
0000
0010
0000
0100
0000
0010
0100
0001
1000
,
0100
0010
0010
0001
0010
0000
0100
0000
1000
0000
0010
0100
0001
0010
0100
1000
,
1000
0010
0100
0000
0001
0000
1000
0000
0010
0100
0001
1000
0100
0010
0010
0001
,
0100
0010
1000
0000
1001
0000
1001
0000
0001
0000
0100
0000
0010
1000
0100
0000
,
0010
0001
0100
0000
0010
1000
0100
0000
0010
0001
0200
0000
0320
0000
1030
0000
,
0100
0010
0000
0100
0001
0000
0100
1000
,
0100
0010
0001
0100
0010
1000
0001
0010
,
0100
0000
1000
0010
0000
0001
0010
0100
,
0001
0010
0100
0010
0000
0110
0000
0001
,
0010
0100
0000
0010
1000
0000
0010
0001
,
0010
0100
1000
0010
0100
0001
1000
0100
,
0010
0000
0001
0100
0000
1000
0100
0010
,
1000
0100
0010
0100
0000
0110
0000
1000
,
0010
0001
0000
0010
0100
0000
1000
0100
,
0001
0010
0100
0001
0100
0010
0001
0100
,
0010
0000
0001
0010
0000
1000
0100
0001
,
0100
0010
0001
0100
0000
1001
0000
0001
,
0010
1000
0000
0010
0100
0000
0001
0100
,
1000
0010
0100
1000
0100
0010
1000
0100
,
0010
0000
1000
0010
0000
0001
0100
1000
,
0100
0010
1000
0100
0000
1001
0000
0001
,
0100
0010
0000
0001
0010
0100
0000
0001
,
0100
0010
0000
0001
0010
0100
0000
0010
,
1000
0100
0000
0010
0100
1000
0000
0010
,
1000
0100
0010
1000
0010
0002
0000
1003
,
0100
0010
0000
0100
1000
0010
0000
1000
,
0100
0010
0000
0100
1000
0010
0000
0100
,
0001
0010
0000
0100
0010
0001
0000
0100
,
1000
0100
0010
0010
1000
0100
0010
0001
,
0100
0000
0001
0010
0100
0000
0010
0001
,
0100
0000
0001
0010
0100
0000
1000
0010
,
0100
0000
1000
0100
0010
0000
1000
0010
,
0100
1000
0100
0001
0020
0000
0130
1000
,
0010
0000
0001
0010
0100
0000
0010
1000
,
0100
0000
0001
0100
1000
0000
0010
0001
,
0010
0100
0010
1000
0100
0010
0100
0001
,
0100
0010
0001
1000
0010
0100
0002
0000
,
0000
0000
0000
0000
,
0000
0000
1000
0000
1003
1000
0100
0010
,
0000
0101
0000
1000
0010
0001
0010
0100
,
0001
0010
0100
0001
0000
0001
0100
0000
,
0100
1000
0000
1000
0010
0000
0010
0001
,
0000
0001
0010
0100
0001
0010
0100
1000
,
0000
0110
0000
0001
0100
1000
0100
0010
,
1000
0100
0010
0001
0001
0100
0010
1000
,
0001
0010
0010
0100
1000
0010
0010
0100
,
0110
0001
0010
0100
0000
1010
0000
1000
,
0010
0100
1000
0100
0001
0010
0100
0001
,
0000
0100
1000
0010
0000
0101
0000
0001
,
0100
0010
0001
0010
1000
0100
0010
0001
,
0000
0011
0000
0010
0100
0000
0100
1000
,
0010
0110
0000
0100
0001
0000
0001
0010
,
0100
0110
0010
0100
1000
1000
0100
0010
,
0001
0100
0100
0010
0010
1000
1000
0001
,
1001
0000
0000
0000
;

//---------------dance-double - ----------------
#NOTEDATA:;
#CHARTNAME:;
#STEPSTYPE:dance-double;
#DESCRIPTION:;
#CHARTSTYLE:;
#DIFFICULTY:Hard;
#METER:17;
#RADARVALUES:0.803575,1.140985,0.303623,0.143822,0.183772,704.000000,666.000000,38.000000,18.000000,0.000000,0.000000,0.000000,0.000000,0.000000,0.803575,1.140985,0.303623,0.143822,0.183772,704.000000,666.000000,38.000000,18.000000,0.000000,0.000000,0.000000,0.000000,0.000000;
#CREDIT:MILEN;
#DISPLAYBPM:250.000000;
#NOTES:
00000000
00000000
00000000
00000000
,
00000000
00000000
00000000
00000000
,
00000000
00000000
00000000
00000000
,
00010000
00010000
00001000
01000000
00001000
00000000
00010000
00000100
,
00010000
00000000
00001000
00100000
00001000
00000000
00010000
00000010
,
00020000
00032000
01003000
01000000
,
00100000
10000000
00000000
01000000
00000000
00100000
00001000
00010000
,
00000100
00001000
00000010
00000100
,
00000001
00001000
00000000
00000100
00000000
00010000
00001000
00100000
,
00010000
01000000
00100000
10000000
,
00010000
01000000
00000000
00001000
00000000
00010000
00000100
00000010
,
00000001
00001000
00000010
00010000
,
00001000
00100000
00000000
01000000
00000000
10000000
00100000
01000000
,
00010000
00000000
00100000
01000000
00010000
00000000
00001000
00000000
,
00000010
00000001
00000000
00000100
00000010
00001000
00000010
00000100
,
00000001
00000010
00001000
00000000
00010000
00000000
01000000
00000000
,
10000000
00100000
00000000
01000000
00010000
01000000
00100000
10000000
,
01000000
00010000
00001000
00000000
00000010
00000000
00000001
00000000
,
00001000
00000100
00000000
00010000
00001000
00000010
00001000
00010000
,
00100000
01000000
00010000
00000000
10000000
00000000
01000000
00000000
,
00100000
00001000
00000000
00010000
00100000
00010000
00001000
00000010
,
00000001
00000100
00000020
00001030
00000000
00001100
00000000
00010100
,
00000000
00010000
00001000
00100000
01000000
10000000
00100000
00000000
,
00010000
00100000
10000000
00000000
01000000
00100000
00010000
01000000
,
00001000
00000000
00010000
00000100
00000000
00001000
00000100
00000010
,
00000001
00000100
00001000
00000100
00000010
00010000
00001000
00100000
,
01000000
00000000
11000000
00000000
10100000
00000000
00100000
00010000
,
00001000
00010000
01000000
00000000
01100000
00000000
00100000
00001000
,
00010000
01000000
00010000
00001000
00000100
00000001
00000000
00000010
,
00000100
00001000
00001001
00000000
00000001
00000010
00000000
00001000
,
00010000
00001000
00000100
00010000
01000000
00000000
00100000
10000000
,
01000000
00010000
00001000
00100000
01000000
00000000
00010000
00001000
,
00000010
00000001
00000100
00000000
00001010
00000000
00001000
00000100
,
00000010
00000001
00000100
00000000
00001000
00010000
00100000
10000000
,
01000000
00100000
00010000
00000000
01010000
00000000
01000000
00001000
,
00010000
00001000
00000100
00000002
00000000
00001003
00000010
00000002
,
00000000
00001003
00000100
00000010
00010000
00001000
01000000
00100000
,
00010000
00001000
00010000
00012000
00000000
01000000
01000000
00000000
,
01000000
00000000
00000000
01003000
00000000
00000000
00020100
00000000
00000000
00000000
00000000
00000000
00000100
00000000
00000000
00000000
,
00000000
00000000
00000000
00000100
00000000
00000000
00000100
00000000
00000000
00000000
00030000
00000000
00001000
00100000
00001000
00000000
,
00100000
00000000
00000000
00110000
00000000
00000000
01010000
00000000
00000000
00000000
01000000
00000000
00100000
10000000
00100000
00000000
,
10000000
00000000
00000000
11000000
00000000
00000000
01100000
00000000
00000000
00000000
00100000
00000000
00001000
00010000
00001000
00010000
,
00000100
00000000
00000000
00000110
00000000
00000000
00000011
00000000
00000000
00000000
00000001
00000000
00000100
00001000
00000100
00001000
,
00010000
00000000
00000000
00010100
00000000
00000000
01001000
00000000
00000000
00000000
01000000
00000000
00100000
10000000
00100000
01000000
,
00010000
00000000
00100000
01000000
00000000
00010000
00001000
00000000
00000000
00000000
00010000
00000000
00001000
00000100
00000001
00000100
,
00000010
00000000
00001000
00000010
00000000
00010000
00001000
00100000
01000000
00000000
00100000
00000000
00001000
00000000
00010000
00000100
,
00000010
00000000
00000100
00000000
00010000
00000000
00001000
01000000
00100000
00000000
01000000
00000000
00001000
00000000
00010000
00000010
,
00000100
00000010
00000100
00000002
00000013
00000010
00001000
00000000
00010000
00000000
00001000
00000000
00010000
00100000
10000000
00000000
,
01000000
00000000
00010000
00000000
00001000
00000100
00000001
00000000
00000010
00000000
00001000
00000000
00010000
01000000
10000000
00100000
,
01000000
00020000
10030000
10000000
01000000
00000000
00010000
00000000
00001000
00000000
00000010
00000001
00000100
00000010
00001000
00000200
,
00000310
00000010
00000001
00000000
00000100
00000000
00001000
00000000
00010000
00100000
01000000
00010000
00100000
02000000
13000000
10000000
,
00100000
00010000
00001000
00000000
00101000
00000000
00010010
00000000
00010000
00000000
00001000
00000000
00000100
00000001
00000010
00000000
,
00000100
00001000
00010000
00000000
00001000
00010000
00100000
00000000
01000000
10000000
00200000
00000000
02300000
00000000
03010000
00000000
,
01000000
10000000
00000000
01000000
00100000
00000000
10000000
01000000
,
00100000
00001000
00010000
00100000
00001000
00000010
00000100
00000001
,
00000010
00000000
00001000
00000010
00000000
00000001
00000100
00001000
,
00000100
00000010
00010000
00001000
00000000
00011000
00000000
00010000
,
00100000
10000000
00000000
01000000
00010000
00000000
01000000
00100000
,
00010000
01000000
00001000
00010000
00000100
00000010
00000001
00001000
,
00000010
00000000
00000001
00000010
00000000
00001000
00000100
00000010
,
00001000
00100000
00010000
01000000
00000000
10100000
00000000
10000000
,
00100000
00010000
00000000
00100000
01000000
00000000
10000000
01000000
,
00010000
00100000
01000000
00010000
00001000
00000010
00000001
00000100
,
00001000
00000000
00010000
00100000
00000000
10000000
01000000
00010000
,
01000000
00100000
00010000
00001000
00000000
00001010
00000000
00000100
,
00000001
00000010
00000000
00001000
00010000
00000000
01000000
00100000
,
00010000
01000000
10000000
01000000
00100000
00010000
00001000
00100000
,
01000000
00000000
00010000
00001000
00000000
00000010
00000001
00000010
,
00000100
00001000
00010000
01000000
00000000
10100000
00000000
10000000
,
01000000
00010000
00000000
00001000
00000010
00000001
00000000
00000001
,
00000100
00001000
00000000
00010000
00100000
10000000
00000000
10000000
,
01000000
00010000
00000000
00001000
00000010
00000001
00000000
00000001
,
00000100
00001000
00010000
00001000
00010000
00200000
00000000
10300000
,
01000000
00010000
00000000
00001000
00000100
00000001
00000000
00000001
,
00000010
00001000
00000000
00010000
00100000
10000000
00000000
10000000
,
01000000
00010000
00000000
00001000
00000010
00000001
00000000
00000100
,
00001000
00010000
00200000
10300000
10000000
01000000
00100000
00010000
,
00001000
00000000
00000010
00001000
00010000
00000000
01000000
00010000
,
00001000
00000000
00000100
00001000
00010000
00000000
00100000
10000000
,
01000000
00000000
00010000
00001000
00000010
00000000
00000001
00000100
,
00001000
00010000
00100000
10000000
02000000
00000000
03100000
00010000
,
00001000
00000000
00000010
00001000
00010000
00000000
01000000
00010000
,
00001000
00000000
00000100
00001000
00010000
00000000
00100000
01000000
,
10000000
01000000
00010000
00001000
00000010
00000001
00000010
00000100
,
00010000
00001000
00100000
01000000
10000000
00100000
00020000
00000000
,
00000000
00000000
00000000
00000000
,
00000000
00000000
00001000
00000000
00032000
00013000
00001000
00000100
,
00000000
00000011
00000000
00000010
00001000
00000100
00000001
00000100
,
00000010
00000001
00000100
00001000
00000000
00001000
00011000
00000000
,
00010000
01010000
00000000
01000000
11000000
00000000
10000000
10100000
,
00000000
00100000
01000000
00010000
01000000
10000000
01000000
00100000
,
00000000
00110000
00000000
00010000
00001000
00000010
00000001
00000010
,
00000100
00001000
00000100
00000010
00000001
00000100
00000100
00001000
,
00001000
00010000
00100000
10000000
10000000
01000000
00100000
00010000
,
00011000
00001000
00000010
00000001
00000000
00001100
00000000
00000001
,
00000100
00001000
00010000
00000100
00000010
00001000
00010000
01000000
,
00000000
10000000
00100000
00010000
00000000
11000000
00000000
00010000
,
00100000
10000000
01000000
00100000
00010000
00001000
00000010
00000100
,
00000000
00001001
00000000
00000010
00000110
00000000
00001000
00000100
,
00010000
00011000
00000000
01000000
01010000
00000000
00100000
10000000
,
01000000
01000000
00100000
00001000
00010000
00010000
00000100
00000010
,
00000001
00000001
00000100
00000100
00001000
00001000
00010000
00010000
,
00011000
00000000
00000000
00000000
;

//---------------dance-single - ----------------
#NOTEDATA:;
#CHARTNAME:;
#STEPSTYPE:dance-single;
#DESCRIPTION:;
#CHARTSTYLE:;
#DIFFICULTY:Beginner;
#METER:6;
#RADARVALUES:0.222581,0.366296,0.063921,0.007990,0.000000,195.000000,187.000000,8.000000,1.000000,0.000000,0.000000,0.000000,0.000000,0.000000,0.222581,0.366296,0.063921,0.007990,0.000000,195.000000,187.000000,8.000000,1.000000,0.000000,0.000000,0.000000,0.000000,0.000000;
#CREDIT:MILEN;
#DISPLAYBPM:250.000000;
#NOTES:
// measure 0
0000
0000
0000
0000
,  // measure 1
0000
0000
0000
0000
,  // measure 2
0000
0000
0000
0000
,  // measure 3
0000
0000
1000
0000
,  // measure 4
1000
0000
1000
0000
,  // measure 5
1000
0000
1000
0000
,  // measure 6
0000
0000
0100
0000
,  // measure 7
0000
0000
0010
0000
,  // measure 8
0000
0000
0001
0000
,  // measure 9
0000
0000
1000
0000
,  // measure 10
0000
0000
0100
0000
,  // measure 11
0000
0000
0010
0000
,  // measure 12
0000
0000
0001
0000
,  // measure 13
0000
0000
0100
0000
,  // measure 14
0000
0000
0010
0000
,  // measure 15
0000
0000
1000
0000
,  // measure 16
0000
0000
0001
0000
,  // measure 17
0000
0000
0100
0000
,  // measure 18
0000
0000
0010
0000
,  // measure 19
0000
0000
1000
0000
,  // measure 20
0000
0000
0001
0000
,  // measure 21
0000
0000
0100
0100
0000
0000
0000
0100
,  // measure 22
0000
0000
0000
0100
0000
0000
0000
0000
,  // measure 23
0000
0000
0000
0010
0000
0000
0000
0010
,  // measure 24
0000
0000
0000
0010
0000
0000
0000
0000
,  // measure 25
0000
0000
0000
1000
0000
0000
0000
1000
,  // measure 26
0000
0000
0000
1000
0000
0000
0000
0000
,  // measure 27
0000
0000
0000
0001
0000
0000
0000
0001
,  // measure 28
0000
0000
0000
0001
0000
0000
0000
0000
,  // measure 29
0000
0000
0000
0010
0000
0000
0000
0010
,  // measure 30
0000
0000
0000
0010
0000
0000
0000
0000
,  // measure 31
0000
0000
0000
0100
0000
0000
0000
0100
,  // measure 32
0000
0000
0000
0100
0000
0000
0000
0000
,  // measure 33
0000
0000
0000
1000
0000
0000
0000
1000
,  // measure 34
0000
0000
0000
1000
0000
0000
0000
0000
,  // measure 35
0000
0000
0000
0010
0000
0000
0000
0010
,  // measure 36
0000
0000
0000
0100
0000
0000
0000
0100
,  // measure 37
0000
0000
0000
0110
0000
0000
0000
1000
,  // measure 38
0000
0000
0000
0110
0000
0000
0000
0001
,  // measure 39
0000
0000
0000
0110
0000
0000
0000
1000
,  // measure 40
0000
0000
0000
0110
0000
0000
0000
0001
,  // measure 41
0000
0000
0000
1000
0000
1000
0000
0100
,  // measure 42
0000
0000
0000
0001
0000
0001
0000
0010
,  // measure 43
0000
0000
0000
1000
0000
1000
0000
0010
,  // measure 44
0000
0000
0000
0001
0000
0001
0000
0100
,  // measure 45
0000
0000
0000
1000
0000
0000
0000
0001
,  // measure 46
0000
0000
0000
1000
0000
0000
0000
0001
,  // measure 47
0000
0100
0000
0010
,  // measure 48
0000
0100
0000
0010
,  // measure 49
0000
1000
0000
0000
0000
0001
0000
0000
,  // measure 50
0100
0000
0000
0000
0010
0000
0000
1000
,  // measure 51
0000
1000
0000
0100
0000
0100
0000
0010
,  // measure 52
0000
0010
0000
0001
0000
0001
0000
0100
,  // measure 53
0000
0000
0000
0010
0000
0000
0000
1000
,  // measure 54
0000
0000
0000
0001
0000
0000
0000
0010
,  // measure 55
0000
0000
0000
0100
0000
0000
0000
1000
,  // measure 56
0000
0000
0000
0010
0000
0000
0000
0100
,  // measure 57
0000
0000
0000
0001
0000
0000
0000
1000
,  // measure 58
0000
0000
0000
0100
0000
0000
0000
0010
,  // measure 59
0000
0000
0000
0001
0000
0000
0000
0100
,  // measure 60
0000
0000
0000
0010
0000
0000
0000
1000
,  // measure 61
0000
0000
0000
1000
0000
0000
0000
0001
,  // measure 62
0000
0000
0000
0001
0000
0000
0000
1000
,  // measure 63
0000
0000
0000
0001
0000
0000
0000
1000
,  // measure 64
0000
0000
0000
0001
0000
0000
0000
0010
,  // measure 65
0000
0000
0000
0010
0000
0000
0000
0100
,  // measure 66
0000
0000
0000
0100
0000
0000
0000
0010
,  // measure 67
0000
0000
0000
0100
0000
0000
0000
0010
,  // measure 68
0000
0000
0000
0100
0000
0000
0000
1000
,  // measure 69
0000
0000
0000
1000
0000
0000
0000
0010
,  // measure 70
0000
0000
0000
0010
0000
0000
0000
0001
,  // measure 71
0000
0000
0000
0001
0000
0000
0000
0100
,  // measure 72
0000
0000
0000
0100
0000
0000
0000
1000
,  // measure 73
0000
0000
0000
0010
0000
0000
0000
0001
,  // measure 74
0000
0000
0000
0100
0000
0000
0000
1000
,  // measure 75
0000
0000
0000
0010
0000
0000
0000
0100
,  // measure 76
0000
0100
0000
0000
0000
0000
0001
0000
,  // measure 77
0000
1000
0000
0100
,  // measure 78
0000
0010
0000
0001
,  // measure 79
0000
1000
0000
0100
,  // measure 80
0000
0010
0000
0001
,  // measure 81
0000
1000
0000
0100
,  // measure 82
0000
0001
0000
0010
,  // measure 83
0000
1000
0000
0001
,  // measure 84
0000
0100
0000
0020
,  // measure 85
0000
0000
0000
0000
,  // measure 86
0000
0000
0030
0000
0010
0010
0000
0000
,  // measure 87
0000
1000
0000
0000
0000
0001
0000
0000
,  // measure 88
0000
0100
0000
0000
0000
0010
0000
0010
,  // measure 89
0000
0000
0000
0010
0000
0010
0000
0010
,  // measure 90
0000
0010
0000
0000
0000
1000
0000
0000
,  // measure 91
0000
0001
0000
0000
0000
0100
0000
0000
,  // measure 92
0000
0010
0000
0000
0000
1000
0000
1000
,  // measure 93
0000
0000
0000
0001
0000
0001
0000
0001
,  // measure 94
0000
0000
0000
0000
0000
1001
0000
0000
,  // measure 95
0000
0000
0000
0100
0000
0100
0000
0000
,  // measure 96
0000
0000
0000
0000
0000
1001
0000
0000
,  // measure 97
0000
0000
0000
0010
0000
0010
0000
0000
,  // measure 98
0000
1001
0000
0000
0000
0100
0000
0000
,  // measure 99
0000
1001
0000
0000
0000
0010
0000
0000
,  // measure 100
0000
0100
0000
0000
0000
0100
0000
0000
,  // measure 101
0000
0010
0000
0010
0000
0010
0000
0010
;

//---------------dance-single - ----------------
#NOTEDATA:;
#CHARTNAME:;
#STEPSTYPE:dance-single;
#DESCRIPTION:;
#CHARTSTYLE:;
#DIFFICULTY:Easy;
#METER:11;
#RADARVALUES:0.397222,0.488394,0.263673,0.007990,0.000000,348.000000,315.000000,33.000000,1.000000,0.000000,0.000000,0.000000,0.000000,0.000000,0.397222,0.488394,0.263673,0.007990,0.000000,348.000000,315.000000,33.000000,1.000000,0.000000,0.000000,0.000000,0.000000,0.000000;
#CREDIT:MILEN;
#DISPLAYBPM:250.000000;
#NOTES:
0000
0000
0000
0000
,
0000
0000
0000
0000
,
0000
0000
0000
0000
,
0000
0000
1000
0000
,
0001
0000
1000
0000
,
0010
0010
0100
0001
,
0100
0000
0010
1000
,
0010
0000
0100
0001
,
0100
0000
0010
1000
,
0010
0000
1000
0100
,
1000
0000
0001
0010
,
0001
0000
1000
0100
,
1000
0000
0001
0010
,
0001
0000
0100
0010
,
1000
0000
0010
0100
,
0001
0000
0100
0010
,
1000
0000
0010
0100
,
0001
0000
1000
0100
,
0010
0000
0001
0010
,
0100
0000
1000
0100
,
0010
0001
0010
0100
,
1000
0000
0010
0010
0000
0000
0000
1000
,
0000
0000
0000
0001
0000
0100
0000
0110
,
0000
0000
0000
0010
0000
0000
0000
1000
,
0000
0000
0000
0001
0000
0100
0000
0110
,
0000
0000
0000
1000
0000
0000
0000
0100
,
0000
0000
0000
0010
0000
0001
0000
1001
,
0000
0000
0000
1000
0000
0000
0000
0100
,
0000
0000
0000
0010
0000
0001
0000
1001
,
0000
0000
0000
0010
0000
0000
0000
1000
,
0000
0000
0000
0001
0000
0100
0000
0110
,
0000
0000
0000
0010
0000
0000
0000
1000
,
0000
0000
0000
0001
0000
0100
0000
0110
,
0000
0000
0000
1001
0000
0000
0000
0000
,
0000
0110
0000
0110
0000
0000
0000
0000
,
0000
0010
0000
0100
0000
0010
0000
1000
,
0000
0001
0000
1000
0000
0010
0000
0100
,
0000
0010
0000
0110
0000
1000
0000
1000
,
0000
1000
0000
0110
0000
0001
0000
0001
,
0000
0001
0000
0110
0000
1000
0000
1000
,
0000
1000
0000
0110
0000
0001
0000
0001
,
0000
0001
0000
1000
0100
1000
0000
0010
,
0000
0100
0000
0001
0010
0001
0000
0100
,
0000
0010
0000
1000
0001
1000
0000
0010
,
0000
0100
0000
0001
1000
0001
0000
0100
,
0000
0010
0000
1000
0000
1000
0000
0100
,
0000
0100
0000
0001
0000
0001
0000
0010
,
0000
0010
0001
0000
0001
0000
0100
0000
,
0100
1000
1000
0010
,
0010
1000
0000
0100
0000
0001
0000
0010
,
0001
0000
0100
0000
1000
0000
0010
0100
,
0000
0000
0010
0010
0000
0000
0100
0100
,
0000
0001
0000
1000
0000
0010
0100
0110
,
0000
0000
0000
1001
0000
0000
0000
1000
,
0000
0100
0000
0010
0000
0100
0000
0110
,
0000
0000
0000
1001
0000
0000
0000
0001
,
0000
0010
0000
0100
0000
0010
0000
0110
,
0000
0000
0000
1010
0000
0000
0000
1000
,
0000
0100
0000
0010
0000
0100
0000
0110
,
0000
0000
0000
0101
0000
0000
0000
0001
,
0000
0010
0000
0100
0000
0010
0000
0110
,
0000
0000
0000
1000
0000
0100
0000
0001
,
0000
0100
0000
1000
0000
0100
0000
0010
,
0000
0000
0000
0001
0000
0010
0000
1000
,
0000
0010
0000
0001
0000
0010
0000
0100
,
0000
0000
0000
1000
0000
0010
0000
0001
,
0000
1000
0000
0100
0000
0001
0000
1000
,
0000
0000
0000
0001
0000
0010
0000
1000
,
0000
0001
0000
0100
0000
1000
0000
0001
,
0000
0000
0000
1000
0000
0000
0000
0010
,
0000
0100
0000
0101
0000
0000
0000
1000
,
0000
0000
0000
0001
0000
0000
0000
0100
,
0000
0010
0000
1010
0000
0000
0000
0001
,
0000
0000
0000
1000
0000
0000
0000
0010
,
0000
0100
0000
0110
0000
0000
0000
1000
,
0000
0000
0000
0001
0000
0000
0000
0100
,
0000
0100
0000
0000
0010
0000
0010
0000
,
0000
1000
0000
0001
,
1000
1001
0000
0100
,
0000
0001
0000
1000
,
0001
1001
0000
0010
,
0000
1000
0000
0001
,
0100
0110
0000
1000
,
0010
0110
0000
0001
,
0000
0100
0100
0020
,
0000
0000
0000
0000
,
0000
0000
0000
0000
0130
0100
0000
0001
,
0000
0010
0000
0100
0000
1000
0000
0010
,
0000
0100
0000
0001
0000
1000
0000
1000
,
0000
0001
0000
0001
0000
1000
0000
0001
,
0000
1000
0000
1001
0000
0010
0000
0100
,
0000
0001
0000
0000
0000
0100
0000
0010
,
0000
1000
0000
0000
0000
0100
0000
0100
,
0000
0010
0000
0010
0000
0100
0000
0010
,
0000
0001
0000
0100
0000
1000
0000
0000
,
0000
0001
0000
0100
0000
1000
0000
0000
,
0000
1000
0000
0010
0000
0001
0000
0000
,
0000
1000
0000
0010
0000
0001
0000
0000
,
0000
0100
0000
0000
0010
0000
0000
0110
,
0000
0001
0000
0000
1000
0000
0000
1001
,
0000
0010
0000
0100
0000
0001
0000
0010
,
0000
1000
0000
0100
0000
0001
0000
1001
;

//---------------dance-single - ----------------
#NOTEDATA:;
#CHARTNAME:;
#STEPSTYPE:dance-single;
#DESCRIPTION:;
#CHARTSTYLE:;
#DIFFICULTY:Medium;
#METER:13;
#RADARVALUES:0.608388,0.733491,0.423475,0.031960,0.035955,533.000000,480.000000,53.000000,4.000000,0.000000,0.000000,0.000000,0.000000,0.000000,0.608388,0.733491,0.423475,0.031960,0.035955,533.000000,480.000000,53.000000,4.000000,0.000000,0.000000,0.000000,0.000000,0.000000;
#CREDIT:MILEN;
#DISPLAYBPM:250.000000;
#NOTES:
0000
0000
0000
0000
,
0000
0000
0000
0000
,
0000
0000
0000
0000
,
1000
1000
0010
0000
0100
0000
0001
0000
,
1000
0010
0100
0001
,
1001
1001
1000
0100
,
0010
0100
1000
0100
,
0010
0100
0010
0000
0001
0000
0010
0000
,
0100
0010
0001
0010
,
0100
0010
0100
0000
1000
0000
0100
0000
,
0001
0100
1000
0100
,
0010
0100
0010
0000
0001
0000
0010
0000
,
1000
0010
0001
0010
,
0100
0010
0100
0000
1000
0000
0010
0000
,
0001
1000
0100
0001
,
1000
0001
1000
0000
0001
0000
0010
0000
,
1000
0001
0100
1000
,
0001
1000
0001
0000
1000
0000
0100
0000
,
0010
0001
0100
0010
,
1000
0010
1000
0000
0001
0000
0010
0000
,
0100
1000
0010
0100
,
0001
0100
0001
0001
0000
1000
0000
1100
,
0000
0100
0010
0100
0000
1000
0000
0010
,
0000
0100
0000
0101
0000
0001
1000
0001
,
0000
0010
0000
0001
0100
0001
0000
1000
,
0100
1000
0000
0010
0000
0100
0010
0100
,
0000
0110
0000
0010
0000
1000
0100
0010
,
0000
0100
0010
0001
0000
0100
0000
0010
,
0000
0100
0000
0101
0000
0001
0000
1001
,
0000
1000
0000
1010
0000
0010
0100
0001
,
0000
0100
0010
1000
0010
0100
0000
0001
,
0000
1000
0000
1010
0000
0010
0000
0100
,
0001
0100
0000
0010
1000
0010
1000
0001
,
0100
0010
1000
0001
0000
0010
0000
0100
,
0000
1100
0000
1100
0000
1000
0100
0010
,
0000
0010
0001
0000
0000
0001
0100
0000
,
0000
0100
1000
0100
0000
0010
0000
0001
,
0000
1000
0000
1002
0000
0010
0010
0000
,
0010
0000
0000
0013
0000
0000
2001
0000
0000
0000
0000
0000
0100
0000
0000
0000
,
0000
0000
0000
0100
0000
0000
0100
0000
0000
0000
3000
0000
0010
0000
0010
0000
,
1000
0001
0100
0010
0000
0000
0010
0010
,
1000
0001
0100
0010
0000
0000
0010
0010
,
1000
0100
0010
0001
0000
0000
0010
0010
,
1000
0100
0010
0001
0000
0000
0010
0010
,
1000
0100
0001
1000
0000
0000
0010
0010
,
0001
0100
1000
0001
0000
0100
0000
0010
,
0100
0010
0000
1000
0000
0010
0000
0100
,
0010
0000
0100
0010
1000
0000
0000
0000
0001
0000
0000
0000
0100
0000
0010
0000
,
0100
0000
0001
0000
1000
0000
0010
0100
,
0010
0100
0001
0000
0000
0000
0010
0000
0000
0000
0100
0000
0000
0000
1000
0001
,
1000
0000
0000
0000
0100
0000
0000
0000
0010
0000
0000
0000
0001
1000
0001
0000
,
0000
0000
0100
0000
0110
0000
0110
0000
0000
0000
0010
0000
0000
1000
0100
0000
,
0000
0100
0001
0000
0000
0001
0010
0000
0100
0000
0010
0000
0010
0000
1001
0000
,
0000
1000
0000
0100
0000
0010
0000
0100
,
0000
1000
0000
0100
0010
0100
0000
0010
,
0000
0001
0000
0010
0000
0100
0000
0010
,
0000
0001
0000
0010
0100
0010
0000
0100
,
0000
1000
0000
0010
0000
0001
0000
0010
,
0000
1000
0000
0100
0010
0100
0000
0010
,
0000
0001
0000
0100
0000
1000
0000
0100
,
0000
0001
0000
0010
0100
0010
0000
0100
,
1000
0100
0000
1000
0010
1000
0000
0010
,
0000
0100
0000
0001
0000
1000
0000
0100
,
0010
0100
0000
0010
0001
0010
0000
0001
,
0000
0100
0000
0010
0000
1000
0000
0001
,
0100
0001
0000
0010
0100
0010
0000
0100
,
0000
1000
0000
0010
0000
0100
0000
0001
,
1000
0001
0000
1000
0100
1000
0000
0100
,
0000
0010
0000
0001
0000
0100
0000
0110
,
0000
0010
0000
1010
0000
1000
0000
1001
,
0000
0001
0000
0101
0000
0100
0000
0110
,
0000
0010
0000
1010
0000
1000
0000
1100
,
0000
0100
0000
0110
0000
0010
0000
0011
,
0000
0001
0000
0101
0000
0100
0000
0110
,
0000
0010
0000
1010
0000
1000
0000
1001
,
0000
0001
0000
0011
0000
0010
0000
0110
,
0000
0100
1000
1000
0100
0010
0001
0000
,
0101
1000
1100
0001
,
0011
1000
1010
0100
,
0110
0001
1001
0010
,
0110
1000
1001
0010
,
0011
0001
0101
0010
,
1010
1000
1100
0011
,
0101
0000
1010
0000
1100
0000
0001
1000
,
0001
1000
0001
1000
0001
2000
0002
0000
,
0000
0000
0000
0000
,
0000
0000
3003
0000
1001
0010
0000
1000
,
0000
0100
0000
0001
0000
1000
0000
0010
,
0000
0001
0000
0100
0000
0010
1000
0000
,
1000
0100
0000
0100
0010
0000
0010
0001
,
0000
0001
0100
0001
0100
1000
0000
0100
,
0000
0010
0000
1000
0000
0100
0000
0010
,
0000
0001
0000
0100
0000
0010
1000
0010
,
1000
0100
0000
0010
0001
0010
0001
0010
,
0100
0100
1000
0010
0000
0100
0000
0010
,
0000
1000
0000
0100
0000
0010
0000
0010
,
0000
0001
0100
0010
0000
0100
0000
0010
,
0000
1000
0000
0100
0000
0010
0000
0010
,
0000
0011
0000
0000
0101
0000
0000
0100
,
0010
1010
0000
0000
1100
0000
0000
0100
,
0010
0001
0000
1000
0100
0010
0000
0001
,
1000
0010
0000
0100
0001
1000
0010
0100
,
0110
0000
0000
0000
;

//---------------dance-double - ----------------
#NOTEDATA:;
#CHARTNAME:;
#STEPSTYPE:dance-double;
#DESCRIPTION:;
#CHARTSTYLE:;
#DIFFICULTY:Easy;
#METER:10;
#RADARVALUES:0.362978,0.488394,0.303623,0.007990,0.000000,318.000000,280.000000,38.000000,1.000000,0.000000,0.000000,0.000000,0.000000,0.000000,0.362978,0.488394,0.303623,0.007990,0.000000,318.000000,280.000000,38.000000,1.000000,0.000000,0.000000,0.000000,0.000000,0.000000;
#CREDIT:MILEN;
#DISPLAYBPM:250.000000;
#NOTES:
00000000
00000000
00000000
00000000
,
00000000
00000000
00000000
00000000
,
00000000
00000000
00000000
00000000
,
00000000
00000000
00001000
00000000
,
00010000
00000000
00001000
00000000
,
00011000
00011000
00010000
00000000
,
01000000
00000000
10000000
00000000
,
01000000
00000000
00010000
00000000
,
00001000
00000000
00000100
00000000
,
00000001
00000000
00000100
00000000
,
00001000
00000000
00010000
00000000
,
00100000
00000000
10000000
00000000
,
00100000
00000000
00010000
00000000
,
00001000
00000000
00000010
00000000
,
00000001
00000000
00000010
00000000
,
00001000
00000000
00010000
00000000
,
01000000
00000000
10000000
00000000
,
00100000
00000000
00010000
00000000
,
00001000
00000000
00000100
00000000
,
00000001
00000000
00000010
00000000
,
00001000
00000000
00010000
00000000
,
00011000
00000000
00000000
00001000
00000000
00000000
00000000
00100000
,
00000000
00000000
00000000
00010000
00000000
00000000
00000000
10010000
,
00000000
00000000
00000000
10000000
00000000
00000000
00000000
00100000
,
00000000
00000000
00000000
00010000
00000000
00000000
00000000
00011000
,
00000000
00000000
00000000
00001000
00000000
00000000
00000000
00000100
,
00000000
00000000
00000000
00000001
00000000
00000000
00000000
00001001
,
00000000
00000000
00000000
00001000
00000000
00000000
00000000
00000100
,
00000000
00000000
00000000
00010000
00000000
00000000
00000000
00011000
,
00000000
00000000
00000000
00001000
00000000
00000000
00000000
00100000
,
00000000
00000000
00000000
01000000
00000000
00000000
00000000
11000000
,
00000000
00000000
00000000
10000000
00000000
00000000
00000000
00100000
,
00000000
00000000
00000000
00010000
00000000
00000000
00000000
00011000
,
00000000
00000000
00000000
00001000
00000000
00000000
00000000
00000100
,
00000000
00000101
00000000
00000101
00000000
00000000
00000000
00000001
,
00000000
00000010
00000000
00001000
00000000
00010000
00000000
00001000
,
00000000
00000010
00000000
00001000
00000000
00010000
00000000
00100000
,
00000000
10000000
00000000
11000000
00000000
01000000
00000000
00100000
,
00000000
01000000
00000000
01100000
00000000
00100000
00000000
00010000
,
00000000
00100000
00000000
00110000
00000000
00010000
00000000
00001000
,
00000000
00010000
00000000
00011000
00000000
00001000
00000000
00000100
,
00000000
00001000
00000000
00000001
00000000
00000100
00000000
00001000
,
00000000
00010000
00000000
00100000
00000000
10000000
00000000
01000000
,
00000000
00010000
00000000
00001000
00000000
00000010
00000000
00000001
,
00000000
00000100
00000000
00001000
00000000
00010000
00000000
01000000
,
00000000
10000000
00000000
00010000
00000000
00010000
00000000
01000000
,
00000000
01000000
00000000
00001000
00000000
00001000
00000000
00010000
,
00000000
00010000
00000100
00000000
00000100
00000000
00001000
00000000
,
00001000
00000010
00000010
00010000
,
00010000
00001000
00000000
00100000
00000000
00010000
00000000
01000000
,
00001000
00000000
00010000
00000000
00000100
00000000
00001000
00000010
,
00000000
00000000
00010000
00010000
00000000
00000000
00001000
00001000
,
00000000
01000000
00000000
00010000
00000000
10000000
10000000
10010000
,
00000000
00000000
00000000
01100000
00000000
00000000
00000000
00100000
,
00000000
10000000
00000000
01000000
00000000
00010000
00000000
00011000
,
00000000
00000000
00000000
00000110
00000000
00000000
00000000
00000010
,
00000000
00000001
00000000
00000100
00000000
00001000
00000000
00011000
,
00000000
00000000
00000000
01100000
00000000
00000000
00000000
00100000
,
00000000
10000000
00000000
01000000
00000000
00100000
00000000
00101000
,
00000000
00000000
00000000
00010010
00000000
00000000
00000000
00000010
,
00000000
00001000
00000000
00000100
00000000
00000010
00000000
00000011
,
00000000
00000000
00000000
00000001
00000000
00000100
00000000
00001000
,
00000000
00000000
00000000
00000100
00000000
00001000
00000000
00010000
,
00000000
00000000
00000000
00001000
00000000
00010000
00000000
00100000
,
00000000
00000000
00000000
00010000
00000000
00100000
00000000
10000000
,
00000000
00000000
00000000
10000000
00000000
01000000
00000000
00010000
,
00000000
00000000
00000000
01000000
00000000
00010000
00000000
00001000
,
00000000
00000000
00000000
00010000
00000000
00001000
00000000
00000010
,
00000000
00000000
00000000
00001000
00000000
00000010
00000000
00000001
,
00000000
00000000
00000000
00001001
00000000
00000000
00000000
00000100
,
00000000
00000000
00000000
00011000
00000000
00000000
00000000
00100000
,
00000000
00000000
00000000
10010000
00000000
00000000
00000000
01000000
,
00000000
00000000
00000000
00011000
00000000
00000000
00000000
00000010
,
00000000
00000000
00000000
00001001
00000000
00000000
00000000
00000100
,
00000000
00000000
00000000
00011000
00000000
00000000
00000000
00100000
,
00000000
00000000
00000000
10010000
00000000
00000000
00000000
01000000
,
00000000
01000000
00000000
00000000
00010000
00000000
10010000
00000000
,
00000000
01000000
00000000
00010000
,
00001000
00011000
00000000
00001000
,
00000000
00000100
00000000
00000001
,
00001000
00001001
00000000
00000001
,
00000000
00000010
00000000
00001000
,
00010000
00011000
00000000
00010000
,
00001000
00011000
00000000
00010000
,
00000000
01000000
10000000
00200000
,
00000000
00000000
00000000
00000000
,
00000000
00000000
00000000
00000000
01300000
01000000
00000000
00010000
,
00000000
00100000
00000000
00000000
00000000
01000000
00000000
10000000
,
00000000
00100000
00000000
00000000
00000000
00010000
00000000
00010000
,
00000000
00001000
00000000
00001000
00000000
00010000
00000000
00001000
,
00000000
00010000
00000000
00011000
00000000
00000100
00000000
00000010
,
00000000
00000001
00000000
00000000
00000000
00000100
00000000
00000010
,
00000000
00001000
00000000
00000000
00000000
00000100
00000000
00000010
,
00000000
00000100
00000000
00000100
00000000
00000010
00000000
00000010
,
00000000
00000001
00000000
00000100
00000000
00001000
00000000
00000000
,
00000000
00000100
00000000
00001000
00000000
00010000
00000000
00000000
,
00000000
00001000
00000000
00010000
00000000
01000000
00000000
00000000
,
00000000
00010000
00000000
01000000
00000000
10000000
00000000
00000000
,
00000000
00100000
00000000
00000000
00010000
00000000
00000000
00001000
,
00000000
00000010
00000000
00000000
00001000
00000000
00000000
00010000
,
00000000
01000000
00000000
00010000
00000000
00001000
00000000
00000100
,
00000000
00001000
00000000
00010000
00000000
00001000
00000000
00011000
;

//---------------dance-double - ----------------
#NOTEDATA:;
#CHARTNAME:;
#STEPSTYPE:dance-double;
#DESCRIPTION:;
#CHARTSTYLE:;
#DIFFICULTY:Medium;
#METER:13;
#RADARVALUES:0.550175,0.733491,0.415485,0.031960,0.035955,482.000000,430.000000,52.000000,4.000000,0.000000,0.000000,0.000000,0.000000,0.000000,0.550175,0.733491,0.415485,0.031960,0.035955,482.000000,430.000000,52.000000,4.000000,0.000000,0.000000,0.000000,0.000000,0.000000;
#CREDIT:MILEN;
#DISPLAYBPM:250.000000;
#NOTES:
00000000
00000000
00000000
00000000
,
00000000
00000000
00000000
00000000
,
00000000
00000000
00000000
00000000
,
00001000
00001000
00010000
00000000
00000100
00000000
00001000
00000000
,
00000010
00010000
00000100
00001000
,
00000001
00001001
00001001
00000100
,
00010000
00001000
00010000
00000100
,
00001000
00000001
00001000
00000100
,
00010000
00001000
00010000
00000100
,
00001000
00000010
00001000
00000100
,
00010000
00001000
00100000
00010000
,
10000000
00100000
10000000
00010000
,
00100000
00001000
00010000
00001000
,
00100000
00010000
10010000
01000000
,
00010000
00001000
00010000
01000000
,
10000000
00010000
10000000
01000000
,
00010000
00001000
00010000
01000000
,
10000000
00010000
10000000
01000000
,
00010000
00001000
00000010
00000001
,
00001000
00000010
00001000
00000001
,
00000010
00001000
00010000
00001000
,
00000010
00000000
00000001
00000001
00000000
00001000
00000000
00001010
,
00000000
00000010
00000000
00010000
00000000
00001000
00000000
00100000
,
00000000
01000000
00000000
11000000
00000000
10000000
00000000
00100000
,
00000000
00010000
00000000
00001000
00000000
00010000
00000000
00100000
,
00000000
00010000
00000000
00001000
00000000
00000010
00000000
00000001
,
00000000
00000101
00000000
00000100
00000000
00001000
00010000
00001000
,
00000000
00010000
00001000
00010000
00000000
01000000
00000000
10000000
,
00000000
00100000
00000000
01100000
00000000
01000000
00000000
01001000
,
00000000
00001000
00000000
00011000
00000000
00010000
00000000
00000100
,
00000000
00000010
00000001
00000010
00000001
00000010
00000000
00000100
,
00000000
00001000
00000000
00001100
00000000
00000100
00000000
00010000
,
00001000
00010000
00000000
00100000
00000000
10000000
01000000
10000000
,
00000000
00100000
00000000
00010000
00000000
00001000
00000000
00100000
,
00000000
01100000
00000000
01100000
00000000
01000000
00000000
10000000
,
00000000
00100000
00010000
00000000
00000000
00010000
00001000
00000000
,
00000000
00001000
00000100
00001000
00000000
00000100
00000000
00000001
,
00000000
00001000
00000000
00001200
00000000
00010000
00010000
00000000
,
00010000
00000000
00000000
00010300
00000000
00000000
00012000
00000000
00000000
00000000
00000000
00000000
01000000
00000000
00000000
00000000
,
00000000
00000000
00000000
01000000
00000000
00000000
01000000
00000000
00000000
00000000
00003000
00000000
00100000
00000000
00100000
00000000
,
00010000
01000000
00010000
01000000
00000000
00000000
00100000
00100000
,
10000000
01000000
10000000
01000000
00000000
00000000
00010000
00010000
,
00001000
00000010
00001000
00000010
00000000
00000000
00000001
00000001
,
00000100
00001000
00000100
00001000
00000000
00000000
00010000
00010000
,
00100000
10000000
00100000
10000000
00000000
00000000
01000000
01000000
,
00010000
00001000
00010000
00001000
00000000
00000010
00000000
00000001
,
00000000
00000100
00000000
00001000
00000000
00010000
00000000
00100000
,
10000000
00000000
01000000
00100000
01000000
00000000
00000000
00000000
00010000
00000000
00000000
00000000
00001000
00000000
00000000
00000000
,
00000010
00000000
00000001
00000000
00000100
00000000
00001000
00010000
,
00001000
00010000
00001000
00000000
00000000
00000000
00100000
00000000
00000000
00000000
01000000
00000000
10000000
00000000
00100000
00010000
,
00100000
00000000
00000000
00000000
01000000
00000000
00000000
00000000
00100000
00000000
00010000
00000000
00001000
00000010
00001000
00000000
,
00000000
00000000
00010000
00000000
00010100
00000000
00010100
00000000
00000000
00000000
00000100
00000000
00000000
00000010
00000001
00000000
,
00000000
00000001
00000100
00000000
00000000
00000100
00001000
00000000
00010000
00000000
00100000
00000000
10000000
00000000
10010000
00000000
,
00000000
00010000
00000000
01000000
00000000
00001000
00000000
00010000
,
00000000
00000100
00000000
00000010
00000001
00000100
00000000
00000010
,
00000000
00010000
00000000
00001000
00000000
00100000
00000000
01000000
,
00000000
10000000
00000000
00100000
01000000
00010000
00000000
10000000
,
00000000
01000000
00000000
00100000
00000000
00001000
00000000
00010000
,
00000000
00000100
00000000
00000010
00000001
00000100
00000000
00000010
,
00000000
00010000
00000000
00001000
00000000
00100000
00000000
01000000
,
00000000
10000000
00000000
00100000
01000000
00010000
00000000
00100000
,
01000000
00010000
00000000
00001000
00000000
00000010
00000000
00000001
,
00000000
00000100
00000000
00001000
00000000
00010000
00000000
00100000
,
10000000
01000000
00000000
00100000
00000000
01000000
00000000
00010000
,
00000000
00001000
00000000
00000010
00000000
00000001
00000000
00001000
,
00000100
00000010
00000000
00000001
00000000
00000100
00000000
00001000
,
00000000
00010000
00000000
01000000
00000000
10000000
00000000
00100000
,
01000000
10000000
00000000
01000000
00000000
00010000
00000000
00100000
,
00000000
01000000
00000000
00010000
00000000
00001000
00000000
00011000
,
00000000
00000000
00000000
00001010
00000000
00000000
00000000
00000011
,
00000000
00000000
00000000
00000101
00000000
00000000
00000000
00001100
,
00000000
00000000
00000000
00011000
00000000
00000000
00000000
00110000
,
00000000
00000000
00000000
10100000
00000000
00000000
00000000
11000000
,
00000000
00000000
00000000
01010000
00000000
00000000
00000000
00011000
,
00000000
00000000
00000000
00001100
00000000
00000000
00000000
00011000
,
00000000
00000000
00000000
01010000
00000000
00000000
00000000
00011000
,
00000000
00010000
00001000
00001000
00010000
00100000
01100000
00000000
,
00000000
10010000
00000000
01001000
,
00000000
00010100
00000000
00001001
,
00000000
00000110
00000000
00001100
,
00000000
00010010
00000000
00101000
,
00000000
01100000
00000000
10010000
,
00000000
00011000
00000000
00001001
,
00000100
00000000
00011000
00000000
01000000
00000000
00010000
10000000
,
00010000
10000000
00010000
10000000
00010000
20000000
00020000
00000000
,
00000000
00000000
00000000
00000000
,
00000000
00000000
30030000
00000000
10010000
00010000
00000000
01000000
,
00000000
00001000
00000000
00010000
00000000
00000100
00000000
00001000
,
00000000
00000001
00000000
00000100
00000000
00000001
00001000
00000000
,
00001000
00000100
00000000
00000100
00010000
00000000
00010000
00001000
,
00000000
00001000
00100000
00001000
00100000
01000000
00000000
10000000
,
00000000
00100000
00000000
00010000
00000000
00001000
00000000
00000100
,
00000000
00000001
00000000
00000010
00000000
00000100
00010000
00000100
,
00010000
00001000
00000000
01000000
00001000
01000000
00001000
00010000
,
00000100
00000100
00000000
00000010
00000000
00000001
00000000
00000100
,
00000000
00001000
00000000
00010000
00000000
00100000
00000000
10000000
,
00000000
01000000
00000000
00100000
00000000
00001000
00000000
00010000
,
00000000
00000100
00000000
00000010
00000000
00000001
00000000
00000100
,
00000000
00000110
00000000
00000000
00010010
00000000
00000000
00010000
,
00001000
00101000
00000000
00000000
01100000
00000000
00000000
01000000
,
10000000
00100000
00000000
00010000
00001000
00000100
00000000
00000001
,
00000010
00001000
00000000
00010000
00001000
00010000
00001000
00010000
,
00011000
00000000
00000000
00000000
;
