#VERSION:0.83;
#TITLE:CLOSER;
#SUBTITLE:;
#ARTIST:Oh My Girl!;
#TITLETRANSLIT:;
#SUBTITLETRANSLIT:;
#ARTISTTRANSLIT:;
#GENRE:K-POP;
#ORIGIN:;
#CREDIT:MUINELIM;
#BANNER:CLOSER.png;
#BACKGROUND:CLOSER-bg.png;
#PREVIEWVID:;
#JACKET:CLOSER-jacket.png;
#CDIMAGE:;
#DISCIMAGE:;
#LYRICSPATH:;
#CDTITLE:;
#MUSIC:CLOSER.ogg;
#OFFSET:0.171000;
#SAMPLESTART:36.647179;
#SAMPLELENGTH:10.889091;
#SELECTABLE:YES;
#DISPLAYBPM:110.000000;
#BPMS:0.000=110.000;
#STOPS:;
#DELAYS:;
#WARPS:;
#TIMESIGNATURES:0.000=4=4;
#TICKCOUNTS:0.000=4;
#COMBOS:0.000=1;
#SPEEDS:0.000=1.000=0.000=0;
#SCROLLS:0.000=1.000;
#FAKES:;
#LABELS:0.000=Song Start;
#BGCHANGES:0.000=CLOSER-bg.png=1.000=0=0=1====#000000=#000000,
1.500=CLOSER.mp4=1.000=1=0=1===CrossFade==,
99999=-nosongbg-=1.000=0=0=0 // don't automatically add -songbackground-
;
#KEYSOUNDS:;
#ATTACKS:
;

//---------------dance-single - ----------------
#NOTEDATA:;
#CHARTNAME:;
#STEPSTYPE:dance-single;
#DESCRIPTION:;
#CHARTSTYLE:;
#DIFFICULTY:Beginner;
#METER:1;
#RADARVALUES:0.089478,0.134801,0.000000,0.013616,0.000000,92.000000,92.000000,0.000000,2.000000,0.000000,0.000000,0.000000,0.000000,0.000000,0.089478,0.134801,0.000000,0.013616,0.000000,92.000000,92.000000,0.000000,2.000000,0.000000,0.000000,0.000000,0.000000,0.000000;
#CREDIT:MILEN;
#DISPLAYBPM:110.000000;
#NOTES:
0000
0000
0000
0000
,
0000
0000
0000
0000
,
0000
0000
0000
0000
,
0000
0000
0000
0000
,
0000
0000
0000
0000
,
0100
0000
0000
0000
,
0100
0000
0000
0000
,
0000
0000
0000
0000
,
0000
0000
0000
0000
,
0001
0000
0001
0000
,
0001
0000
0000
0000
,
1000
0000
1000
0000
,
1000
0000
0000
0000
,
0001
0000
0001
0000
,
1000
0000
0000
0000
,
1000
0000
1000
0000
,
0001
0000
0000
0000
,
0100
0000
0010
0000
,
1000
0000
0001
0000
,
0100
0000
0010
0000
,
1000
0000
0001
0000
,
0100
0000
1000
0000
,
0010
0000
0001
0000
,
0100
0000
1000
0000
,
0010
0000
0001
0000
,
1000
0000
0000
0000
,
0001
0000
0000
0000
,
1000
0000
0000
0000
,
0001
0000
0000
0000
,
0100
0000
0100
0100
,
0100
0000
0100
0000
,
0100
0000
0000
0000
,
0010
0000
0010
0000
,
0010
0000
0000
0000
,
0100
0000
0100
0000
,
0010
0000
0000
0000
,
0010
0000
0010
0000
,
0100
0000
0000
0000
,
0001
0000
0010
0000
,
0100
0000
1000
0000
,
0001
0000
0010
0000
,
0100
0000
1000
0000
,
0010
0000
0001
0000
,
0100
0000
1000
0000
,
0010
0000
0001
0000
,
0100
0000
1000
0000
,
0010
0000
0000
0000
,
0100
0000
0000
0000
,
0010
0000
0000
0000
,
0100
0000
0010
0000
,
1000
0000
0100
0000
,
0010
0000
0001
0000
,
0001
0000
1000
0000
,
1000
0000
0010
0000
,
0001
0000
0100
0000
,
1000
0000
0001
0000
,
0100
0000
0010
0000
,
1000
0000
0001
0000
,
0100
0000
0000
0000
,
0100
0000
0000
0000
,
0100
0000
0000
0000
,
0100
0000
0000
0000
,
0200
0000
0000
0000
,
0300
0000
0000
0000
,
0020
0000
0000
0000
,
0000
0000
0000
0000
,
0030
0000
0000
0000
;

//---------------dance-single - ----------------
#NOTEDATA:;
#CHARTNAME:;
#STEPSTYPE:dance-single;
#DESCRIPTION:;
#CHARTSTYLE:;
#DIFFICULTY:Easy;
#METER:4;
#RADARVALUES:0.156587,0.224669,0.061273,0.102122,0.000000,161.000000,152.000000,9.000000,15.000000,0.000000,0.000000,0.000000,0.000000,0.000000,0.156587,0.224669,0.061273,0.102122,0.000000,161.000000,152.000000,9.000000,15.000000,0.000000,0.000000,0.000000,0.000000,0.000000;
#CREDIT:MILEN;
#DISPLAYBPM:110.000000;
#NOTES:
// measure 0
0000
0000
0000
0000
,  // measure 1
0000
0000
0000
0000
,  // measure 2
0000
0000
0000
0000
,  // measure 3
0000
0000
0000
0000
,  // measure 4
0000
0000
0000
0000
,  // measure 5
0100
0000
0100
0000
,  // measure 6
0200
0000
0300
0000
,  // measure 7
0020
0000
0030
0000
,  // measure 8
0220
0000
0000
0330
,  // measure 9
0100
0000
0100
0000
,  // measure 10
0001
0000
0001
0000
,  // measure 11
1000
0000
1000
0000
,  // measure 12
0010
0000
0010
0000
,  // measure 13
0100
0000
0001
0000
,  // measure 14
1000
0000
0010
0000
,  // measure 15
0100
0100
0100
0010
,  // measure 16
0200
0300
0001
1000
,  // measure 17
0001
0000
0100
0000
,  // measure 18
1000
0000
0010
0000
,  // measure 19
0001
0000
0100
0000
,  // measure 20
1000
0000
0010
0000
,  // measure 21
0001
1000
0100
0000
,  // measure 22
1000
0001
0010
0000
,  // measure 23
0001
1000
0100
1000
,  // measure 24
0001
0010
0001
1000
,  // measure 25
0010
0010
0020
0030
,  // measure 26
0001
0001
0002
0003
,  // measure 27
0100
0100
0200
0300
,  // measure 28
1000
1000
0001
1000
,  // measure 29
1001
0000
0000
0000
,  // measure 30
0001
0000
0001
0000
,  // measure 31
0010
0000
0010
0000
,  // measure 32
0100
0000
0100
0000
,  // measure 33
1000
0000
1000
0000
,  // measure 34
0001
0000
0010
0000
,  // measure 35
0100
0000
1000
0000
,  // measure 36
0001
0001
1000
0001
,  // measure 37
2000
3000
0002
0003
,  // measure 38
1000
0010
1000
0010
,  // measure 39
1000
1000
0100
0000
,  // measure 40
0001
0100
0001
0100
,  // measure 41
0001
0010
0010
0000
,  // measure 42
1000
0001
0100
0000
,  // measure 43
0001
1000
0010
0000
,  // measure 44
1000
0001
0100
0001
,  // measure 45
1000
0010
1000
0001
,  // measure 46
0100
0100
0200
0300
,  // measure 47
1000
1000
2000
3000
,  // measure 48
0010
0010
0020
0030
,  // measure 49
0001
0001
1000
1001
,  // measure 50
0001
0010
0001
0001
,  // measure 51
0100
1000
0001
0000
,  // measure 52
0100
0000
1000
0000
,  // measure 53
0001
1000
1001
0000
,  // measure 54
0010
0100
0010
0010
,  // measure 55
0000
1000
0100
0001
,  // measure 56
0000
1000
0100
0001
,  // measure 57
0010
0010
1000
0001
,  // measure 58
1001
0000
0000
0000
,  // measure 59
1001
0000
0000
0000
,  // measure 60
1001
0000
0000
0000
,  // measure 61
1001
0000
0000
0000
,  // measure 62
0200
0000
0000
0000
,  // measure 63
0000
0000
0000
0000
,  // measure 64
0020
0000
0000
0000
,  // measure 65
0000
0000
0000
0330
,  // measure 66
0110
0000
0000
0000
;

//---------------dance-double - ----------------
#NOTEDATA:;
#CHARTNAME:;
#STEPSTYPE:dance-double;
#DESCRIPTION:;
#CHARTSTYLE:;
#DIFFICULTY:Easy;
#METER:4;
#RADARVALUES:0.145889,0.202202,0.040849,0.102122,0.000000,150.000000,144.000000,6.000000,15.000000,0.000000,0.000000,0.000000,0.000000,0.000000,0.145889,0.202202,0.040849,0.102122,0.000000,150.000000,144.000000,6.000000,15.000000,0.000000,0.000000,0.000000,0.000000,0.000000;
#CREDIT:MILEN;
#DISPLAYBPM:110.000000;
#NOTES:
00000000
00000000
00000000
00000000
,
00000000
00000000
00000000
00000000
,
00000000
00000000
00000000
00000000
,
00000000
00000000
00000000
00000000
,
00000000
00000000
00000000
00000000
,
00001000
00000000
00001000
00000000
,
00002000
00000000
00003000
00000000
,
00020000
00000000
00030000
00000000
,
00022000
00000000
00000000
00033000
,
00000100
00000000
00000100
00000000
,
00001000
00000000
00001000
00000000
,
00000010
00000000
00000010
00000000
,
00010000
00000000
00010000
00000000
,
00001000
00000000
00001000
00000000
,
00100000
00000000
00100000
00000000
,
00010000
00000000
00010000
00000000
,
02000000
03000000
00100000
00100000
,
10000000
00000000
01000000
00000000
,
00010000
00000000
00001000
00000000
,
00000010
00000000
00000001
00000000
,
00000100
00000000
00001000
00000000
,
00010000
00000100
00001000
00000000
,
00000100
00010000
00001000
00000000
,
01000000
00001000
00010000
00000000
,
00001000
01000000
00010000
10000000
,
00100000
00100000
00200000
00300000
,
00010000
00010000
00020000
00030000
,
00001000
00001000
00002000
00003000
,
00000010
00000010
00000001
00001000
,
00001001
00000000
00000000
00000000
,
00000010
00000000
00000010
00000000
,
00010000
00000000
00010000
00000000
,
00001000
00000000
00001000
00000000
,
00100000
00000000
00100000
00000000
,
00010000
00000000
00010000
00000000
,
01000000
00000000
01000000
00000000
,
00001000
00000000
00001000
00000000
,
00020000
00030000
00000200
00000300
,
00001000
00000010
00001000
00000010
,
00010000
00001000
00100000
00000000
,
00010000
01000000
00010000
01000000
,
00001000
00010000
00000100
00000000
,
00001000
00000010
00010000
00000000
,
00000010
00010000
00001000
00000000
,
01000000
00001000
00010000
00000000
,
00001000
01000000
00010000
10000000
,
01000000
01000000
02000000
03000000
,
00010000
00010000
00020000
00030000
,
00001000
00001000
00002000
00003000
,
00000100
00000100
00000001
00001001
,
00001000
00000010
00010000
00000000
,
00001000
01000000
00010000
00000000
,
00100000
00000000
01000000
00000000
,
10000000
00010000
10010000
00000000
,
10000000
01000000
00010000
00010000
,
00000000
01000000
00010000
00001000
,
00000000
00010000
00001000
00000100
,
00000000
00001000
00000100
00000001
,
00001001
00000000
00000000
00000000
,
00000100
00000000
00000000
00000000
,
00001000
00000000
00000000
00000000
,
00010000
00000000
00000000
00000000
,
02000000
00000000
00000000
00000000
,
00000000
00000000
00000000
00000000
,
00200000
00000000
00000000
00000000
,
00000000
00000000
00000000
03300000
,
10010000
00000000
00000000
00000000
;

//---------------dance-single - ----------------
#NOTEDATA:;
#CHARTNAME:;
#STEPSTYPE:dance-single;
#DESCRIPTION:;
#CHARTSTYLE:;
#DIFFICULTY:Medium;
#METER:8;
#RADARVALUES:0.242175,0.337003,0.074890,0.326791,0.000000,249.000000,238.000000,11.000000,48.000000,0.000000,0.000000,0.000000,0.000000,0.000000,0.242175,0.337003,0.074890,0.326791,0.000000,249.000000,238.000000,11.000000,48.000000,0.000000,0.000000,0.000000,0.000000,0.000000;
#CREDIT:MILEN;
#DISPLAYBPM:110.000000;
#NOTES:
0000
0000
0000
0000
,
0000
0000
0000
0000
,
0000
0000
0000
0000
,
0000
0000
0000
0000
,
0000
0000
0000
0000
,
1000
0000
0001
0000
,
0200
0000
0000
0000
,
0020
0000
0000
0330
,
2002
0000
0000
3003
,
1000
0100
1000
0100
,
1000
0001
1000
0001
,
0100
0001
0100
0001
,
1000
0001
1000
0001
,
1000
0010
1000
0010
,
1000
0001
1000
0001
,
0010
0001
0010
0001
,
1000
0000
0001
0000
1000
0001
0100
0010
,
0200
0301
0200
1300
,
0200
0301
1000
1001
,
0020
1030
0020
0031
,
0020
1030
0001
1001
,
1000
0100
2000
0000
3001
0100
0002
0000
,
1003
1000
0010
0100
,
0001
0010
0002
0000
1003
0010
2000
0000
,
3001
0001
0100
0010
,
1000
0001
1000
0000
0200
0000
0300
0000
,
1000
0001
1000
0000
0020
0000
0030
0000
,
1000
0001
1000
0000
0200
0000
0300
0000
,
1000
0001
1000
0010
0100
0000
0100
0010
,
0200
0000
0020
0330
,
0010
1000
0010
1000
,
0010
0001
0010
0001
,
0010
1000
0010
0001
,
0010
1000
0100
0010
,
0100
1000
0100
1000
,
0100
0001
0100
0001
,
0100
1000
0100
0001
,
0100
0000
1000
0000
0010
0100
0010
1000
,
0002
0013
2000
3010
,
0001
0100
1000
0000
0020
0000
0031
0000
,
2000
3100
0002
0103
,
1000
0010
0001
0000
0200
0000
1300
0000
,
0001
1000
0020
0000
1030
0001
0200
0000
,
0310
1000
0001
1001
,
1000
0001
0200
0000
0301
1000
0020
0000
,
0130
0001
1000
1001
,
0010
0100
0010
0000
0002
0000
0003
0000
,
0010
0100
0010
0000
2000
0000
3000
0000
,
0010
0100
0010
0000
0002
0000
0003
0000
,
0010
0100
0010
1000
0001
0000
1000
0000
,
0010
0001
0100
0000
0010
1000
0100
0000
,
0010
0100
0010
0000
1001
0000
1000
0010
,
0100
0000
0001
0100
0010
0000
1000
0010
,
0100
0001
1000
0010
0010
0000
0000
0000
,
0002
0000
2003
0000
3002
0000
0103
0100
,
0000
0010
1000
0001
0100
0010
1000
1000
,
0000
0100
0002
0000
0023
0000
0230
0000
,
1300
0000
1000
0100
0010
0001
0100
0000
,
0220
0000
0330
0000
,
2002
0000
3003
0000
,
0220
0000
0330
0000
,
2002
0000
3003
0000
,
0200
0000
0000
0000
,
0000
0000
0000
0000
,
0020
0000
0000
0000
,
0000
0000
0000
0330
,
1001
0000
0000
0000
;

//---------------dance-double - ----------------
#NOTEDATA:;
#CHARTNAME:;
#STEPSTYPE:dance-double;
#DESCRIPTION:;
#CHARTSTYLE:;
#DIFFICULTY:Medium;
#METER:8;
#RADARVALUES:0.234395,0.314536,0.040849,0.251901,0.000000,241.000000,235.000000,6.000000,37.000000,0.000000,0.000000,0.000000,0.000000,0.000000,0.234395,0.314536,0.040849,0.251901,0.000000,241.000000,235.000000,6.000000,37.000000,0.000000,0.000000,0.000000,0.000000,0.000000;
#CREDIT:MILEN;
#DISPLAYBPM:110.000000;
#NOTES:
00000000
00000000
00000000
00000000
,
00000000
00000000
00000000
00000000
,
00000000
00000000
00000000
00000000
,
00000000
00000000
00000000
00000000
,
00000000
00000000
00000000
00000000
,
00001000
00000000
00010000
00000000
,
00010010
00000000
00001000
00000000
,
01001000
00000000
00010000
00000000
,
00022000
00000000
00000000
00033000
,
00001000
00100000
00001000
00100000
,
00010000
01000000
00010000
01000000
,
00001000
00010000
00001000
00010000
,
00000010
00001000
00000010
00001000
,
00000100
00010000
00000100
00010000
,
00001000
01000000
00001000
01000000
,
00100000
10000000
00100000
10000000
,
01000000
00000000
00010000
00000000
00001000
00010000
00001000
00000000
,
00000200
00000301
00000200
00001300
,
00000200
00000000
00000301
00000000
00000100
00001000
00010000
00000000
,
02000000
13000000
02000000
03010000
,
02000000
00000000
13000000
00000000
01000000
00010000
00001000
00000000
,
00000010
00000100
00000010
00000000
00000100
00000010
00000100
00000000
,
00001000
00000010
00010000
00100000
,
00100000
01000000
00100000
00000000
01000000
00100000
01000000
00000000
,
00010000
00100000
00001000
00000010
,
00000010
00000001
00000010
00000000
00000200
00000000
00000300
00000000
,
00000010
00000001
00000010
00000000
00002000
00000000
00003000
00000000
,
00000010
00000001
00000010
00000000
00000200
00000000
00000300
00000000
,
00000010
00000001
00000100
00000001
00000010
00000000
00001000
00000000
,
00020000
00000000
00002000
00033000
,
00010000
00000010
00010000
00000010
,
00001000
00000100
00001000
00000100
,
00010000
00001000
00010000
00001000
,
00100000
00010000
00100000
00010000
,
01000000
00001000
01000000
00001000
,
00010000
00000100
00010000
00000100
,
00000010
00000001
00000010
00000001
,
00000100
00000000
00001000
00000000
00010000
00001000
00010000
00000000
,
00200000
10300000
02000000
03010000
,
00010000
00001000
00000010
00000000
00000001
00000000
00001000
00000000
,
00000200
00000301
00000020
00001030
,
00001000
00010000
00100000
00000000
10000000
00000000
00010000
00000000
,
02000000
13000000
00200000
00310000
,
00010000
00001000
00000100
00000000
00000001
00000000
00001000
00000000
,
00000020
00000031
00000200
00001300
,
00001000
00010000
01000000
00000000
10000000
00000000
00010000
00000000
,
00100000
10000000
00100000
00000000
02000000
00000000
03000000
00000000
,
00100000
10000000
00100000
00000000
00020000
00000000
00030000
00000000
,
00100000
10000000
00100000
00000000
02000000
00000000
03000000
00000000
,
00100000
10000000
01000000
10000000
00100000
00000000
00010000
00000000
,
00001000
00010000
01000000
00000000
00010000
00001000
00000100
00000000
,
00001000
00010000
00100000
00000000
01100000
00000000
10000000
01000000
,
00010000
00000000
00001000
00000010
00000001
00000000
00000100
00000010
,
00001000
00000000
00010000
01000000
00100000
00000000
00000000
00000000
,
20000000
00000000
30020000
00000000
02030000
00000000
03001000
00001000
,
00000000
00010000
00010000
00000000
00001000
00000100
00000010
00000010
,
00000000
00000100
00000002
00000000
00002003
00000000
00003020
00000000
,
00010030
00000000
00010000
00001000
00100000
01000000
10000000
00000000
,
20200000
00000000
30000000
00000000
,
00020000
00000000
00300000
00000000
,
00002000
00000000
00030000
00000000
,
00000200
00000000
00003000
00000000
,
00000302
00000000
00000000
00000000
,
00000000
00000000
00000000
00000000
,
00002000
00000000
00000000
00000000
,
00000000
00000000
00000000
00003003
,
00001001
00000000
00000000
00000000
;

//---------------dance-single - ----------------
#NOTEDATA:;
#CHARTNAME:;
#STEPSTYPE:dance-single;
#DESCRIPTION:;
#CHARTSTYLE:;
#DIFFICULTY:Hard;
#METER:10;
#RADARVALUES:0.310257,0.404404,0.061273,0.217860,0.142971,319.000000,310.000000,9.000000,32.000000,0.000000,0.000000,0.000000,0.000000,0.000000,0.310257,0.404404,0.061273,0.217860,0.142971,319.000000,310.000000,9.000000,32.000000,0.000000,0.000000,0.000000,0.000000,0.000000;
#CREDIT:MILEN;
#DISPLAYBPM:110.000000;
#NOTES:
0000
0000
0000
0000
,
0000
0000
0000
0000
,
0000
0000
0000
0000
,
0000
0000
0000
0000
,
0000
0000
0000
0000
,
2000
0000
0002
3000
,
0200
0000
0000
0003
,
0020
0000
0000
0330
,
2002
0000
0000
3003
,
1000
0010
0001
0010
,
1000
0010
0001
0010
,
0100
1000
0100
0001
,
0100
1000
0100
0001
,
0010
0100
0001
1000
,
0010
0100
1000
0010
,
0001
0100
0010
1000
0001
0100
0010
1000
,
0002
0000
0000
0000
1003
0100
0010
0001
,
0011
0000
0000
0010
0001
0000
0000
0000
0100
0000
0000
0100
0001
0000
0000
0000
,
1000
0000
0000
1000
0001
0000
0000
0000
1000
0000
0100
0000
0010
0000
0100
0000
,
1100
0000
0000
0100
1000
0000
0000
0000
0010
0000
0000
0010
1000
0000
0000
0000
,
0001
0000
0000
0001
1000
0000
0000
0000
0001
0000
0010
0000
0100
0000
0010
0000
,
0001
0000
0000
0001
0100
0000
0000
0000
1000
0000
0000
1000
0100
0000
0000
0000
,
0001
0000
0000
0001
0010
0000
0000
0000
1000
0000
0000
1000
0010
0000
0000
0000
,
0001
0000
0000
0001
1000
0000
0000
1000
0100
0000
0000
0100
0010
0000
0000
0010
,
0001
0000
0000
0001
0100
0000
0000
0100
0010
0000
0000
0010
1000
0000
0000
1000
,
0001
0100
0010
1000
0002
0000
0203
0000
,
0301
0100
0010
1000
0002
0000
0203
0000
,
0301
0100
0010
1000
0002
0000
0203
0000
,
0301
0001
1000
0100
0010
0001
1000
0100
,
0010
0000
0000
0000
0010
0000
0000
0000
0010
0001
1000
0000
0220
0000
0330
0000
,
0100
0001
0010
1000
,
0001
0100
1000
0010
,
0001
1000
0100
0001
,
0010
0100
0001
0100
,
0010
1000
0010
0100
,
1000
0001
0100
0010
,
1000
0100
0010
0001
1000
0100
0010
0001
,
2000
0000
0000
0000
3001
0100
0010
1000
,
1010
0000
0000
1000
0100
0000
0000
0000
0001
0000
0000
0001
0100
0000
0000
0000
,
1000
0000
0000
1000
0010
0000
0000
0000
0001
0000
0100
0000
0010
0000
0100
0000
,
0101
0000
0000
0001
0010
0000
0000
0000
1000
0000
0000
1000
0010
0000
0000
0000
,
0001
0000
0000
0001
0100
0000
0000
0000
1000
0000
0010
0000
0100
0000
0010
0000
,
1000
0000
0000
1000
0010
0000
0000
0000
0001
0000
0000
0001
0100
0000
0000
0000
,
1000
0000
0000
1000
0100
0000
0000
0000
0001
0000
0000
0001
0010
0000
0000
0000
,
0100
0000
0000
0100
0010
0000
0000
0010
0001
0000
0000
0001
0100
0000
0000
0100
,
0010
0000
0000
0010
1000
0000
0000
1000
0001
0000
0000
0001
0100
0000
0000
0100
,
0010
1000
0001
0010
0200
0000
2300
0000
,
3010
1000
0001
0010
0200
0000
2300
0000
,
3010
1000
0001
0010
0200
0000
2300
0000
,
3001
0000
0001
0000
0100
0000
0010
0000
1000
0000
0001
0000
0100
0000
0010
1000
,
0020
0000
0130
0001
1000
0010
0100
0000
,
0010
0000
1000
0000
0001
0000
0100
0000
0010
0000
0000
0000
1000
0001
0100
0000
,
0010
0000
0000
0000
1000
0001
0100
0000
0010
0000
0000
0000
1000
0001
0100
0000
,
1000
0010
0100
0001
2000
0000
0000
3002
,
0000
1003
0100
0001
1000
0100
0010
0010
,
0000
0001
0100
1000
0001
0010
0100
0100
,
0000
0000
0010
0000
0001
0100
0001
0000
1000
0000
0100
0000
0010
0000
0110
0000
,
0000
1000
0010
0001
0100
1000
0001
1000
,
2020
0000
0000
3000
,
0200
0000
0000
0030
,
0002
0000
0000
0300
,
2000
0000
0000
3003
,
0200
0000
0000
0000
,
0000
0000
0000
0000
,
0020
0000
0000
0000
,
0000
0000
0000
0330
,
1001
0000
0000
0000
;

//---------------dance-double - ----------------
#NOTEDATA:;
#CHARTNAME:;
#STEPSTYPE:dance-double;
#DESCRIPTION:;
#CHARTSTYLE:;
#DIFFICULTY:Hard;
#METER:11;
#RADARVALUES:0.302476,0.404404,0.115738,0.224669,0.105526,311.000000,294.000000,17.000000,33.000000,0.000000,0.000000,0.000000,0.000000,0.000000,0.302476,0.404404,0.115738,0.224669,0.105526,311.000000,294.000000,17.000000,33.000000,0.000000,0.000000,0.000000,0.000000,0.000000;
#CREDIT:MILEN;
#DISPLAYBPM:110.000000;
#NOTES:
00000000
00000000
00000000
00000000
,
00000000
00000000
00000000
00000000
,
00000000
00000000
00000000
00000000
,
00000000
00000000
00000000
00000000
,
00000000
00000000
00000000
00000000
,
00020000
00000000
00032000
00000000
,
00023000
00000000
00000000
00000000
,
00032000
00000000
00000000
00000000
,
00020000
00000000
00000000
00033000
,
00010000
01000000
00010000
01000000
,
10000000
00100000
00010000
00001000
,
00001000
00000100
00001000
00000100
,
00000001
00000010
00001000
00001000
,
00010000
00100000
10000000
01000000
,
00010000
00001000
00000010
00000001
,
00000100
00001000
00010000
00000000
00001000
00010000
01000000
00000000
,
22000000
00000000
33000000
00000000
10000000
01000000
00100000
00010000
,
00110000
00000000
00000000
00100000
00001000
00000000
00000000
00000000
00010000
00000000
00000000
00001000
00100000
00000000
00000000
00000000
,
00010000
00000000
00000000
00100000
00001000
00000000
00000000
00000000
00010000
00000000
00000100
00000000
00001000
00000000
00000100
00000000
,
00001100
00000000
00000000
00000100
00010000
00000000
00000000
00000000
00001000
00000000
00000000
00010000
00000100
00000000
00000000
00000000
,
00001000
00000000
00000000
00000100
00010000
00000000
00000000
00000000
00001000
00000000
01000000
00000000
00010000
00000000
01000000
00000000
,
01010000
10000000
00100000
00010000
,
00001000
00000100
00000001
00001000
,
00001001
00000000
00000000
00000001
00000100
00000000
00000000
00000100
00000010
00000000
00000000
00000010
00010000
00000000
00000000
00010000
,
00001000
00000000
00000000
00001000
00100000
00000000
00000000
00100000
00010000
00000000
00000000
00010000
01000000
00000000
00000000
01000000
,
00100000
10000000
01000000
00100000
00020000
00000000
02030000
00000000
,
03010000
01000000
00001000
00010000
00000200
00000000
00002300
00000000
,
00003100
00001000
00000010
00000100
00000002
00000000
00002003
00000000
,
00003100
00000100
00000010
00000001
00000100
00001000
00010000
00100000
,
10000000
00000000
00000000
00000000
01000000
00000000
00000000
00000000
00010000
00001000
00010000
00000000
00022000
00000000
00033000
00000000
,
00001000
00000100
00001000
00000100
,
00000001
00000010
00001000
00010000
,
00010000
01000000
00010000
01000000
,
10000000
00100000
00010000
00010000
,
00001000
00000010
00000001
00000100
,
00001000
00010000
00100000
10000000
,
01000000
00010000
00001000
00000000
00010000
00001000
00000100
00000000
,
00000202
00000000
00000303
00000000
00000001
00000100
00000010
00001000
,
00001010
00000000
00000000
00000010
00010000
00000000
00000000
00000000
00001000
00000000
00000000
00010000
00000010
00000000
00000000
00000000
,
00001000
00000000
00000000
00000010
00010000
00000000
00000000
00000000
00001000
00000000
01000000
00000000
00010000
00000000
01000000
00000000
,
01010000
00000000
00000000
01000000
00001000
00000000
00000000
00000000
00010000
00000000
00000000
00001000
01000000
00000000
00000000
00000000
,
00010000
00000000
00000000
01000000
00001000
00000000
00000000
00000000
00010000
00000000
00000100
00000000
00001000
00000000
00000100
00000000
,
00001100
00000001
00000010
00001000
,
00010000
01000000
10000000
00010000
,
10010000
00000000
00000000
10000000
01000000
00000000
00000000
01000000
00100000
00000000
00000000
00100000
00001000
00000000
00000000
00001000
,
00010000
00000000
00000000
00010000
00000010
00000000
00000000
00000010
00001000
00000000
00000000
00001000
00000100
00000000
00000000
00000100
,
00000010
00000001
00000100
00000010
00002000
00000000
00003200
00000000
,
00001300
00000100
00010000
00001000
02000000
00000000
03020000
00000000
,
01030000
00010000
00100000
01000000
20000000
00000000
30020000
00000000
,
01030000
00000000
01000000
00000000
00100000
00000000
10000000
00000000
01000000
00000000
00010000
00000000
00001000
00000000
00000010
00000001
,
00000020
00000000
00000031
00001000
00000100
00010000
00001000
00000000
,
00010000
00001000
01000000
00010000
10000000
00000000
10010000
00010000
,
01000000
00000000
01001000
00001000
00010000
00000000
00010100
00000100
,
00010000
00001000
00000100
00000010
00000200
00000000
00000000
00000302
,
00000000
00000013
00001000
00010000
00001000
00010000
01000000
10000000
,
00000000
00100000
00010000
00001000
00010000
00001000
00000100
00000001
,
00000000
00000000
00000010
00000000
00001000
00010000
00001000
00000000
00100000
00000000
00010000
00000000
01000000
00000000
10000000
00000000
,
00000000
10000000
01000000
00100000
00010000
00001000
00011000
00000000
,
00020020
00000000
00030000
00000000
,
00000200
00000000
00000030
00000000
,
00000002
00000000
00000300
00000000
,
00000020
00000000
00000003
00000000
,
00002030
00000000
00000000
00000000
,
00000000
00000000
00000000
00000000
,
00020000
00000000
00000000
00000000
,
00000000
00000000
00000000
00033000
,
00011000
00000000
00000000
00000000
;
