#VERSION:0.83;
#TITLE:CLICK;
#SUBTITLE:;
#ARTIST:ClariS;
#TITLETRANSLIT:;
#SUBTITLETRANSLIT:;
#ARTISTTRANSLIT:;
#GENRE:XROSS;
#ORIGIN:;
#CREDIT:MUINELIM;
#BANNER:CLICK.png;
#BACKGROUND:CLICK-bg.png;
#PREVIEWVID:;
#JACKET:CLICK-jacket.png;
#CDIMAGE:;
#DISCIMAGE:;
#LYRICSPATH:;
#CDTITLE:;
#MUSIC:CLICK.mp3;
#OFFSET:-0.167000;
#SAMPLESTART:46.830212;
#SAMPLELENGTH:10.505871;
#SELECTABLE:YES;
#DISPLAYBPM:135.000000;
#BPMS:0.000=135.010;
#STOPS:;
#DELAYS:;
#WARPS:;
#TIMESIGNATURES:0.000=4=4;
#TICKCOUNTS:0.000=1;
#COMBOS:0.000=1;
#SPEEDS:0.000=1.000=0.000=0;
#SCROLLS:0.000=1.000;
#FAKES:;
#LABELS:0.000=Song Start;
#BGCHANGES:0.000=CLICK.avi=1.000=0=0=0=StretchNoLoop====,
99999=-nosongbg-=1.000=0=0=0 // don't automatically add -songbackground-
;
#KEYSOUNDS:;
#ATTACKS:
;

//---------------dance-single - ----------------
#NOTEDATA:;
#CHARTNAME:;
#STEPSTYPE:dance-single;
#DESCRIPTION:;
#CHARTSTYLE:;
#DIFFICULTY:Beginner;
#METER:2;
#RADARVALUES:0.077660,0.135906,0.000000,0.022189,0.000000,49.000000,49.000000,0.000000,2.000000,0.000000,0.000000,0.000000,0.000000,0.000000,0.077660,0.135906,0.000000,0.022189,0.000000,49.000000,49.000000,0.000000,2.000000,0.000000,0.000000,0.000000,0.000000,0.000000;
#CREDIT:MILEN;
#DISPLAYBPM:135.000000;
#NOTES:
0000
0000
0000
0000
,
0000
0000
0000
0000
,
0000
0000
0000
0000
,
0000
0000
0000
0000
,
0000
0000
0000
0000
,
0010
0000
0000
0000
,
1000
0000
0000
0000
,
0001
0000
0000
0000
,
0100
0000
0100
0000
,
0010
0000
0000
0000
,
1000
0000
0000
0000
,
0100
0000
0000
0000
,
0010
0000
0000
0000
,
0001
0000
0000
0000
,
0100
0000
0000
0000
,
0010
0000
0100
0000
,
0010
0000
0000
0000
,
1000
0000
0000
0000
,
0001
0000
0000
0000
,
1000
0000
0001
0000
,
1000
0000
0000
0000
,
0001
0000
0000
0000
,
1000
0000
0000
0000
,
0010
0000
0000
0010
,
0010
0000
0000
0010
,
0020
0000
0000
0000
,
0030
0000
0000
0000
,
0010
0000
0000
0000
,
0100
0000
0000
0000
,
0001
0000
0000
0000
,
1000
0000
0000
0000
,
0010
0000
0000
0000
,
0100
0000
0000
0000
,
0001
0000
0000
0000
,
1000
0000
0000
0000
,
0100
0000
0000
0000
,
0010
0000
0000
0000
,
0001
0000
0000
0000
,
1000
0000
0000
0000
,
0010
0000
0000
0000
,
0100
0000
0000
0000
,
0001
0000
0000
0000
,
1000
0000
0000
0000
,
0100
0000
0000
0000
,
0010
0000
0000
0000
,
0100
0000
0000
0000
,
0010
0000
0000
0000
,
0001
0000
0001
0002
,
0000
0000
0000
0000
,
0003
0000
0000
0000
;

//---------------dance-single - ----------------
#NOTEDATA:;
#CHARTNAME:;
#STEPSTYPE:dance-single;
#DESCRIPTION:;
#CHARTSTYLE:;
#DIFFICULTY:Easy;
#METER:4;
#RADARVALUES:0.164830,0.271811,0.077660,0.077660,0.000000,104.000000,97.000000,7.000000,7.000000,0.000000,0.000000,0.000000,0.000000,0.000000,0.164830,0.271811,0.077660,0.077660,0.000000,104.000000,97.000000,7.000000,7.000000,0.000000,0.000000,0.000000,0.000000,0.000000;
#CREDIT:MILEN;
#DISPLAYBPM:135.000000;
#NOTES:
0000
0000
0000
0000
,
0000
0000
0000
0000
,
0000
0000
0000
0000
,
0000
0000
0000
0000
,
0000
0000
0000
0000
,
0010
0000
0010
0000
,
1000
0000
1000
0000
,
0001
0000
0001
0000
,
0100
0000
0100
0000
,
0010
0000
1000
0000
,
0001
0000
0100
0000
,
0010
0000
0010
0000
,
0010
0000
1000
0000
,
0100
0000
0010
0000
,
0001
0000
0100
0000
,
0010
0000
0100
0100
,
0100
0000
0001
0000
,
1000
0000
0001
0000
,
1000
0001
2000
3000
,
0001
0000
1000
0000
,
0002
0000
0003
0000
,
0100
0000
0010
0000
,
0100
0010
0200
0300
,
0110
0000
0000
0110
,
0110
0000
0000
0110
,
0220
0000
0000
0000
,
0330
0000
0000
0000
,
0010
0000
1000
0000
,
0010
1000
0100
0000
,
0010
0000
0001
0000
,
0010
0001
0100
0000
,
0010
0000
0100
0000
,
0010
1000
0001
0000
,
0100
0000
0010
0000
,
0100
0001
1000
0000
,
0010
0000
0001
0000
,
0100
0000
1000
0000
,
0010
0000
1000
0000
,
0100
0000
0001
0000
,
0010
0000
0100
0000
,
0010
1000
0100
0000
,
0010
0000
0100
0000
,
0010
0001
0100
0000
,
0110
0000
1000
1000
,
0010
0000
0001
0001
,
0100
0000
1000
1000
,
0010
0001
0100
0100
,
1000
0000
0001
2002
,
0000
0000
0000
0000
,
3003
0000
0000
0000
;

//---------------dance-single - ----------------
#NOTEDATA:;
#CHARTNAME:;
#STEPSTYPE:dance-single;
#DESCRIPTION:;
#CHARTSTYLE:;
#DIFFICULTY:Medium;
#METER:7;
#RADARVALUES:0.285283,0.353355,0.055472,0.244076,0.000000,180.000000,175.000000,5.000000,22.000000,0.000000,0.000000,0.000000,0.000000,0.000000,0.285283,0.353355,0.055472,0.244076,0.000000,180.000000,175.000000,5.000000,22.000000,0.000000,0.000000,0.000000,0.000000,0.000000;
#CREDIT:MILEN;
#DISPLAYBPM:135.000000;
#NOTES:
0000
0000
0000
0000
,
0000
0000
0000
0000
,
0000
0000
0000
0000
,
0000
0000
0000
0000
,
0000
0000
0000
0000
,
1000
0001
2000
3000
,
0001
1000
0002
0003
,
0100
0010
0200
0300
,
0010
0000
0100
0000
0010
0010
0100
0000
,
0010
1000
0010
1000
,
0001
0100
0001
0100
,
0010
0000
1000
0000
0001
0000
0100
0200
,
0000
0300
0010
1000
,
0100
0010
0001
0100
,
0010
0100
0010
1000
,
0001
0000
0010
0000
0100
0000
1000
1000
,
0000
0002
0100
0103
,
0100
0010
0100
0000
0001
0000
1000
0000
,
0010
0100
0010
0000
1000
0000
0001
0000
,
0100
0010
0100
0000
0001
0000
1000
0000
,
0020
0000
0000
0000
0030
0000
0100
0001
,
0100
0010
1000
0100
,
0010
0000
0010
0020
0000
0000
0031
0100
,
0000
0001
1000
0000
0100
0000
1000
0010
,
0000
1000
0001
0000
0010
0000
0001
2002
,
0000
0000
0000
0000
,
3003
0000
0000
0000
,
1000
0100
0010
0001
,
1000
0010
1000
0000
0200
0000
0300
0000
,
1000
0001
0010
0100
,
1000
0010
0100
0000
0001
0100
0010
0000
,
0010
1000
0100
0010
,
0001
0100
0001
0000
0020
0000
0030
0000
,
0100
0010
0001
0100
,
0010
1000
0010
1000
0020
0000
0030
0000
,
1000
0001
0100
0010
,
1000
0001
0100
0010
,
2000
3100
0002
0013
,
2000
3200
0302
0023
,
1030
0001
1000
0001
,
0010
0100
0010
0100
0010
0000
0001
0100
,
1000
0010
0220
0330
,
1000
0001
1000
0010
,
0100
0001
0100
0000
0010
0000
0010
0000
,
0100
0010
1000
0000
0100
0000
0100
0000
,
0010
0001
0010
0000
0001
0000
0001
0000
,
1000
0010
0100
0000
0001
0100
0010
0000
,
1010
0000
0000
0101
0000
0000
2002
0000
,
0000
0000
0000
0000
,
3003
0000
0000
0000
;

//---------------dance-single - ----------------
#NOTEDATA:;
#CHARTNAME:;
#STEPSTYPE:dance-single;
#DESCRIPTION:;
#CHARTSTYLE:;
#DIFFICULTY:Hard;
#METER:8;
#RADARVALUES:0.383547,0.462080,0.177510,0.244076,0.099849,242.000000,226.000000,16.000000,22.000000,0.000000,0.000000,0.000000,0.000000,0.000000,0.383547,0.462080,0.177510,0.244076,0.099849,242.000000,226.000000,16.000000,22.000000,0.000000,0.000000,0.000000,0.000000,0.000000;
#CREDIT:MILEN;
#DISPLAYBPM:135.000000;
#NOTES:
0000
0000
0000
0000
,
0000
0000
0000
0000
,
0000
0000
0000
0000
,
0000
0000
0000
0000
,
0000
0000
0000
0000
,
0001
0000
0000
0001
0000
0000
0001
0000
0100
0000
0000
0000
0010
0000
0000
0000
,
1000
0000
0000
1000
0000
0000
1000
0000
0010
0000
0000
0000
0100
0000
0000
0000
,
0001
0000
0000
0001
0000
0000
0001
0000
0100
0000
0000
0000
0010
0000
0000
0000
,
1000
0100
0010
0000
0001
0100
0010
1000
,
1002
0100
0100
0103
,
2000
0100
0100
3100
,
0002
0013
2000
3010
,
0002
0000
1003
0000
1000
0100
0010
0001
,
0201
0010
1000
0310
,
1020
0100
0001
0130
,
2000
0000
3010
0000
0002
0000
0103
0100
,
0000
1001
0110
1001
,
1000
0000
0000
0010
0000
0000
0100
0000
0000
0000
0100
0000
0010
0000
1000
0000
,
0100
0000
0000
0010
0000
0000
0002
0000
0000
0000
0000
0000
0103
0000
0100
0000
,
0010
0000
0000
1000
0000
0000
0001
0000
0000
0000
0010
0000
0100
0000
2000
0000
,
0000
0000
0001
0000
0001
0000
3001
0001
,
0100
0000
0000
0010
0000
0000
1000
0000
0000
0000
0001
0000
0010
0000
0000
0000
,
0100
0000
0000
1000
0000
0000
0010
0000
0000
0000
0100
0000
0001
0000
0011
0000
,
0000
0001
1000
0001
0100
0000
0010
1010
,
0000
0010
0100
0010
0100
0001
1000
2002
,
0000
0000
0000
0000
,
3003
0000
0000
0000
,
1000
0100
0010
0000
0001
0100
0010
0000
,
1000
0001
0010
0100
2000
0000
3010
0000
,
0010
0100
0001
0000
1000
0100
0010
0000
,
0001
0100
0010
1000
0002
0000
0013
0000
,
0010
0100
1000
0000
0010
0100
0001
0000
,
1000
0100
0010
0001
0200
0000
0310
0010
,
1000
0000
0000
0001
0000
0000
0100
0000
0110
0000
0000
0000
0010
0000
1000
0000
,
0001
0000
0100
0010
0000
0010
0100
0000
0002
0000
0000
0000
2003
0000
0000
0000
,
3010
1000
0100
0000
0010
0001
0100
0000
,
0010
1000
0001
0100
0100
0000
0110
0000
,
0010
1000
0001
0100
0010
1000
0001
0010
,
0100
1000
0100
0001
0100
0010
0002
0000
,
1003
0010
0001
0100
,
1000
0000
0010
0100
0110
0000
0010
1000
,
0001
0000
0000
0100
0000
0000
1000
0000
0020
0000
0000
0000
0130
0000
0100
0000
,
0001
0000
0000
0010
0000
0000
1000
0000
0100
0000
0000
0010
0000
0000
0001
0000
,
0100
0000
0000
0100
0000
0000
0100
0000
0010
0000
0000
0000
1000
0000
0000
0000
,
0010
0000
0000
0010
0000
0000
0010
0000
0100
0000
0000
0000
0001
0000
0000
0000
,
0100
0000
0000
0010
0000
0000
0110
0000
0000
0000
0001
0000
1000
0000
0001
0000
,
0100
0000
0100
0000
1000
0000
0000
0010
0000
0000
0100
0000
0001
0000
1000
0000
,
1010
0000
0000
0101
0000
0000
2002
0000
,
0000
0000
0000
0000
,
3003
0000
0000
0000
;

//---------------dance-double - ----------------
#NOTEDATA:;
#CHARTNAME:;
#STEPSTYPE:dance-double;
#DESCRIPTION:;
#CHARTSTYLE:;
#DIFFICULTY:Easy;
#METER:4;
#RADARVALUES:0.155321,0.217449,0.088755,0.099849,0.000000,98.000000,90.000000,8.000000,9.000000,0.000000,0.000000,0.000000,0.000000,0.000000,0.155321,0.217449,0.088755,0.099849,0.000000,98.000000,90.000000,8.000000,9.000000,0.000000,0.000000,0.000000,0.000000,0.000000;
#CREDIT:MILEN;
#DISPLAYBPM:135.000000;
#NOTES:
00000000
00000000
00000000
00000000
,
00000000
00000000
00000000
00000000
,
00000000
00000000
00000000
00000000
,
00000000
00000000
00000000
00000000
,
00022000
00000000
00000000
00033000
,
00010000
00000000
00000100
00000000
,
00010000
00000000
00010000
00000000
,
00001000
00000000
01000000
00000000
,
00001000
00000000
00001000
00000000
,
00010000
00000000
00000100
00000000
,
00001000
00000000
00000001
00000000
,
00000100
00000000
00000010
00000000
,
00010000
00000000
00001000
00000000
,
00100000
00000000
00010000
00000000
,
01000000
00000000
00100000
00000000
,
10000000
00000000
00010000
00000000
,
10010000
00000000
01000000
00000000
,
00100000
00000000
00010000
00000000
,
00001000
00000000
00020000
00030000
,
00001000
00000000
00010000
00000000
,
00002000
00000000
00003000
00000000
,
00010000
00000000
00000100
00000000
,
00000010
00000010
00000020
00000030
,
00000110
00000000
00000000
00000000
,
00011000
00000000
00000000
00000000
,
02200000
00000000
00000000
00000000
,
03300000
00100000
00100000
00100000
,
00100000
00000000
10000000
00000000
,
01000000
00000000
00010000
00000000
,
00001000
00000000
00000010
00000000
,
00000001
00000000
00000100
00000000
,
00001000
00000000
00010000
00000000
,
00100000
00000000
00010000
00000000
,
00001000
00000000
00000010
00000000
,
00001000
00000000
00011000
00000000
,
00010000
00000000
01000000
00000000
,
00010000
00000000
00001000
00000000
,
00000100
00000000
00000001
00000000
,
00000010
00000000
00001000
00000000
,
00010000
00000000
01000000
00000000
,
10000000
00000000
00100000
00000000
,
00010000
00000000
00001000
00000000
,
00000100
00000000
00000001
00000000
,
00001001
00000000
00001000
00000100
,
00010000
00000000
00001000
01000000
,
00010000
00000000
10000000
00100000
,
01000000
00000000
00010000
00001000
,
00000010
00000000
00000010
00002002
,
00000000
00000000
00000000
00000000
,
00003003
00000000
00000000
00000000
;

//---------------dance-double - ----------------
#NOTEDATA:;
#CHARTNAME:;
#STEPSTYPE:dance-double;
#DESCRIPTION:;
#CHARTSTYLE:;
#DIFFICULTY:Medium;
#METER:7;
#RADARVALUES:0.297962,0.353355,0.122038,0.399396,0.000000,188.000000,177.000000,11.000000,36.000000,0.000000,0.000000,0.000000,0.000000,0.000000,0.297962,0.353355,0.122038,0.399396,0.000000,188.000000,177.000000,11.000000,36.000000,0.000000,0.000000,0.000000,0.000000,0.000000;
#CREDIT:MILEN;
#DISPLAYBPM:135.000000;
#NOTES:
00000000
00000000
00000000
00000000
,
00000000
00000000
00000000
00000000
,
00000000
00000000
00000000
00000000
,
00000000
00000000
00000000
00000000
,
00022000
00000000
00000000
00033000
,
00001000
00010000
00000200
00000300
,
00010000
00001000
02000000
03000000
,
00001000
00010000
00000020
00000030
,
00010000
00000000
00001000
00000000
00100000
00100000
00100000
00000000
,
00010000
01000000
00010000
01000000
,
00001000
00010000
00001000
00010000
,
00000100
00001000
00000001
00000100
,
00000220
00000330
00000010
00001000
,
00000010
00001000
00000100
00010000
,
00000100
00010000
00001000
00100000
,
00010000
01000000
00100000
02200000
,
03300000
20000000
32000000
03020000
,
00031000
00010000
00001000
00000000
00000100
00000000
00000010
00000000
,
00010000
00001000
00010000
00000000
00100000
00000000
01000000
00000000
,
00001000
00010000
00001000
00000000
00000100
00000000
00000001
00000000
,
00002002
00000000
00000000
00000000
00003003
00000000
00001000
00000100
,
00001000
00000010
00010000
00001000
,
00100000
00000000
00010000
00000000
01010000
00000000
10000000
01000000
,
00000000
10000000
00100000
00000000
00010000
00000000
00001000
00010000
,
00000000
00000100
00010000
00000000
00000010
00000000
00002000
00000002
,
00000000
00000000
00000000
00000000
,
00003003
00000002
00000203
00002300
,
00013000
00001000
00100000
01000000
,
10000000
00100000
01000000
00000000
02020000
00000000
03030000
00000000
,
00010000
00100000
00001000
00010000
,
00000100
00001000
00000010
00000000
00001000
00000100
00000010
00000000
,
00000001
00000100
00001000
00010000
,
00100000
10000000
01000000
00000000
22000000
00000000
33000000
00000000
,
10000000
00100000
00010000
00001000
,
00000100
00000001
00000100
00000001
00000200
00000000
00000300
00000000
,
00000010
00010000
00001000
00100000
,
00010000
01000000
00001000
00010000
,
00000200
00000320
00000032
00000203
,
00002300
00023000
00230000
20300000
,
30010000
01000000
00001000
00010000
,
00000100
00001000
00000100
00001000
00000100
00000000
00000010
00000000
,
00000001
00000100
00002200
00003300
,
00001000
00010000
00100000
10000000
,
01000000
00100000
01000000
00000000
00010000
00000000
00001000
00000000
,
00000010
00000100
00000010
00000000
00001000
00000000
00010000
00000000
,
01000000
00100000
01000000
00000000
00010000
00000000
00001000
00000000
,
00000010
00000100
00000010
00000000
00000001
00000100
00001000
00000000
,
00011000
00000000
00000000
01001000
00000000
00000000
00020020
00000000
,
00000000
00000000
00000000
00000000
,
00030030
00000000
00000000
00000000
;

//---------------dance-double - ----------------
#NOTEDATA:;
#CHARTNAME:;
#STEPSTYPE:dance-double;
#DESCRIPTION:;
#CHARTSTYLE:;
#DIFFICULTY:Hard;
#METER:9;
#RADARVALUES:0.375623,0.434898,0.166415,0.410491,0.199698,237.000000,222.000000,15.000000,37.000000,0.000000,0.000000,0.000000,0.000000,0.000000,0.375623,0.434898,0.166415,0.410491,0.199698,237.000000,222.000000,15.000000,37.000000,0.000000,0.000000,0.000000,0.000000,0.000000;
#CREDIT:MILEN;
#DISPLAYBPM:135.000000;
#NOTES:
// measure 0
00000000
00000000
00000000
00000000
,  // measure 1
00000000
00000000
00000000
00000000
,  // measure 2
00000000
00000000
00000000
00000000
,  // measure 3
00000000
00000000
00000000
00000000
,  // measure 4
00022000
00000000
00000000
00033000
,  // measure 5
00001000
00000000
00000000
00010000
00000000
00000000
00000200
00000000
00000000
00000000
00000000
00000000
00010300
00000000
00000000
00000000
,  // measure 6
00010000
00000000
00000000
00001000
00000000
00000000
02000000
00000000
00000000
00000000
00000000
00000000
03001000
00000000
00000000
00000000
,  // measure 7
00001000
00000000
00000000
00010000
00000000
00000000
00000020
00000000
00000000
00000000
00000000
00000000
00010030
00000000
00000000
00000000
,  // measure 8
00010000
00000000
00001000
00000000
00100000
00010000
00000000
00010000
00000000
00000000
01000000
00000000
00100000
01000000
00100000
00000000
,  // measure 9
10000000
01000000
00010000
01000000
,  // measure 10
10000000
01000000
00010000
01000000
,  // measure 11
20000000
30100000
00020000
00031000
,  // measure 12
00000020
00000000
00000031
00000000
00000001
00000100
00001000
00000100
,  // measure 13
00000002
00000013
00002000
00013000
,  // measure 14
00200000
00000000
10300000
00000000
10000000
01000000
00010000
01000000
,  // measure 15
20000000
00000000
30200000
00000000
00320000
00000000
00001000
00031000
,  // measure 16
00000000
00101000
00010010
00011000
,  // measure 17
00001000
00000000
00000000
00100000
00010000
00000000
00000000
00000000
00100000
00000000
00000000
00001000
00010000
00000000
00000000
00000000
,  // measure 18
00001000
00000000
00000000
00100000
00010000
00000000
00000000
00010000
01000000
00000000
00000000
01000000
00001000
00000000
00000000
00000000
,  // measure 19
00010000
00000000
00000000
00000010
00001000
00000000
00000000
00000000
00000010
00000000
00000000
00010000
00001000
00000000
00000000
00000000
,  // measure 20
00021000
00000100
01000000
00030100
,  // measure 21
00010000
00000000
00000000
00001000
00000010
00000000
00000000
00000000
00000001
00000000
00000000
00000100
00001000
00000000
00000000
00000000
,  // measure 22
00010000
00000000
00000000
00100000
10000000
00000000
00000000
10000000
01000000
00000000
00000000
01000000
00100000
00000000
00110000
00000000
,  // measure 23
00000000
00010000
01000000
00001000
00010000
00000000
00000100
00001100
,  // measure 24
00000000
00001000
00000010
00010000
00001000
00000000
00010000
00022000
,  // measure 25
00000000
00000000
00000000
00000000
,  // measure 26
00033000
00020000
02030000
23000000
,  // measure 27
30100000
00000000
00010000
00000000
00001000
00000000
00100000
01000000
,  // measure 28
10000000
00100000
01000000
00010000
10000000
00000000
01000000
00000000
,  // measure 29
00010000
00001000
00200000
00000000
00301000
00010000
00000020
00000000
,  // measure 30
00001000
00000000
00000000
00001000
00000000
00000000
00001000
00000000
00001030
00000000
00000000
00000000
00001001
00000000
00000000
00000000
,  // measure 31
00000100
00000000
00001000
00000000
00010000
00000000
00000100
00000010
,  // measure 32
00000001
00000100
00000010
00001000
00000001
00000000
00000010
00000000
,  // measure 33
00001000
00010000
00000200
00000000
00010300
00001000
02000000
00000000
,  // measure 34
00010000
00000000
00000000
00010000
00000000
00000000
00010000
00000000
03010000
00000000
00000000
00000000
10010000
00000000
00000000
00000000
,  // measure 35
20000000
31000000
00020000
00031000
,  // measure 36
00000010
00000000
00000000
00000001
00000000
00000000
00000100
00000000
00000220
00000000
00000000
00000000
00000330
00000000
00000000
00000000
,  // measure 37
00000010
00000000
00000000
00001000
00000100
00000000
00000000
00000000
00001000
00000000
00000000
00000010
00000100
00000000
00000000
00000000
,  // measure 38
00000010
00000000
00000000
00001000
00000100
00000000
00000000
00010000
00001000
00000000
00000000
01000000
00010000
00000000
00000000
00000000
,  // measure 39
10000000
00100000
00020000
00000000
00031000
00000100
00000002
00000000
,  // measure 40
00000010
00000000
00000000
00000010
00000000
00000000
00000010
00000000
00000013
00000000
00000000
00000000
00000010
00000000
00000100
00000000
,  // measure 41
00001000
00000000
00000000
00010000
00000000
00000000
01000000
00000000
02200000
00000000
00000000
00000000
03300000
00000000
00100000
00000000
,  // measure 42
10000000
00000000
00000000
01000000
00000000
00000000
00010000
00000000
00001000
00000000
00000000
00000010
00000000
00000000
00000001
00000000
,  // measure 43
00000100
00000000
00000000
00000010
00000000
00000000
00002000
00000000
00000000
00000000
00000000
00000000
00003100
00000000
00000000
00000000
,  // measure 44
00000100
00000000
00000000
00010000
00000000
00000000
00002000
00000000
00000000
00000000
00000000
00000000
01003000
00000000
00000000
00000000
,  // measure 45
01000000
00000000
00000000
00010000
00000000
00000000
20000000
00000000
00000000
00000000
00000000
00000000
30100000
00000000
00000000
00000000
,  // measure 46
00100000
00000000
01000000
00000000
00010000
00100000
00000000
00100000
00000000
00000000
00001000
00000000
00010000
00001000
00010000
00000000
,  // measure 47
00011000
00000000
00000000
00101000
00000000
00000000
00020200
00000000
,  // measure 48
00000000
00000000
00000000
00000000
,  // measure 49
00030300
00000000
00000000
00000000
;
