#VERSION:0.83;
#TITLE:CLAP;
#SUBTITLE:;
#ARTIST:Seventeen;
#TITLETRANSLIT:;
#SUBTITLETRANSLIT:;
#ARTISTTRANSLIT:;
#GENRE:K-POP;
#ORIGIN:;
#CREDIT:MILEN;
#BANNER:CLAP.png;
#BACKGROUND:CLAP-bg.png;
#PREVIEWVID:;
#JACKET:CLAP-jacket.png;
#CDIMAGE:;
#DISCIMAGE:;
#LYRICSPATH:;
#CDTITLE:;
#MUSIC:CLAP.ogg;
#OFFSET:-0.225000;
#SAMPLESTART:41.024998;
#SAMPLELENGTH:12.000004;
#SELECTABLE:YES;
#BPMS:0.000=100.000;
#STOPS:;
#DELAYS:;
#WARPS:;
#TIMESIGNATURES:0.000=4=4;
#TICKCOUNTS:0.000=4;
#COMBOS:0.000=1;
#SPEEDS:0.000=1.000=0.000=0;
#SCROLLS:0.000=1.000;
#FAKES:;
#LABELS:0.000=Song Start;
#BGCHANGES:0.000=CLAP.avi=1.000=0=0=0=StretchNoLoop====,
99999=-nosongbg-=1.000=0=0=0 // don't automatically add -songbackground-
;
#KEYSOUNDS:;
#ATTACKS:
;

//---------------dance-single - ----------------
#NOTEDATA:;
#CHARTNAME:;
#STEPSTYPE:dance-single;
#DESCRIPTION:;
#CHARTSTYLE:;
#DIFFICULTY:Beginner;
#METER:3;
#RADARVALUES:0.110923,0.161630,0.055461,0.007923,0.000000,98.000000,91.000000,7.000000,1.000000,0.000000,0.000000,0.000000,0.000000,0.000000,0.110923,0.161630,0.055461,0.007923,0.000000,98.000000,91.000000,7.000000,1.000000,0.000000,0.000000,0.000000,0.000000,0.000000;
#CREDIT:MILEN;
#NOTES:
0000
0000
0000
0000
,
0000
0000
0000
0000
,
0000
0000
0000
0000
,
0000
0000
0000
0000
,
1000
0000
1000
0000
,
0001
0000
0001
0000
,
1000
0000
0001
0000
,
1000
0000
0001
0001
,
0001
0000
0100
0000
,
0010
0000
1000
0000
,
0001
0000
0100
0000
,
0010
0000
1000
1000
,
1000
0000
0000
0000
,
0100
0000
0000
0000
,
0010
0000
0000
0000
,
0001
0001
0001
0001
,
0000
0000
0000
0000
,
1000
0000
0100
0000
,
1000
0000
1000
0000
,
0001
0000
0010
0000
,
0001
0000
0001
0000
,
1000
0000
0100
0000
,
0010
0000
0001
0000
,
0100
0000
0010
0000
,
0100
0100
0100
0000
,
1001
0000
0000
0000
,
1001
0000
0000
0100
,
0100
0000
0001
0000
,
1000
0000
0010
0000
,
0100
0000
0100
0000
,
0100
0000
0100
0100
,
0100
0000
0000
0000
,
0001
0000
0000
0000
,
0010
0000
0000
0000
,
1000
0000
0100
0100
,
0100
0000
0000
0000
,
0100
0000
0100
0000
,
1001
0000
0000
0000
,
1001
0000
0000
0000
,
1001
0000
1001
0000
,
1001
0000
0000
0000
,
0001
0000
0100
0000
,
0001
0000
0001
0000
,
1000
0000
0010
0000
,
1000
0000
1000
0000
,
0001
0000
0100
0000
,
0010
0000
1000
0000
,
0001
0000
0100
0000
,
1000
0000
0010
0000
,
0001
0001
0001
0000
,
1000
1000
1000
2000
,
3000
0000
0000
0000
;

//---------------dance-single - ----------------
#NOTEDATA:;
#CHARTNAME:;
#STEPSTYPE:dance-single;
#DESCRIPTION:;
#CHARTSTYLE:;
#DIFFICULTY:Easy;
#METER:5;
#RADARVALUES:0.177703,0.201047,0.110923,0.087154,0.000000,157.000000,143.000000,14.000000,11.000000,0.000000,0.000000,0.000000,0.000000,0.000000,0.177703,0.201047,0.110923,0.087154,0.000000,157.000000,143.000000,14.000000,11.000000,0.000000,0.000000,0.000000,0.000000,0.000000;
#CREDIT:MILEN;
#NOTES:
0000
0000
0000
0000
,
0000
0000
0000
0000
,
0000
0000
0000
0000
,
0000
0000
0000
0000
,
1000
0100
1000
0000
,
0001
0010
0001
0000
,
1000
0001
1000
0010
,
0100
0010
0110
0000
,
1000
0100
0010
0000
,
0001
0010
0100
0000
,
1000
0000
0010
0000
,
0001
0000
0100
0100
,
1000
0001
2000
3000
,
0001
1000
0002
0003
,
0100
0010
0200
0300
,
0010
0100
0010
0220
,
0000
0330
0000
0000
,
1000
0100
0010
0001
,
1000
0100
1001
0000
,
0001
0010
0100
1000
,
0001
0010
1001
0000
,
1000
0010
0001
0000
,
0001
0100
1000
0000
,
1000
0001
1000
0010
,
0100
0010
0110
0000
,
2000
3000
0000
0000
,
0002
0003
0000
1001
,
0100
1000
0100
1000
,
0001
0010
0001
0010
,
0001
0001
0100
0100
,
1000
1000
0010
0010
,
0010
0001
0100
0000
,
0010
1000
0100
0000
,
1000
0001
0010
0000
,
0001
1000
0100
0000
,
1001
0000
0000
0000
,
1001
0100
0100
0100
,
1000
0010
1000
0100
,
1000
0010
1000
0100
,
0000
0100
0001
0010
,
0220
0000
0000
0330
,
1000
0010
0100
0001
,
1000
0010
1001
0000
,
0001
0100
0010
1000
,
0001
0100
1001
0000
,
1000
0100
0001
0000
,
0001
0010
1000
0000
,
1000
0001
1000
0100
,
0010
0100
0110
0000
,
0002
0003
0000
0000
,
2000
3000
1001
1001
;

//---------------dance-double - ----------------
#NOTEDATA:;
#CHARTNAME:;
#STEPSTYPE:dance-double;
#DESCRIPTION:;
#CHARTSTYLE:;
#DIFFICULTY:Easy;
#METER:5;
#RADARVALUES:0.173175,0.201047,0.087154,0.087154,0.000000,153.000000,142.000000,11.000000,11.000000,0.000000,0.000000,0.000000,0.000000,0.000000,0.173175,0.201047,0.087154,0.087154,0.000000,153.000000,142.000000,11.000000,11.000000,0.000000,0.000000,0.000000,0.000000,0.000000;
#CREDIT:MILEN;
#NOTES:
00000000
00000000
00000000
00000000
,
00000000
00000000
00000000
00000000
,
00000000
00000000
00000000
00000000
,
00000000
00000000
00000000
00000000
,
00001000
01000000
00001000
00000000
,
00010000
00000010
00010000
00000000
,
00001000
00100000
00001000
00010000
,
00000100
00010000
00011000
00000000
,
00001000
00010000
01000000
00000000
,
00010000
00001000
00000100
00000000
,
00000001
00000000
00000010
00000000
,
00001000
00000000
00010000
00010000
,
01000000
10000000
02000000
03000000
,
00100000
00010000
00200000
00300000
,
00001000
00010000
00002000
00003000
,
00000100
00000001
00000100
00000220
,
00000000
00000330
00000000
00000000
,
00000001
00000010
00001000
00010000
,
00001000
00010000
01000000
00000000
,
10000000
00100000
00010000
00001000
,
00010000
00001000
00000100
00000000
,
00000001
00000010
00001000
00000000
,
00010000
00100000
10000000
00000000
,
01000000
00010000
00001000
00010000
,
00001000
00000100
00000110
00000000
,
00000002
00000003
00000000
00000000
,
00002000
00003000
00000000
00001001
,
00000001
00000010
00000001
00000010
,
00000100
00010000
00000100
00010000
,
00000100
00000100
00000010
00000010
,
00001000
00001000
00010000
00010000
,
01000000
10000000
00100000
00000000
,
01000000
00010000
00100000
00000000
,
01000000
00010000
00001000
00000000
,
00000100
00001000
00010000
00000000
,
00011000
00000000
00000000
00000000
,
00011000
00000010
00000010
00000010
,
00000001
00000100
00001000
00000000
,
00010000
00100000
10000000
00000000
,
01000000
00010000
00001000
00010000
,
00022000
00000000
00000000
00033000
,
00001000
00100000
00010000
01000000
,
00001000
00010000
00011000
00000000
,
00010000
00000100
00001000
00000010
,
00010000
00001000
00011000
00000000
,
00010000
00001000
00000010
00000000
,
00001000
00010000
01000000
00000000
,
00010000
00001000
00000100
00000001
,
00000010
00000100
00000110
00000000
,
00002000
00003000
00000000
00000000
,
00020000
00030000
01000000
01100000
;

//---------------dance-single - ----------------
#NOTEDATA:;
#CHARTNAME:;
#STEPSTYPE:dance-single;
#DESCRIPTION:;
#CHARTSTYLE:;
#DIFFICULTY:Medium;
#METER:7;
#RADARVALUES:0.288625,0.363668,0.237692,0.103000,0.000000,255.000000,225.000000,30.000000,13.000000,0.000000,0.000000,0.000000,0.000000,0.000000,0.288625,0.363668,0.237692,0.103000,0.000000,255.000000,225.000000,30.000000,13.000000,0.000000,0.000000,0.000000,0.000000,0.000000;
#CREDIT:MILEN;
#NOTES:
0000
0000
0000
0000
,
0000
0000
0000
0000
,
0000
0000
0000
0000
,
0000
0000
0100
0100
,
1000
0100
0010
0000
1001
0000
0000
0001
,
0010
0100
0010
0000
1001
0000
0100
0000
,
1000
0010
0100
0000
0010
0000
0100
0000
,
0001
0100
0010
0000
0100
0000
0110
0000
,
1000
0000
1000
0000
0001
1000
0100
0000
,
0001
0000
0001
0000
1000
0001
0010
0000
,
2002
0000
3003
0000
1000
0010
0100
0000
,
0001
0100
0010
0000
0110
0000
0110
0000
,
1000
0100
0010
0001
,
0100
0010
1000
0100
,
0010
0001
0100
0010
,
1010
0101
2002
0000
,
3003
0000
1000
0001
0200
0000
0320
0000
,
1030
0100
1000
0000
0001
0100
0001
0000
,
1100
0000
1000
1000
1000
1000
0000
0000
,
0001
0010
0001
0000
1000
0010
1000
0000
,
0011
0000
0001
0001
0001
0001
0000
0000
,
1000
0010
0100
0000
0001
0100
0010
0000
,
1000
0100
0010
0000
0001
0010
0100
0000
,
1000
0001
1000
0000
0010
0100
0010
0000
,
0110
0000
1000
1000
0001
0001
0000
0000
,
0110
0000
0001
0001
1000
1000
0000
0000
,
0110
0000
1000
1000
0001
0001
0200
0000
,
0310
1000
0100
0010
,
0001
0100
0010
0100
,
0101
0101
1010
1010
,
1100
0000
0011
0000
1001
0001
1000
0001
,
1000
0100
0020
0030
,
0001
0010
0200
0300
,
1000
0010
0200
0300
,
0001
0100
0110
0110
,
1001
0000
0000
0000
,
1001
0000
0010
0100
0010
0010
0010
0000
,
1000
0100
0001
0010
,
1000
0100
0001
0010
,
1000
0001
1000
0000
0001
1000
0002
2000
,
0000
0000
0000
3003
,
0001
0100
0010
0000
1000
0100
0010
0000
,
0011
0000
0100
0100
0100
0100
0000
0000
,
1000
0010
0100
0000
0001
0010
0100
0000
,
1100
0000
0010
0010
0010
0010
0000
0000
,
1000
0001
0100
0000
0001
1000
0010
0000
,
0100
0001
0010
0000
0100
1000
0010
0000
,
0100
0001
0100
0000
0010
1000
0010
0000
,
1001
0000
0100
0100
0010
0010
0000
0000
,
1001
0000
0010
0010
0100
0100
0000
0000
,
1001
0000
0001
0100
1000
0010
0002
0000
,
0003
0000
0000
0000
;

//---------------dance-double - ----------------
#NOTEDATA:;
#CHARTNAME:;
#STEPSTYPE:dance-double;
#DESCRIPTION:;
#CHARTSTYLE:;
#DIFFICULTY:Medium;
#METER:7;
#RADARVALUES:0.271647,0.303057,0.213922,0.103000,0.000000,240.000000,213.000000,27.000000,13.000000,0.000000,0.000000,0.000000,0.000000,0.000000,0.271647,0.303057,0.213922,0.103000,0.000000,240.000000,213.000000,27.000000,13.000000,0.000000,0.000000,0.000000,0.000000,0.000000;
#CREDIT:MILEN;
#NOTES:
00000000
00000000
00000000
00000000
,
00000000
00000000
00000000
00000000
,
00000000
00000000
00000000
00000000
,
00000000
00000000
10000000
10000000
,
01000000
00000000
00010000
00000000
00011000
00000000
00000000
00010000
,
00001000
00000010
00000011
00000001
,
00001000
00000010
00010000
00001000
,
00100000
00010000
01000000
01100000
,
00010000
00000000
00010000
00000000
10000000
01000000
00010000
00000000
,
00001000
00000000
00001000
00000000
00010000
00001000
00000010
00000000
,
00002002
00000000
00003003
00000000
00001000
00000010
00010000
00000000
,
00001000
00100000
00010000
00000000
01010000
00000000
01010000
00000000
,
10000000
01000000
00100000
00001000
,
00010000
00000100
00000010
00000001
,
00000100
00001000
00010000
00001000
,
01001000
00010100
00022000
00000000
,
00033000
00000000
00001000
00010000
00000200
00000000
00000320
00000000
,
00000031
00000100
00001000
00010000
,
00011000
00000000
00100000
00100000
00100000
00100000
00000000
00000000
,
10000000
01000000
00010000
00001000
,
00011000
00000000
00000100
00000100
00000100
00000100
00000000
00000000
,
00000001
00001000
00000010
00000000
00010000
00001000
00100000
00000000
,
00010000
10000000
00100000
00000000
00010000
00001000
00000100
00000000
,
00000001
00000010
00000100
00000000
00010000
00001000
00010000
00000000
,
00011000
00000000
01000000
00001000
00010000
00000100
00000000
00000000
,
00011000
00000000
00000010
00010000
00001000
00100000
00000000
00000000
,
00011000
00000000
01000000
00010000
00001000
00000100
00000002
00000000
,
00000013
00000100
00010000
00001000
,
00100000
01000000
10000000
00100000
,
01100000
00010000
00011000
00000100
,
00000110
00000000
00000001
00000000
00001001
00001000
00000001
00001000
,
00000001
00001000
00000020
00000030
,
00010000
00001000
00200000
00300000
,
00010000
01000000
00002000
00003000
,
00010000
00000100
00000110
00000110
,
00001001
00000000
00000000
00000000
,
00011000
00000000
00001000
00010000
01000000
01000000
01000000
00000000
,
10000000
00100000
00010000
00001000
,
00000100
00000001
00000010
00001000
,
00010000
00001000
00010000
00000000
00001000
00010000
00002000
00020000
,
00000000
00000000
00000000
00033000
,
00010000
01000000
10000000
00100000
,
00011000
00000000
00000010
00000010
00000010
00000010
00000000
00000000
,
00001000
00000010
00000001
00000100
,
00011000
00000000
01000000
01000000
01000000
01000000
00000000
00000000
,
00100000
10000000
01000000
00000000
00100000
00001000
00010000
00000000
,
00000100
00001000
00000010
00000000
00000100
00000001
00001000
00000000
,
00000010
00010000
00001000
00000000
00100000
00010000
01000000
00000000
,
01100000
00000000
10000000
01000000
00100000
00010000
00000000
00000000
,
00011000
00000000
00100000
00010000
00001000
00000100
00000000
00000000
,
00000110
00000000
00001000
00000100
00000010
00000001
00002000
00000000
,
00003000
00000000
00000000
00000000
;

//---------------dance-single - ----------------
#NOTEDATA:;
#CHARTNAME:;
#STEPSTYPE:dance-single;
#DESCRIPTION:;
#CHARTSTYLE:;
#DIFFICULTY:Hard;
#METER:10;
#RADARVALUES:0.393889,0.444483,0.419922,0.103000,0.000000,348.000000,295.000000,53.000000,13.000000,0.000000,0.000000,0.000000,0.000000,0.000000,0.393889,0.444483,0.419922,0.103000,0.000000,348.000000,295.000000,53.000000,13.000000,0.000000,0.000000,0.000000,0.000000,0.000000;
#CREDIT:MILEN;
#NOTES:
0000
0000
0000
0000
,
0000
0000
0000
0000
,
0000
0000
0000
0000
,
0000
0000
1001
1001
,
1000
0010
0100
0001
1000
0010
0000
0001
,
0100
0010
1000
0001
0100
0010
0110
0000
,
1000
0100
0010
0001
1000
0100
0010
0001
,
0100
0100
0010
0010
1010
0000
0101
0000
,
0100
0001
0010
0100
0010
0000
0110
0100
,
0010
0100
1000
0010
0100
0000
0101
0000
,
2020
0000
3030
0000
1000
0100
0010
0001
,
0100
0010
1000
0100
1100
0000
0011
0000
,
0010
0001
0010
0100
2000
0000
0010
0000
,
3100
1000
0100
0010
0002
0000
0100
0000
,
0103
0001
0010
0100
2000
0000
0010
0000
,
3001
0001
0010
0010
0100
1000
2002
0000
,
3003
0000
0001
0100
0020
0000
2030
0000
,
3001
0010
0100
0001
0100
1000
0100
0010
,
0001
0000
0101
0100
1010
0010
0000
0000
,
1000
0100
0010
1000
0010
0001
0010
0100
,
1000
0000
1010
0010
0101
0100
0000
0000
,
1000
0001
0100
1000
0100
0001
0011
0000
,
0001
1000
0010
0001
0010
1000
1100
0000
,
0001
0010
0100
0001
0100
1000
0100
0010
,
0001
0000
0011
0010
1100
0100
0000
0000
,
1010
0000
0010
0001
0100
1000
0000
0000
,
0101
0000
0100
1000
0010
0001
0000
1000
,
0001
0001
0010
0010
0100
0100
1000
1000
,
0010
0010
0001
0001
0100
0100
1000
0000
,
1010
0000
0101
0000
0001
0010
1000
0010
,
0001
0010
0100
1000
1010
1010
0101
0101
,
0001
0010
0100
1000
0100
0000
1000
0010
,
0100
0001
0010
0100
0010
0000
0001
0100
,
0010
1000
0100
0010
0100
0000
1000
0010
,
0100
0001
1000
0010
0110
0000
1001
0000
,
1100
0000
0100
0001
0010
1000
0000
0000
,
0011
0000
0010
1000
0100
0001
1001
0000
,
1000
0010
0001
0100
,
1000
0010
0001
0100
,
1000
1000
0010
0010
0001
0100
1000
2002
,
0000
0000
3003
1001
,
0001
0010
1000
0010
0100
0001
0100
1000
,
0010
0000
0101
1000
0011
0100
0000
0000
,
1000
0100
0001
0100
0010
1000
0010
0001
,
0100
0000
1010
0001
1100
0010
0000
0000
,
0001
0100
1000
0001
0010
1000
0101
0000
,
1000
0010
0001
1000
0100
0001
1010
0000
,
1000
0100
0001
1000
0010
0001
1000
0100
,
0010
0000
1100
0001
1010
0100
0000
0000
,
1001
0000
1010
0110
0101
1001
0000
0000
,
0110
0000
1010
1100
0101
0011
2002
0000
,
3003
0000
0000
0000
;

//---------------dance-double - ----------------
#NOTEDATA:;
#CHARTNAME:;
#STEPSTYPE:dance-double;
#DESCRIPTION:;
#CHARTSTYLE:;
#DIFFICULTY:Hard;
#METER:10;
#RADARVALUES:0.374647,0.383872,0.277307,0.126769,0.000000,331.000000,296.000000,35.000000,16.000000,0.000000,0.000000,0.000000,0.000000,0.000000,0.374647,0.383872,0.277307,0.126769,0.000000,331.000000,296.000000,35.000000,16.000000,0.000000,0.000000,0.000000,0.000000,0.000000;
#CREDIT:MILEN;
#NOTES:
00000000
00000000
00000000
00000000
,
00000000
00000000
00000000
00000000
,
00000000
00000000
00000000
00000000
,
00000000
00000000
00011000
00011000
,
00001000
00100000
00010000
01000000
00001000
00010000
00000000
00001000
,
00010000
00000100
00001000
00000010
00010000
00001000
00011000
00000000
,
00010000
00000100
00000010
00001000
00010000
01000000
00100000
00010000
,
01000000
00001000
00010000
00000100
00001100
00000000
00000011
00000000
,
00000001
00000100
00001000
00010000
00100000
00000000
10100000
10000000
,
01000000
00100000
01000000
10000000
00100000
00000000
00110000
00000000
,
00022000
00000000
00033000
00000000
00001000
00010000
01000000
10000000
,
00100000
01000000
00010000
00100000
00110000
00000000
11000000
00000000
,
10000000
00100000
00010000
00001000
00000200
00000000
00000302
00000000
,
00000013
00001000
00010000
01000000
20000000
00000000
30200000
00000000
,
00310000
00001000
00000100
00000001
00000020
00000000
00002030
00000000
,
00013000
00100000
10000000
01000000
00100000
00001000
00022000
00000000
,
00033000
00000000
00010000
00000100
00002000
00000000
00003002
00000000
,
00001003
00000100
00000010
00000001
00000100
00001000
00000100
00000010
,
00010000
00000000
00011000
00001000
00100000
01000000
00000000
00000000
,
10000000
01000000
00100000
00010000
01000000
10000000
01000000
00100000
,
10000000
00000000
10010000
00010000
01000000
00001000
00000000
00000000
,
00010000
00001000
00000100
00000001
00000010
00000100
00000110
00000000
,
00001000
00010000
00100000
10000000
01000000
00100000
01100000
00000000
,
10000000
00100000
00010000
00001000
00010000
00001000
00000100
00000001
,
00000010
00000000
00000110
00000100
00010000
00001000
00000000
00000000
,
00011000
00000000
00010000
01000000
10000000
00010000
00000000
00000000
,
00011000
00000000
00001000
00000010
00000001
00001000
00000000
00000100
,
00010000
00001000
00100000
00010000
01000000
00001000
00010000
00000100
,
00001000
00000010
00010000
00001000
00100000
01000000
10000000
00000000
,
10100000
00000000
01010000
00000000
00010000
00100000
01000000
00010000
,
00001000
00000010
00000100
00001000
00001100
00000001
00000101
00001000
,
00000100
00000010
00000001
00000100
00001000
00000000
00010000
00001000
,
00100000
01000000
10000000
00100000
00010000
00000000
00001000
00100000
,
01000000
00010000
00001000
00000010
00000100
00000000
00001000
00000100
,
00000001
00000100
00000010
00000001
00000101
00000000
00001100
00000000
,
00011000
00000000
00010000
01000000
10000000
00010000
00000000
00000000
,
00011000
00000000
00001000
00000010
00000001
00001000
00000110
00000000
,
00000001
00000100
00001000
00010000
,
00100000
10000000
01000000
00010000
,
00001000
00010000
00100000
00010000
00001000
00000010
00001000
00010000
,
00022000
00000000
00033000
00011000
,
00010000
00100000
10000000
01000000
00010000
01000000
10000000
00100000
,
00010000
00000000
00011000
00001000
00000100
00000010
00000000
00000000
,
00000001
00000010
00001000
00000100
00000001
00000100
00001000
00000010
,
00010000
00000000
00011000
00001000
00100000
01000000
00000000
00000000
,
10000000
00100000
01000000
00010000
00100000
01000000
00010000
00000000
,
00001000
00000010
00000100
00001000
00000010
00000100
00000001
00000000
,
00000010
00001000
00010000
00100000
00010000
00001000
00000100
00001000
,
00010000
00000000
01010000
01000000
10000000
00100000
00000000
00000000
,
01100000
00000000
01000000
00010000
00001000
00000100
00000000
00000000
,
00000110
00000000
00000010
00001000
00010000
00100000
02200000
00000000
,
03300000
00000000
00000000
00000000
;

//---------------dance-single - ----------------
#NOTEDATA:;
#CHARTNAME:;
#STEPSTYPE:dance-single;
#DESCRIPTION:;
#CHARTSTYLE:;
#DIFFICULTY:Challenge;
#METER:13;
#RADARVALUES:0.479911,0.648106,0.562537,0.142615,0.241653,424.000000,353.000000,71.000000,18.000000,168.000000,0.000000,0.000000,0.000000,0.000000,0.479911,0.648106,0.562537,0.142615,0.241653,424.000000,353.000000,71.000000,18.000000,168.000000,0.000000,0.000000,0.000000,0.000000;
#CREDIT:MILEN;
#NOTES:
0000
0000
0000
0000
,
0000
0000
0000
0000
,
0000
0000
0000
0000
,
0000
0000
0000
0000
0000
0000
0100
0010
0100
0000
0001
0000
1001
0000
MMMM
0000
,
1000
0010
0100
0001
0010
0100
MMMM
0100
,
1000
0100
0010
0001
0100
0010
0110
MMMM
,
0100
0001
0010
0001
1000
0100
1000
0001
,
0100
0010
0100
0000
0001
0000
1000
0000
1100
0000
MMMM
0000
0011
0000
MMMM
0000
,
0001
0000
0100
0000
1000
0000
0100
0000
0001
0000
0010
0100
0010
0000
0100
0000
,
1000
0000
0010
0000
0001
0000
0010
0000
1000
0000
0100
0010
0100
0000
MMMM
0000
,
2002
0000
0000
0000
3003
0000
1001
0000
0001
0100
0010
0000
0100
0000
0010
0000
,
0010
0000
1000
0010
0100
0000
0010
0000
1010
0000
MMMM
0000
0101
0000
MMMM
0000
,
0001
0010
0001
0010
0001
0000
0100
0000
0020
0000
0000
0000
1030
0000
MMMM
0000
,
1000
0100
1000
0100
1000
0000
0010
0000
0200
0000
0000
0000
0301
0000
MMMM
0000
,
0001
1000
0001
1000
0001
0000
0010
0000
0200
0000
0000
0000
1300
0000
MMMM
0000
,
0100
0010
0100
0010
0100
0000
0010
0000
0001
0000
1000
0000
0100
0010
0200
0000
,
0000
0000
0310
MMMM
MMMM
MMMM
1001
0000
,
0001
0100
1000
0001
0010
1000
0001
0100
,
1000
0000
0110
0110
0101
1010
MMMM
0000
,
1000
0010
0001
1000
0100
0001
1000
0010
,
0001
0000
0110
0110
0101
1010
MMMM
0000
,
1000
0100
1000
0100
0000
0000
0001
0100
0001
0100
0000
0000
0110
0000
MMMM
0000
,
0001
0010
0001
0010
0000
0000
1000
0010
1000
0010
0000
0000
0110
0000
MMMM
0000
,
1000
0010
0001
1000
0100
0001
1000
0010
,
0001
0000
0110
0110
1100
0011
MMMM
0000
,
1001
0000
1100
0001
0011
1000
MMMM
0000
,
1001
0000
0000
0000
0000
0000
0101
0000
0000
1000
0000
0000
1010
0000
0000
0001
0000
0000
MMMM
0000
0001
1000
0000
0001
,
1000
0000
0100
1000
0000
0100
1000
0000
0100
0010
0000
0100
0010
0000
0001
0100
0000
0001
0100
0000
0001
0010
0000
0001
,
0010
0000
0100
0010
0000
0100
0010
0000
0100
1000
0000
0100
1000
0000
0001
1000
0000
0001
1000
0000
0000
MMMM
0000
0000
,
0001
0100
0000
0000
0010
1000
0010
0000
1000
0100
1000
0100
0010
0001
0010
0000
,
0001
0100
0001
0100
0010
1000
0010
0000
1010
0000
1100
0000
0101
0000
0011
0000
,
0010
0100
1000
0010
0100
MMMM
0110
0010
,
1000
0100
0010
0001
0100
MMMM
1001
0001
,
0010
0100
1000
0010
0100
MMMM
1001
1000
,
0100
0010
0001
0100
1010
MMMM
0101
MMMM
,
1001
0000
1010
0010
0101
0100
MMMM
0000
,
1001
0000
0011
0010
1100
0100
1001
0000
,
2000
0000
0000
3020
0000
0000
0032
0000
0000
2003
0000
0000
3200
0000
0000
0000
,
0302
0000
0000
0023
0000
0000
2030
0000
0000
3002
0000
0000
0203
0000
0000
0000
,
1300
1000
0010
0100
0001
0010
0100
0220
,
0000
0330
MMMM
MMMM
MMMM
MMMM
1001
MMMM
,
1000
0010
0001
0100
1000
0010
0001
0100
,
1000
0000
1010
0101
1010
0101
MMMM
0000
,
0001
0010
1000
0100
0001
0010
1000
0100
,
0001
0000
0011
1100
0011
1100
MMMM
0000
,
1000
0010
0100
0001
0000
0000
1000
0100
0010
0001
0000
0000
0110
0000
MMMM
0000
,
0001
0010
0100
1000
0000
0000
0001
0100
0010
1000
0000
0000
0110
0000
MMMM
0000
,
1000
0100
0001
0010
1000
0010
0001
0100
,
1000
0000
1010
0011
1100
0101
MMMM
0000
,
0110
MMMM
1010
1100
0101
0011
MMMM
0000
,
1001
0000
MMMM
0000
0011
0000
0101
0000
1100
0000
1010
0000
0010
0100
0010
0100
,
0010
MMMM
0000
0000
0000
0000
0000
0000
;

//---------------dance-double - ----------------
#NOTEDATA:;
#CHARTNAME:;
#STEPSTYPE:dance-double;
#DESCRIPTION:;
#CHARTSTYLE:;
#DIFFICULTY:Challenge;
#METER:13;
#RADARVALUES:0.452746,0.526586,0.435768,0.142615,0.209961,400.000000,345.000000,55.000000,18.000000,336.000000,0.000000,0.000000,0.000000,0.000000,0.452746,0.526586,0.435768,0.142615,0.209961,400.000000,345.000000,55.000000,18.000000,336.000000,0.000000,0.000000,0.000000,0.000000;
#CREDIT:MILEN;
#NOTES:
// measure 0
00000000
00000000
00000000
00000000
,  // measure 1
00000000
00000000
00000000
00000000
,  // measure 2
00000000
00000000
00000000
00000000
,  // measure 3
00000000
00000000
00000000
00000000
00000000
00000000
00001000
00010000
00001000
00000000
00010000
00000000
00011000
00000000
MMMMMMMM
00000000
,  // measure 4
00001000
00010000
01000000
10000000
00100000
00010000
MMMMMMMM
00001000
,  // measure 5
00010000
00001000
00000100
00000001
00000010
00001000
00011000
MMMMMMMM
,  // measure 6
00010000
00001000
00000010
00000001
00000100
00001000
00010000
00100000
,  // measure 7
10000000
01000000
10000000
00000000
01000000
00000000
00010000
00000000
00011000
00000000
MMMMMMMM
00000000
00011000
00000000
MMMMMMMM
00000000
,  // measure 8
00001000
00000000
00100000
00000000
01000000
00000000
10000000
00000000
00100000
00000000
00010000
00001000
00010000
00000000
00000100
00000000
,  // measure 9
00000010
00000000
00000001
00000000
00000100
00000000
00001000
00000000
00010000
00000000
00100000
01000000
00100000
00000000
MMMMMMMM
00000000
,  // measure 10
20020000
00000000
00000000
00000000
30030000
00000000
10010000
00000000
00010000
01000000
00010000
00000000
00100000
00000000
00001000
00000000
,  // measure 11
00010000
00000000
00000100
00001000
00000100
00000000
00000010
00000000
00000011
00000000
MMMMMMMM
00000000
00001100
00000000
MMMMMMMM
00000000
,  // measure 12
00000100
00010000
00000100
00010000
00001000
00000000
00100000
00000000
00020000
00000000
00000000
00000000
01030000
00000000
MMMMMMMM
00000000
,  // measure 13
01000000
00001000
01000000
00001000
00010000
00000000
00000100
00000000
00002000
00000000
00000000
00000000
00003010
00000000
MMMMMMMM
00000000
,  // measure 14
00000010
00010000
00000010
00010000
00001000
00000000
01000000
00000000
00020000
00000000
00000000
00000000
00130000
00000000
MMMMMMMM
00000000
,  // measure 15
00100000
00001000
00100000
00001000
00010000
00000000
00000100
00000000
00001000
00000000
00000010
00000000
00010000
00001000
00020000
00000000
,  // measure 16
00000000
00000000
00031000
MMMMMMMM
MMMMMMMM
MMMMMMMM
00011000
00000000
,  // measure 17
00010000
01000000
10000000
00100000
00010000
00100000
10000000
01000000
,  // measure 18
00010000
00000000
00011000
00010000
00001010
00000010
MMMMMMMM
00000000
,  // measure 19
00001000
00000100
00000001
00000010
00001000
00000010
00000001
00000100
,  // measure 20
00001000
00000000
00011000
00001000
00110000
00100000
MMMMMMMM
00000000
,  // measure 21
10000000
01000000
00100000
00010000
00000000
00000000
01000000
00100000
00010000
00001000
00000000
00000000
00011000
00000000
MMMMMMMM
00000000
,  // measure 22
00000001
00000010
00000100
00001000
00000000
00000000
00000010
00000100
00001000
00010000
00000000
00000000
00011000
00000000
MMMMMMMM
00000000
,  // measure 23
00010000
00100000
10000000
01000000
00010000
00001000
00000010
00000001
,  // measure 24
00000100
00000000
00001100
00010000
00011000
01000000
MMMMMMMM
00000000
,  // measure 25
01100000
00000000
00110000
00001000
00011000
00000010
MMMMMMMM
00000000
,  // measure 26
00000110
00000000
00000000
00000000
00011000
00000000
00100000
00000000
01100000
00000000
10000000
00000000
MMMMMMMM
00000000
00010000
10000000
,  // measure 27
00010000
00000000
01000000
00100000
01000000
00000000
00001000
00010000
00001000
00000000
00000100
00000010
00000100
00000000
00000001
00001000
,  // measure 28
00000001
00000000
00000010
00000100
00000010
00000000
00001000
00010000
00001000
00000000
00100000
01000000
00100000
00000000
MMMMMMMM
00000000
,  // measure 29
10000000
00100000
00000000
00000000
00010000
00001000
00010000
00000000
00000100
00001000
00000100
00001000
00000001
00000010
00000001
00000000
,  // measure 30
00001000
00000010
00001000
00000010
00010000
00001000
00010000
00000000
00011000
00000000
01000000
00000000
10010000
00000000
01000000
00000000
,  // measure 31
00010000
00100000
01000000
00010000
00001000
MMMMMMMM
00011000
00010000
,  // measure 32
00000100
00000010
00001000
00010000
00100000
MMMMMMMM
10100000
10000000
,  // measure 33
01000000
00100000
00010000
01000000
00001000
MMMMMMMM
00011000
00010000
,  // measure 34
00000100
00000010
00000001
00000100
00001100
MMMMMMMM
00110000
MMMMMMMM
,  // measure 35
10010000
00000000
10100000
00100000
00011000
00001000
MMMMMMMM
00000000
,  // measure 36
00001001
00000000
00000011
00000010
00011000
00010000
01100000
00000000
,  // measure 37
20000000
00000000
00000000
32000000
00000000
00000000
03200000
00000000
00000000
00320000
00000000
00000000
02030000
00000000
00000000
00000000
,  // measure 38
03002000
00000000
00000000
00023000
00000000
00000000
00030020
00000000
00000000
00000230
00000000
00000000
00000302
00000000
00000000
00000000
,  // measure 39
00000013
00000010
00001000
00010000
00100000
00010000
00001000
00022000
,  // measure 40
00000000
00033000
MMMMMMMM
MMMMMMMM
MMMMMMMM
MMMMMMMM
00011000
MMMMMMMM
,  // measure 41
00010000
00100000
10000000
00010000
01000000
00001000
00000100
00000001
,  // measure 42
00000010
00000000
00000110
00001000
00011000
01000000
MMMMMMMM
00000000
,  // measure 43
00001000
00000100
00000001
00001000
00000010
00010000
00100000
10000000
,  // measure 44
01000000
00000000
01100000
00010000
00011000
00000010
MMMMMMMM
00000000
,  // measure 45
00000001
00000100
00000010
00010000
00000000
00000000
00001000
00010000
00100000
10000000
00000000
00000000
11000000
00000000
MMMMMMMM
00000000
,  // measure 46
10000000
01000000
00100000
00001000
00000000
00000000
00010000
00001000
00000010
00000001
00000000
00000000
00000101
00000000
MMMMMMMM
00000000
,  // measure 47
00001000
00000100
00000010
00001000
00010000
01000000
00100000
00010000
,  // measure 48
10000000
00000000
10100000
00010000
00011000
00000010
MMMMMMMM
00000000
,  // measure 49
00000110
MMMMMMMM
00000011
00001000
00011000
01000000
MMMMMMMM
00000000
,  // measure 50
10010000
00000000
MMMMMMMM
00000000
01100000
00000000
00011000
00000000
00000110
00000000
00001001
00000000
00001000
00000100
00010000
00001000
,  // measure 51
01000000
MMMMMMMM
00000000
00000000
00000000
00000000
00000000
00000000
;
