#TITLE:CASE 143;
#SUBTITLE:;
#ARTIST:Stray Kids;
#TITLETRANSLIT:;
#SUBTITLETRANSLIT:;
#ARTISTTRANSLIT:;
#GENRE:K-POP;
#CREDIT:;
#BANNER:CASE 143.png;
#BACKGROUND:CASE 143-bg.png;
#LYRICSPATH:;
#CDTITLE:;
#MUSIC:CASE 143.mp3;
#OFFSET:-0.225000;
#SAMPLESTART:110.025002;
#SAMPLELENGTH:12.000000;
#SELECTABLE:YES;
#DISPLAYBPM:100;
#BPMS:0.000000=100
;
#STOPS:
;
#BGCHANGES:0.000=CASE 143.avi=1.000=0=0=0=StretchNoLoop====,
99999=-nosongbg-=1.000=0=0=0 // don't automatically add -songbackground-
;
#KEYSOUNDS:;
#ATTACKS:;

//---------------dance-single - ----------------
#NOTES:
     dance-single:
     :
     Hard:
     13:
     0.573647,0.562174,0.453606,0.342063,0.732462,540.000000,479.000000,61.000000,46.000000,0.000000,0.000000,0.573647,0.562174,0.453606,0.342063,0.732462,540.000000,479.000000,61.000000,46.000000,0.000000,0.000000:
0000
0000
0000
0000
,
0000
0000
0000
0000
,
1001
0000
0010
0100
0000
0100
0000
0000
1001
0000
0100
0010
0000
0010
0000
0000
,
1001
0000
0010
0000
0100
0000
0010
0000
1001
0000
0100
0010
0000
0110
0000
0000
,
0010
1000
0000
1100
0000
0000
0010
0001
0000
0101
0000
0000
0220
0000
0330
0000
,
0110
0000
0010
1000
0000
0001
0100
0000
0010
1000
0001
0100
0010
0000
0010
0000
,
1000
0000
0100
0000
0010
0100
0010
0000
0001
0000
0100
0000
0010
0100
0010
0000
,
1000
0100
0010
0000
0001
0100
0010
0000
1000
0100
0010
0000
2002
0000
3003
0000
,
0001
0100
0001
0100
0010
1000
0010
1000
0001
0100
0010
1000
0001
0000
0001
0000
,
0010
0000
0100
0000
1000
0000
0010
0000
0100
0001
0100
0001
0100
0000
0110
0000
,
1010
0000
1000
0100
0000
0100
0002
0000
0000
0000
0013
0000
0010
0000
0100
0000
,
0010
0000
1000
0100
0000
0100
0010
0002
0000
0000
0103
0000
0110
0000
0010
1000
,
0010
0000
0100
0002
0000
0000
0013
0100
0010
0000
0100
2000
0000
0000
3010
0100
,
0001
0100
0010
1000
0001
0010
0100
1000
,
1010
0000
0000
0000
0101
0000
0000
0000
0011
0000
0000
1100
0000
0000
0110
0000
,
0011
0000
0000
0000
1100
0000
0000
0000
1010
0000
0000
0101
0000
0001
1000
0001
,
0010
0100
1000
0000
0010
0100
0001
0000
1000
0100
0010
0000
0001
0100
0010
0000
,
1000
0100
1000
0100
0010
0001
0010
0001
0200
0000
0000
0000
0020
0000
0330
0000
,
0110
0000
0010
1000
0000
0100
0000
0010
0000
0100
0000
1000
0010
0000
0100
0000
,
0101
0000
0001
0010
0000
0100
0000
0010
0000
0001
0010
0000
0210
0000
0000
0000
,
1300
0000
0010
0100
0000
0001
0000
0100
0000
0010
0000
0100
0001
0000
0010
0000
,
0011
0000
0001
0100
0000
0010
0000
1000
0000
0010
0100
0000
0010
2000
0000
0000
,
3100
0000
0100
0001
0000
0100
0000
0010
0000
0100
0001
0000
0100
1000
0010
0000
,
0110
0000
0010
1000
0000
0010
0000
0001
0000
0010
0100
0000
0100
0010
2000
0000
,
3001
0000
0001
0010
0000
1000
0000
0010
0000
0001
0010
0000
0100
0010
0100
0000
,
1100
0000
0000
0000
1010
0000
0000
0000
0011
0000
0000
0001
0100
0010
1000
0001
,
0200
0310
0002
1003
0200
0310
0002
1003
,
0001
0000
0100
0000
0010
0000
1000
0100
0010
0001
0000
0000
0100
0110
0000
0000
,
0002
0000
0013
0000
2000
0000
3100
0000
0010
0100
1000
0000
0001
0010
0100
0000
,
1100
0000
1000
0000
0010
0000
0100
0001
0100
0010
0000
0000
1000
1001
0000
0000
,
0102
0000
0000
0013
0100
0010
0001
0010
0100
1000
0000
2020
,
0000
3030
0000
0010
0100
0001
1000
0100
0010
0001
0000
0202
,
0303
0000
0100
0001
0100
0010
1000
1000
0001
0010
0010
0100
,
1000
0000
1000
0000
0010
0000
0100
0000
0100
0000
0001
0000
0022
0000
0000
0033
0000
0000
2200
0000
0000
3300
0000
0000
,
0110
0000
0100
0010
0001
1000
0020
0000
0000
0000
0130
0001
1000
0010
0200
0000
,
0301
0000
0000
0000
0010
0000
0000
0000
0100
0000
0000
0000
1000
0000
0000
0000
1000
0000
0010
0000
0000
0000
0100
0000
0001
0000
0000
0000
0000
0000
0010
0000
0000
0100
0000
0000
0010
0000
0000
0002
0000
0000
0000
0000
0000
0103
0000
0000
,
0010
1000
0010
0000
0100
0001
0100
0000
0001
0010
0001
0000
1000
0100
1000
0000
,
0010
0100
0001
0010
0100
1000
0010
0100
0110
0000
0000
0000
2002
0000
3003
0000
,
1001
0000
1000
0010
0000
0001
0000
0010
0000
0100
0000
0001
0010
0000
0100
0000
,
1100
0000
1000
0010
0000
0100
0000
0001
0000
1000
0100
0000
0120
0000
0000
0000
,
0031
0000
0001
0100
0000
1000
0000
0100
0000
0010
0000
1000
0100
0000
0010
0000
,
0011
0000
0000
0000
0101
0000
0000
0000
1100
0000
0000
1000
0010
0100
0001
0000
,
1001
0000
1000
0010
0000
0100
0000
1000
0000
0100
0000
0001
0100
0000
0010
0000
,
1010
0000
1000
0100
0000
0001
0000
1000
0000
0010
0100
0000
2100
0000
0000
0000
,
3010
0000
0010
0001
0000
1000
0000
0100
0000
0001
0000
0010
0100
0000
0010
0000
,
0011
0000
0001
0000
0100
0000
1000
0000
0001
0000
0010
0000
1000
0100
0010
0001
,
0200
0000
0000
0310
1000
0100
0010
0001
0200
0000
0000
0310
1000
0100
0010
0001
,
0100
0000
1000
0100
0000
0010
0000
0220
0000
0000
0330
0000
0001
0010
0100
1000
,
0020
0000
0000
0130
0001
0010
0100
1000
0020
0000
0100
0000
0130
0000
0010
1000
,
0100
0000
0010
0100
1000
0000
0001
0010
0100
0000
0010
0001
0100
0010
2000
0002
,
0000
3003
1010
0101
,
0011
0000
0010
0100
0000
0100
0000
2100
0000
0000
3010
0000
0010
0100
0001
0000
,
1001
0000
1000
0100
0000
0001
0000
0010
0000
1000
0000
0100
0010
0000
0110
0000
,
1100
0000
0000
0000
1010
0000
0000
0000
0011
0000
0000
0001
0100
0020
2000
0000
,
3030
0000
0000
0000
;

//---------------dance-double - ----------------
#NOTES:
     dance-double:
     :
     Hard:
     13:
     0.551338,0.522018,0.423861,0.327191,0.669254,519.000000,462.000000,57.000000,44.000000,0.000000,0.000000,0.551338,0.522018,0.423861,0.327191,0.669254,519.000000,462.000000,57.000000,44.000000,0.000000,0.000000:
// measure 0
00000000
00000000
00000000
00000000
,  // measure 1
00000000
00000000
00000000
00000000
,  // measure 2
00011000
00000000
00010000
00000010
00000000
00000010
00010000
00000000
00011000
00000000
00001000
00100000
00000000
00100000
00001000
00000000
,  // measure 3
00011000
00000000
00010000
00000000
00000100
00000000
00010000
00000000
00011000
00000000
00001000
01000000
00000000
01000000
00001000
00000000
,  // measure 4
00010000
00000100
00000000
00000010
00000000
00000000
00001000
00100000
00000000
01000000
00000000
00000000
00022000
00000000
00033000
00000000
,  // measure 5
00011000
00000000
00001000
00010000
00000000
00001000
00000010
00000000
00000001
00000100
00000001
00000100
00000010
00000000
00000010
00000000
,  // measure 6
00001000
00000100
00000010
00001000
00010000
01000000
10000000
10000000
,  // measure 7
00010000
01000000
00001000
00000000
00010000
00001000
00000100
00000000
00000001
00000010
00000100
00000000
00002002
00000000
00003003
00000000
,  // measure 8
00000001
00000100
00000001
00000100
00000010
00001000
00000010
00001000
00000100
00010000
00000100
00010000
00001000
00000000
00001000
00000000
,  // measure 9
00010000
00000000
00100000
00000000
10000000
00000000
01000000
00000000
00100000
00010000
00100000
00000000
00001000
00000000
00010000
00000000
,  // measure 10
00011000
00000000
00001000
00000010
00000000
00000010
00000002
00000000
00000000
00000000
00000103
00000000
00000100
00000000
00000010
00000000
,  // measure 11
00001000
00000000
00000100
00010000
00000000
00001000
00010000
00200000
00000000
00000000
01300000
00000000
01100000
00000000
00100000
10000000
,  // measure 12
00100000
00000000
01000000
00002000
00000000
00000000
00013000
00000100
00010000
00000000
00001000
00200000
00000000
00000000
01300000
00100000
,  // measure 13
01000000
10000000
00100000
00010000
00001000
00000100
00000001
00000010
,  // measure 14
00000110
00001100
00010100
00011000
,  // measure 15
01001000
00000000
00000000
00000000
01010000
00000000
00000000
00000000
01100000
00000000
00000000
00100000
10000000
00100000
10000000
00100000
,  // measure 16
01000000
00010000
00100000
00001000
00010000
00000010
00001000
00000100
,  // measure 17
00000010
00000001
00000010
00000001
00000100
00000010
00000100
00000010
00020000
00000000
00000000
00000000
00002000
00000000
00033000
00000000
,  // measure 18
00011000
00000000
00010000
00000100
00000000
00001000
00000000
00000100
00000000
00010000
00000000
00001000
00100000
00000000
00010000
00000000
,  // measure 19
00110000
00000000
00100000
00001000
00000000
00010000
00000000
00001000
00000000
01000000
00010000
00000000
20010000
00000000
00000000
00000000
,  // measure 20
30100000
00000000
00100000
01000000
00000000
00001000
00000000
01000000
00000000
00100000
00000000
10000000
00010000
00000000
00100000
00000000
,  // measure 21
00101000
00000000
00001000
00010000
00000000
00000100
00000000
00010000
00000000
00001000
01000000
00000000
00100000
20000000
00000000
00000000
,  // measure 22
30010000
00000000
00010000
00100000
00000000
00001000
00000000
00010000
00000000
00000100
00001000
00000000
00000010
00000100
00000010
00000000
,  // measure 23
00000110
00000000
00000100
00000001
00000000
00000010
00000000
00000001
00000000
00000100
00000010
00000000
00001000
00000010
00002000
00000000
,  // measure 24
00003001
00000000
00000001
00000010
00000000
00000100
00000000
00000010
00000000
00000001
00000010
00000000
00001000
00010000
00001000
00000000
,  // measure 25
00101000
00000000
00000000
00000000
00010010
00000000
00000000
00000000
01001000
00000000
00000000
00001000
00010000
00001000
00010000
00000000
,  // measure 26
00200000
10300000
00020000
01030000
00002000
00013000
00000200
00001300
,  // measure 27
00001000
00000000
00000010
00000000
00000100
00000000
00000001
00000010
00000100
00001000
00000000
00000000
00000001
00000101
00000000
00000000
,  // measure 28
00002000
00000000
00003010
00000000
00020000
00000000
00031000
00000000
00010000
00001000
00000000
00000000
00100000
01000000
00000000
00000000
,  // measure 29
11000000
00000000
10000000
00000000
00100000
00000000
01000000
00010000
01000000
00001000
00000000
00000000
00010000
00010100
00000000
00000000
,  // measure 30
00000120
00000000
00000000
00000031
00000100
00000010
00001000
00000100
00010000
00001000
00000000
00022000
,  // measure 31
00000000
00033000
00000000
00010000
00001000
00100000
01000000
10000000
00010000
00100000
00000000
02200000
,  // measure 32
03300000
00000000
01000000
10000000
00100000
01000000
00001000
00001000
00010000
00000100
00000100
00000010
,  // measure 33
00000001
00000000
00000001
00000000
00000100
00000000
00001000
00000000
00001000
00000000
00010000
00000000
00020200
00000000
00000000
00030300
00000000
00000000
02002000
00000000
00000000
03003000
00000000
00000000
,  // measure 34
00011000
00000000
00010000
00001000
00010000
00001000
00000020
00000000
00000000
00000000
00001030
00010000
00001000
00010000
00200000
00000000
,  // measure 35
10300000
00000000
00000000
00000000
01000000
00000000
00000000
00000000
00010000
00000000
00000000
00000000
00001000
00000000
00000000
00000000
00000000
00000000
00011000
00000000
00000000
00000000
00000000
00000000
00001010
00000000
00000000
00000000
00000000
00000000
00000010
00000000
00000000
00000001
00000000
00000000
00000100
00000000
00000000
00000001
00000000
00000000
00000000
00000000
00000000
00000000
00000000
00000000
,  // measure 36
00000001
00000010
00000100
00000000
00000010
00000100
00001000
00000000
00000100
00010000
00001000
00000000
00010000
00001000
00100000
00000000
,  // measure 37
01000000
10000000
00000000
00100000
00010000
00001000
00000000
00000000
00011000
00000000
00000000
00000000
00022000
00000000
00033000
00000000
,  // measure 38
00011000
00000000
00010000
00000100
00000000
00000010
00000000
00000100
00000000
00001000
00000000
00000001
00000100
00000000
00000010
00000000
,  // measure 39
00001010
00000000
00001000
00000100
00000000
00010000
00000000
00001000
00000000
00100000
01000000
00000000
21000000
00000000
00000000
00000000
,  // measure 40
30010000
00000000
00010000
01000000
00000000
00001000
00000000
00010000
00000000
00000100
00000000
00000010
00000001
00000000
00000100
00000000
,  // measure 41
00000110
00000000
00000000
00000000
00001010
00000000
00000000
00000000
00011000
00000000
00000000
00001000
00010000
00100000
01000000
00000000
,  // measure 42
01100000
00000000
00100000
10000000
00000000
01000000
00000000
00010000
00000000
01000000
00000000
00100000
00001000
00000000
00010000
00000000
,  // measure 43
00011000
00000000
00001000
00000010
00000000
00000001
00000000
00000100
00000000
00000010
00001000
00000000
00001200
00000000
00000000
00000000
,  // measure 44
00010300
00000000
00010000
00001000
00000000
00000010
00000000
00001000
00000000
00010000
00000000
00100000
01000000
00000000
00010000
00000000
,  // measure 45
00110000
00000000
00100000
00000000
01000000
00000000
10000000
00000000
00010000
00000000
01000000
00000000
00001000
00010000
00001000
00010000
,  // measure 46
00000020
00000000
00000000
00000000
00010030
00001000
00010000
00001000
00200000
00000000
00000000
00000000
00301000
00010000
00001000
00010000
,  // measure 47
01000000
00000000
10000000
00100000
00000000
00010000
00000000
00022000
00000000
00000000
00033000
00000000
00010000
00000100
00001000
00000100
,  // measure 48
00000020
00000000
00000000
00000000
00000031
00000100
00001000
00010000
00200000
00000000
10000000
00000000
10300000
00000000
10000000
01000000
,  // measure 49
00100000
00000000
01000000
00100000
00001000
00000000
00010000
00001000
00000010
00000000
00000001
00000100
00001000
00000000
00010000
00002000
,  // measure 50
00000000
00003000
01001000
00010100
,  // measure 51
00011000
00000000
00010000
00100000
00000000
10000000
00000000
10020000
00000000
00000000
01030000
00000000
01000000
00001000
00010000
00000000
,  // measure 52
00011000
00000000
00001000
00000010
00000000
00000001
00000000
00000100
00000000
00000010
00000000
00000001
00000010
00000000
00000110
00000000
,  // measure 53
00001100
00000000
00000000
00000000
00011000
00000000
00000000
00000000
01010000
00000000
00000000
00010000
00100000
02000000
20000000
00000000
,  // measure 54
33000000
00000000
00000000
00000000
;

//---------------dance-single - ----------------
#NOTES:
     dance-single:
     :
     Beginner:
     1:
     0.064801,0.099923,0.000000,0.000000,0.000000,61.000000,61.000000,0.000000,0.000000,0.000000,0.000000,0.064801,0.099923,0.000000,0.000000,0.000000,61.000000,61.000000,0.000000,0.000000,0.000000,0.000000:
0000
0000
0000
0000
,
0000
0000
0000
0000
,
1000
0000
0000
0000
,
1000
0000
0000
0000
,
1000
0000
0000
0000
,
1000
0000
0000
0000
,
0001
0000
0000
0000
,
0001
0000
0000
0000
,
0001
0000
0000
0000
,
0001
0000
0000
0000
,
1000
0000
0000
0000
,
0001
0000
0000
0000
,
1000
0000
1000
0000
,
1000
0000
0000
0000
,
0001
0000
0000
0000
,
1000
0000
0000
0000
,
0001
0000
0001
0000
,
0001
0000
0000
0000
,
0100
0000
0000
0000
,
0100
0000
0000
0000
,
0010
0000
0000
0000
,
0010
0000
0000
0000
,
0100
0000
0000
0000
,
0010
0000
0000
0000
,
0100
0000
0000
0000
,
0010
0000
0000
0000
,
1000
0000
0000
0000
,
0001
0000
0000
0000
,
0100
0000
0000
0000
,
0010
0000
0000
0000
,
1000
0000
0000
0000
,
1000
0000
0000
0000
,
1000
0000
0000
0000
,
1000
0000
0000
0000
,
0001
0000
0000
0000
,
0001
0000
0000
0000
,
0001
0000
0000
0000
,
0001
0000
0000
0000
,
0100
0000
0000
0000
,
0010
0000
0000
0000
,
0100
0000
0000
0000
,
0010
0000
0010
0000
,
0010
0000
0000
0000
,
0100
0000
0000
0000
,
0010
0000
0000
0000
,
0100
0000
0100
0000
,
0100
0000
0001
0000
,
0100
0000
0000
0000
,
0010
0000
1000
0000
,
0010
0000
0000
0000
,
1000
0000
0000
0000
,
0001
0000
0000
0000
,
0100
0000
0010
0000
,
1000
0000
0001
0001
;

//---------------dance-single - ----------------
#NOTES:
     dance-single:
     :
     Easy:
     5:
     0.206088,0.240374,0.126415,0.059489,0.000000,194.000000,177.000000,17.000000,8.000000,0.000000,0.000000,0.206088,0.240374,0.126415,0.059489,0.000000,194.000000,177.000000,17.000000,8.000000,0.000000,0.000000:
0000
0000
0000
0000
,
0000
0000
0000
0000
,
1000
0001
1000
0000
,
0001
1000
0001
0000
,
1000
0001
1000
0001
,
1000
1000
0001
0001
,
1000
0100
0010
0001
,
1000
0100
0010
0010
,
0001
0010
0100
1000
,
0001
0010
0100
0100
,
1000
0000
0000
0000
,
0010
0000
0000
0000
,
0001
0000
0100
0000
,
1000
0001
2002
3003
,
0010
0100
0010
0100
,
0010
0010
0100
0100
,
0010
1000
0001
0100
,
0010
0010
0110
0000
,
1000
0001
1000
1000
,
0001
1000
0001
1001
,
0100
0010
0100
0100
,
0010
0100
0010
0110
,
1000
0100
0010
0000
,
1000
0100
0001
1001
,
0001
0010
0100
0000
,
0001
0010
1000
1001
,
0010
0000
0010
0000
,
0010
1000
0100
0010
,
0100
0000
0100
0000
,
0100
0001
0010
0100
,
0010
0000
1000
0000
,
0001
0000
0100
0000
,
0010
0000
1000
0000
,
0001
0000
0100
0000
,
0010
0010
1000
1000
,
0001
0001
0100
0100
,
0010
1000
0001
0100
,
0010
0010
0010
0110
,
1000
0100
0010
0010
,
0001
0010
0100
1001
,
0001
0010
0100
0100
,
1000
0100
0010
1001
,
1000
0010
0010
0010
,
0001
0100
0100
0100
,
1000
0001
0100
0010
,
1000
0001
0100
0110
,
0002
0003
2000
3000
,
0001
1000
1001
0000
,
0200
0300
0020
0030
,
0100
0010
0100
0110
,
2002
3003
0110
1001
,
0001
0100
1000
0010
,
0001
1000
0001
1000
,
0010
0000
0100
0000
0010
0000
0110
0110
;

//---------------dance-double - ----------------
#NOTES:
     dance-double:
     :
     Easy:
     5:
     0.196527,0.240374,0.133851,0.059489,0.000000,185.000000,167.000000,18.000000,8.000000,0.000000,0.000000,0.196527,0.240374,0.133851,0.059489,0.000000,185.000000,167.000000,18.000000,8.000000,0.000000,0.000000:
// measure 0
00000000
00000000
00000000
00000000
,  // measure 1
00000000
00000000
00000000
00000000
,  // measure 2
00001000
00010000
00001000
00000000
,  // measure 3
00010000
00001000
00010000
00000000
,  // measure 4
00001000
00010000
00001000
00010000
,  // measure 5
00001000
00001000
00010000
00010000
,  // measure 6
00001000
01000000
00001000
00010000
,  // measure 7
00000100
00010000
00001000
00100000
,  // measure 8
00001000
00010000
00000010
00010000
,  // measure 9
00001000
00100000
01000000
00010000
,  // measure 10
00011000
00000000
00000000
00000000
,  // measure 11
00001000
00000000
00000000
00000000
,  // measure 12
00010000
00000000
00100000
00000000
,  // measure 13
10000000
00010000
20020000
30030000
,  // measure 14
10000000
01000000
00100000
00000000
,  // measure 15
01000000
00010000
00001000
00000000
,  // measure 16
00010000
00001000
00000010
00000000
,  // measure 17
00000100
00000010
00000001
00000000
,  // measure 18
00000001
00001000
00000100
00010000
,  // measure 19
00000100
00001000
00000001
00001001
,  // measure 20
00000001
00001000
00000010
00010000
,  // measure 21
00000010
00001000
00000001
00001001
,  // measure 22
00001000
00000100
00010000
00001000
,  // measure 23
00100000
00010000
10000000
10010000
,  // measure 24
00010000
01000000
00001000
00010000
,  // measure 25
00000010
00001000
00000001
00001001
,  // measure 26
00000100
00000000
00000100
00000000
,  // measure 27
00000100
00010000
00001000
00010000
,  // measure 28
01000000
00000000
01000000
00000000
,  // measure 29
01000000
00010000
00001000
00010000
,  // measure 30
00000100
00000000
00000000
00000000
,  // measure 31
00000010
00000000
00000000
00000000
,  // measure 32
00000001
00000000
00000000
00000000
,  // measure 33
00000100
00000000
00000000
00000000
,  // measure 34
00001000
00001000
00010000
00010000
,  // measure 35
00100000
00100000
10000000
10000000
,  // measure 36
01000000
00100000
00001000
00010000
,  // measure 37
00000100
00000010
00000001
00001001
,  // measure 38
00001000
00000100
00010000
00001000
,  // measure 39
00100000
01000000
10000000
10010000
,  // measure 40
00010000
00100000
00001000
00010000
,  // measure 41
00000100
00000010
00000001
00001001
,  // measure 42
00001000
00000000
00000000
00000000
,  // measure 43
00010000
00000000
00000000
10010000
,  // measure 44
10000000
00100000
00010000
00001000
,  // measure 45
00000100
00000001
00001000
00001100
,  // measure 46
00000020
00000030
00000200
00000300
,  // measure 47
00000001
00000010
00001010
00000000
,  // measure 48
00020000
00030000
00002000
00003000
,  // measure 49
00010000
01000000
10000000
10010000
,  // measure 50
02200000
03300000
01100000
10010000
,  // measure 51
10000000
01000000
00010000
00001000
,  // measure 52
00000010
00000001
00000100
00001000
,  // measure 53
00010000
00000000
00100000
00000000
10000000
00000000
11000000
11000000
;

//---------------dance-single - ----------------
#NOTES:
     dance-single:
     :
     Medium:
     9:
     0.344188,0.440686,0.312319,0.200776,0.000000,324.000000,282.000000,42.000000,27.000000,0.000000,0.000000,0.344188,0.440686,0.312319,0.200776,0.000000,324.000000,282.000000,42.000000,27.000000,0.000000,0.000000:
0000
0000
0000
0000
,
0000
0000
0000
0000
,
1000
0000
0001
0000
1000
0001
1000
0000
,
0001
0000
1000
0000
0001
1000
0001
0000
,
0100
0010
0100
0110
,
0010
0100
0010
0100
0010
0010
0010
0000
,
1000
0100
0010
0001
,
0100
0000
0010
0000
1000
0001
1001
0000
,
1000
0010
0100
0001
,
0010
0010
0100
0100
,
1000
0001
2000
3100
,
0001
1000
0002
0103
,
1000
0001
1000
0000
0001
1000
0001
0000
,
1000
0001
0100
0010
1000
0001
0100
0100
,
0020
1000
0001
1030
,
0200
0001
1000
0301
,
0001
0010
0100
0000
1000
0010
0100
0000
,
0001
0010
0100
1000
0110
0000
2002
3003
,
0001
0100
0001
0000
1000
0100
1000
0000
,
0001
0100
0001
0000
1000
0100
0200
0000
,
1300
0010
1000
0000
0001
0010
0001
0000
,
1000
0010
1000
0000
0001
0010
0020
0000
,
0031
0100
0010
0000
1000
0010
0100
0000
,
0001
0100
0010
1000
0001
0100
0110
0000
,
0010
1000
0100
0000
0010
0001
0100
0000
,
0110
0000
1010
0000
0101
0000
1001
1001
,
0010
0010
0010
0010
,
0010
1000
0100
0010
0011
0000
1100
0000
,
0100
0100
0100
0100
,
0100
1000
0010
0100
0101
0000
1010
0000
,
1000
0001
0200
0320
,
1030
0001
0020
0230
,
1300
0020
0230
0302
,
2003
3200
0320
0032
,
1003
0000
1000
0010
0100
0000
0001
0100
,
0020
0000
2030
0000
3002
0000
0103
0100
,
0010
1000
0100
0010
0001
0100
0010
1000
,
0100
0100
0100
0100
0010
0000
1001
0000
,
0001
0100
0010
0000
1000
0010
0100
0000
,
0001
0100
0010
1000
0100
0010
1001
0000
,
1000
0010
0100
0000
0001
0100
0010
0000
,
1010
0000
0101
0000
1001
0000
0110
0110
,
0020
0000
0000
0000
0130
0010
0100
1001
,
0002
0000
0000
0000
1003
0001
1001
0000
,
1000
0010
0100
0001
1000
0100
0010
0001
,
0101
0000
1010
0000
0110
0000
1001
1001
,
0110
0000
1001
1001
0110
0000
1000
0100
,
0010
0001
1000
0100
0020
0000
0031
0100
,
1010
0000
1000
0100
0011
0000
1001
0000
,
0001
1000
0010
0100
0001
0010
0100
1000
,
0110
1000
0001
1001
,
1000
0100
0010
0001
0200
0000
0320
0000
,
1030
0100
0001
0000
1000
0010
0001
0000
,
0101
0000
1100
0000
1010
0000
0011
0011
;

//---------------dance-double - ----------------
#NOTES:
     dance-double:
     :
     Medium:
     9:
     0.322942,0.360561,0.237957,0.252829,0.000000,304.000000,272.000000,32.000000,34.000000,0.000000,0.000000,0.322942,0.360561,0.237957,0.252829,0.000000,304.000000,272.000000,32.000000,34.000000,0.000000,0.000000:
// measure 0
00000000
00000000
00000000
00000000
,  // measure 1
00000000
00000000
00000000
00000000
,  // measure 2
00001000
00000000
00010000
00000000
00001000
00010000
00001000
00000000
,  // measure 3
00010000
00000000
00001000
00000000
00010000
00001000
00010000
00000000
,  // measure 4
00001000
00010000
00001000
00011000
,  // measure 5
00010000
00001000
00010000
00001000
00010000
00001000
00010000
00000000
,  // measure 6
00000100
00001000
00000010
00010000
,  // measure 7
00001000
00000000
00100000
00000000
00010000
10000000
10010000
00000000
,  // measure 8
00010000
01000000
00001000
00010000
,  // measure 9
00000100
00001000
00000010
00010000
,  // measure 10
00001000
00010000
02000000
03000000
,  // measure 11
00010000
00001000
00000200
00000300
,  // measure 12
00000001
00001000
00000001
00000000
00001000
00000001
00001000
00000000
,  // measure 13
00000001
00001000
00000001
00001000
00000010
00000100
00000010
00000100
,  // measure 14
00000002
00000023
00000230
00020300
,  // measure 15
00032000
00203000
02300000
23000000
,  // measure 16
30100000
00010000
00001000
00000010
,  // measure 17
00000001
00000000
00000100
00000000
00001000
00000000
00022000
00033000
,  // measure 18
00010000
00000100
00010000
00000000
00001000
01000000
00001000
00000000
,  // measure 19
00010000
00000100
00010000
00000000
00001000
01000000
00002000
00000000
,  // measure 20
00013000
00000010
00010000
00000000
00001000
00100000
00001000
00000000
,  // measure 21
00010000
00000010
00010000
00000000
00001000
00100000
00002000
00000000
,  // measure 22
00013000
00001000
00000100
00000000
00001000
00000100
00000010
00000000
,  // measure 23
00000100
00000001
00000010
00000000
00000100
00010000
00011000
00000000
,  // measure 24
00001000
00010000
00100000
00000000
00010000
00100000
01000000
00000000
,  // measure 25
01100000
00000000
10100000
00000000
01010000
00000000
10010000
10010000
,  // measure 26
10000000
10000000
10000000
10000000
,  // measure 27
10000000
01000000
00010000
00001000
00000010
00000000
00000011
00000000
,  // measure 28
00000001
00000001
00000001
00000001
,  // measure 29
00000001
00000100
00001000
00010000
00100000
00000000
10100000
00000000
,  // measure 30
10000000
00010000
02000000
03002000
,  // measure 31
00013000
00000100
00002000
00003020
,  // measure 32
00000130
00000000
00000002
00000000
00000023
00000000
00000230
00000300
,  // measure 33
00020000
00000000
00032000
00003000
00200000
00000000
02300000
00000000
,  // measure 34
23000000
00000000
30100000
01000000
00010000
00000000
00100000
00001000
,  // measure 35
00020000
00000000
00030200
00000000
00000320
00000000
00000031
00000001
,  // measure 36
00000100
00001000
00010000
00001000
00000100
00001000
00010000
01000000
,  // measure 37
11000000
10100000
00110000
00011000
,  // measure 38
00001000
00010000
01000000
00000000
00010000
01000000
00100000
00000000
,  // measure 39
01000000
10000000
00100000
00000000
00010000
00001000
00011000
00000000
,  // measure 40
00010000
00001000
00000010
00000000
00001000
00000010
00000100
00000000
,  // measure 41
00001100
00000000
00000011
00000000
00000101
00000000
00001010
00001000
,  // measure 42
00000200
00000000
00000000
00000000
00010300
00001000
00010000
01000000
,  // measure 43
20000000
00000000
00000000
00000000
30100000
01000000
01010000
00000000
,  // measure 44
00010000
00100000
01000000
00010000
00001000
00010000
00001000
00000100
,  // measure 45
00000010
00000000
00000110
00000000
00001001
00000000
00000001
00000100
,  // measure 46
00001000
00000000
00010000
00100000
10000000
00000000
01000000
00100000
,  // measure 47
00010000
01000000
00001000
00010000
00000200
00000000
00000310
00000001
,  // measure 48
00000101
00000000
00000010
00001000
00001100
00000000
00001001
00000000
,  // measure 49
00000001
00000100
00000010
00001000
00000100
00010000
00001000
00100000
,  // measure 50
01000000
10000000
00100000
01010000
,  // measure 51
00010000
00100000
01000000
00010000
00002000
00000000
00023000
00000000
,  // measure 52
00030100
00000010
00000001
00000000
00001000
00000100
00000010
00000000
,  // measure 53
00001100
00000000
00011000
00000000
01010000
00000000
11000000
11000000
;
