#TITLE:Bring It On;
#SUBTITLE:;
#ARTIST:ONEUS;
#TITLETRANSLIT:;
#SUBTITLETRANSLIT:;
#ARTISTTRANSLIT:;
#GENRE:K-POP;
#CREDIT:MUINELIM;
#BANNER:Bring It On.png;
#BACKGROUND:Bring It On-bg.png;
#LYRICSPATH:;
#CDTITLE:;
#MUSIC:Bring It On.mp3;
#OFFSET:0.200000;
#SAMPLESTART:50.186565;
#SAMPLELENGTH:15.375839;
#SELECTABLE:YES;
#DISPLAYBPM:75:150;
#BPMS:0.000000=150,126.000000=75,140.000000=150,240.000000=75.,241.000000=150
;
#STOPS:29.000000=0.4,124.000000=0.8,241.000000=0.4,274.000000=0.4
;
#BGCHANGES:0.000=Bring It On-bg.png=1.000=0=0=1====#000000=#000000,
0.500=Bring It On.avi=1.000=1=0=0=StretchNoLoop==CrossFade==,
99999=-nosongbg-=1.000=0=0=0 // don't automatically add -songbackground-
;
#KEYSOUNDS:;
#ATTACKS:;

//---------------dance-single - ----------------
#NOTES:
     dance-single:
     :
     Beginner:
     4:
     0.141295,0.202590,0.022479,0.097408,0.000000,132.000000,129.000000,3.000000,13.000000,0.000000,0.000000,0.141295,0.202590,0.022479,0.097408,0.000000,132.000000,129.000000,3.000000,13.000000,0.000000,0.000000:
// measure 0
0000
0000
0000
0000
,  // measure 1
0000
0000
0000
0000
,  // measure 2
0000
0000
0000
0000
,  // measure 3
0000
0000
0000
0000
,  // measure 4
0000
0000
0000
0000
,  // measure 5
0000
1000
0000
0000
,  // measure 6
0000
0001
0000
0000
,  // measure 7
0100
0100
0000
0000
,  // measure 8
0010
0000
0000
0000
,  // measure 9
1000
0000
0000
0000
,  // measure 10
0001
0000
0000
0000
,  // measure 11
0100
0000
0000
0000
,  // measure 12
0010
0000
0000
0000
,  // measure 13
1000
0000
0000
0000
,  // measure 14
0001
0000
0000
0000
,  // measure 15
0100
0000
0000
0000
,  // measure 16
0010
0000
0010
0000
,  // measure 17
1000
1000
1000
0000
,  // measure 18
0100
0000
0100
0000
,  // measure 19
0001
0001
0001
0000
,  // measure 20
0010
0000
0100
0000
,  // measure 21
0010
0010
0010
0000
,  // measure 22
0100
0000
0001
0000
,  // measure 23
1000
0000
0010
0000
,  // measure 24
0100
0000
0000
0000
,  // measure 25
0001
0000
0000
0000
,  // measure 26
0010
0000
1000
0000
,  // measure 27
0100
0100
0000
0000
,  // measure 28
0010
0000
0100
0000
,  // measure 29
1000
0000
0001
0000
,  // measure 30
0010
0010
0010
0010
,  // measure 31
0010
0000
0010
0000
,  // measure 32
0001
0000
0100
0000
,  // measure 33
1000
0000
0010
0000
,  // measure 34
0001
0000
0100
0100
,  // measure 35
0100
0000
0010
0100
,  // measure 36
0020
0030
0000
0000
,  // measure 37
0020
0030
0000
0000
,  // measure 38
0010
0000
1000
0000
,  // measure 39
0001
0000
0100
0000
,  // measure 40
0020
0030
0000
0000
,  // measure 41
0020
0030
0000
0000
,  // measure 42
0010
0000
0010
0010
,  // measure 43
1000
0000
0001
0000
,  // measure 44
1001
0000
0000
0000
,  // measure 45
0100
0000
0000
0000
,  // measure 46
0010
0000
0000
0000
,  // measure 47
1000
0000
0000
0000
,  // measure 48
0001
0000
0000
0000
,  // measure 49
0100
0000
0000
0000
,  // measure 50
0010
0000
0100
0000
,  // measure 51
0010
0000
1000
0000
,  // measure 52
0100
0000
0001
0000
,  // measure 53
0010
0000
0100
0000
,  // measure 54
0010
0000
0100
0000
,  // measure 55
0010
0000
0100
0000
,  // measure 56
0110
0000
0000
0000
,  // measure 57
1000
0000
0001
0000
,  // measure 58
1000
0000
0001
0000
,  // measure 59
1000
0000
0001
0000
,  // measure 60
1001
0000
0000
0100
,  // measure 61
0010
0010
2000
3000
,  // measure 62
0000
0000
2000
3000
,  // measure 63
0000
0000
1000
0000
,  // measure 64
0100
0000
0010
0010
,  // measure 65
0010
0010
0002
0003
,  // measure 66
0000
0000
0002
0003
,  // measure 67
0000
0000
0001
0000
,  // measure 68
0010
0000
0100
0100
,  // measure 69
0100
2000
3000
0000
,  // measure 70
0000
0002
0003
0000
,  // measure 71
0000
0100
0000
0010
,  // measure 72
0000
1000
1000
0010
,  // measure 73
0100
0002
0003
0000
,  // measure 74
0000
2000
3000
0000
,  // measure 75
0000
0001
0000
0100
,  // measure 76
0000
1000
0000
0010
,  // measure 77
0020
0030
0000
0000
;

//---------------dance-single - ----------------
#NOTES:
     dance-single:
     :
     Easy:
     6:
     0.268675,0.346174,0.232281,0.254760,0.000000,251.000000,220.000000,31.000000,34.000000,0.000000,0.000000,0.268675,0.346174,0.232281,0.254760,0.000000,251.000000,220.000000,31.000000,34.000000,0.000000,0.000000:
0000
0000
0000
0000
,
0000
0000
0000
0000
,
0000
0000
0000
0000
,
0000
0000
0000
0000
,
0000
0000
0000
0000
,
0000
1000
0100
0010
,
0000
0001
0010
0100
,
0000
1001
0000
0000
,
0010
1000
0100
0000
,
0010
0001
0100
0000
,
0010
1000
0100
0010
,
0001
0100
0110
0000
,
0010
0100
0001
0000
,
0100
0010
1000
0000
,
0010
0100
0001
1000
,
0010
0100
0010
0010
,
0110
0000
1000
0001
,
1000
0001
2000
3000
,
0110
0000
0001
1000
,
0001
1000
0002
0003
,
0110
0000
1000
0001
,
1000
0001
0100
0100
,
0010
1000
0001
0100
,
0010
1000
0001
0100
,
0010
1000
0100
0010
,
0001
0101
0000
0010
,
1000
0100
0010
0001
,
0100
1010
0000
0001
,
0001
0010
0100
1000
,
0001
0010
0100
1000
,
0010
0100
0010
0100
,
0110
0000
0001
0100
,
0010
0100
0010
0000
1000
0000
0100
0000
,
0010
0100
0010
0000
0001
0000
0100
0000
,
1000
0000
0010
0000
0001
1000
0001
1000
,
0002
0003
0100
0100
,
0220
0330
0000
0000
,
0220
0330
0000
0000
,
0010
1000
0100
0010
,
0001
1000
0001
1001
,
0220
0330
0000
0000
,
0220
0330
0000
0000
,
0100
0001
1000
0100
,
0010
0010
0010
0010
,
0001
0000
0100
0000
,
1000
0010
0001
0000
,
1000
0000
0100
0000
,
0001
0010
1000
0000
,
0001
0000
0100
0000
,
1000
0000
0010
0000
,
0001
1000
0010
0100
,
0110
0000
0110
0000
,
0110
0000
0110
0000
,
2000
3100
0100
0000
,
0002
0103
0100
0000
,
2000
3010
0010
0001
,
1001
0000
0000
0000
0010
0100
0010
0000
,
0002
0103
0100
0000
,
2000
3100
0100
0000
,
0002
0013
0010
1000
,
1001
0000
0010
0010
,
1010
0101
2002
3003
,
0000
0000
2002
3003
,
0000
0000
0001
0100
,
1000
0010
0001
0100
,
0010
0110
2002
3003
,
0000
0000
2002
3003
,
0000
0000
1000
0100
,
0001
0010
0110
1000
,
0001
0202
0303
0000
,
0000
2020
3030
0000
,
0000
1000
0100
0001
,
0010
1000
0100
0010
,
0001
0022
0033
0000
,
0000
2200
3300
0000
,
0000
0000
1000
1000
0000
0010
0010
0000
,
0001
0000
0200
0000
0300
0000
1000
0001
,
1000
0000
0000
0000
;

//---------------dance-single - ----------------
#NOTES:
     dance-single:
     :
     Medium:
     9:
     0.375717,0.490413,0.449576,0.149859,0.003746,351.000000,291.000000,60.000000,20.000000,0.000000,0.000000,0.375717,0.490413,0.449576,0.149859,0.003746,351.000000,291.000000,60.000000,20.000000,0.000000,0.000000:
0000
0000
0000
0000
,
0000
0000
0000
0000
,
0000
0000
0000
0000
,
0000
0000
0000
0000
,
0000
0000
0000
0000
,
0000
1000
0100
0020
,
0030
0001
0010
0200
,
0300
1001
0100
0100
,
0001
0010
0011
0000
,
0001
0100
0101
0000
,
0001
0010
0100
1000
,
0010
0100
0110
0000
,
0010
1000
1100
0000
,
0100
0010
0011
0000
,
0001
0100
0010
1000
,
0100
0010
1001
1001
,
0002
0000
0000
0100
0103
0000
0010
0000
,
1000
0001
0101
0000
,
0002
0000
0000
0010
0013
0000
0100
0000
,
1000
0001
0011
0000
,
0002
0000
0000
0100
0103
0000
0010
0000
,
1000
0000
0100
0010
0100
0000
1000
0000
,
0010
0100
0001
0011
,
0010
0100
1000
1100
,
0100
0020
0030
0001
,
0100
0110
0000
1000
,
0110
0001
0110
1000
,
0010
0100
0020
0000
0030
0000
1000
0000
,
0001
0010
0100
1000
,
0001
0010
0100
1000
,
0010
0100
0001
0000
0100
0010
1000
0000
,
1001
0000
0010
0010
0010
1000
0100
1000
,
0010
1000
0100
0000
0010
0001
0100
0001
,
0010
0001
0100
0000
1000
0001
1000
0100
,
1000
0000
0001
0000
1000
0000
0100
0000
0010
0000
0000
0001
0000
0000
0100
0000
,
0110
0000
0010
0000
1000
0100
1000
0100
,
0010
0001
0100
1000
,
0001
0010
1000
0100
,
1100
0010
0011
1000
,
1001
0110
1001
0110
,
0100
0001
0010
1000
,
0001
0100
1000
0010
,
0100
0100
0000
0010
0010
0000
0100
0000
,
1001
0110
1001
0110
,
2000
0000
3010
0000
,
0002
0000
0103
0000
,
2000
0000
3001
0000
,
0020
0000
0130
0000
,
2000
0000
3100
0000
,
0002
0000
0013
0000
,
0010
0100
1000
0001
,
1001
0000
0110
0000
,
1001
0000
0220
0330
,
0010
1000
1100
0000
,
0010
1000
1100
0000
,
0010
1000
1100
0010
,
0001
0000
0100
0001
0100
0010
1000
0010
,
0100
0001
0011
0000
,
0100
0001
0011
0000
,
0100
0001
0011
0100
,
2100
3001
1001
0100
,
0010
0100
0010
0100
0010
0000
0001
0000
,
0100
1000
0001
0010
,
1000
0100
0110
0001
,
0110
1000
1010
0011
,
0101
1100
1000
0010
,
0001
1000
0100
0001
,
0010
0100
0220
0330
,
2002
0000
3003
0000
1001
0000
0100
0010
,
0100
0010
1000
0100
0010
0000
0010
0001
,
0100
0000
1000
0100
0010
0000
0010
0001
,
0100
1100
0101
1100
,
0101
1001
0110
1001
,
0110
0000
0010
1000
0100
0000
0100
0010
,
0001
0000
0010
1000
0100
0000
0100
0010
,
0001
0000
0100
0101
0000
0010
1010
0000
,
1001
0000
0110
0000
0010
1000
0100
0010
,
0001
0000
0000
0000
;

//---------------dance-single - ----------------
#NOTES:
     dance-single:
     :
     Hard:
     13:
     0.571604,0.752478,0.479548,0.277239,0.318450,534.000000,470.000000,64.000000,37.000000,0.000000,0.000000,0.571604,0.752478,0.479548,0.277239,0.318450,534.000000,470.000000,64.000000,37.000000,0.000000,0.000000:
0000
0000
0000
0000
,
0000
0000
0000
0000
,
0000
0000
0000
0000
,
0000
0000
0000
0000
,
0000
0000
0000
0000
,
0000
0000
0000
0100
0001
0000
0100
0010
0000
1000
0000
0000
,
1001
0000
0000
0010
1000
0000
0010
0100
0000
0001
0000
0000
,
0010
0000
0100
0000
1000
0000
1001
0000
0000
0000
0000
0000
0001
0000
0000
0100
0000
0000
0010
0000
0000
1000
0000
0000
,
0100
0000
0100
0010
0000
0010
0001
0000
0000
0100
0000
0010
,
1000
0000
1000
0001
0000
0001
0100
0000
0000
0010
0000
1000
,
0100
0000
0100
1000
0000
1000
0010
0000
0010
0100
0000
0100
,
0001
0000
0001
0010
0000
0010
0100
0000
0000
1000
0000
0010
,
0100
0000
0001
0100
0000
0010
0100
0000
0000
0001
0000
1000
,
0100
0000
1000
0010
0000
1000
0100
0000
0000
0010
0000
0001
,
0100
0000
0100
0010
0000
0010
1000
0000
1000
0001
0000
0001
,
0010
0000
0000
0000
0010
0000
0100
0000
0000
0000
0100
0000
1000
0000
0000
0010
0000
0000
0100
0000
0001
0000
0100
0000
,
0020
2030
3200
0320
,
0032
0000
0103
0010
1000
0000
0010
0100
,
0102
0023
0230
2300
,
3020
0000
0130
0001
0010
0000
0100
1000
,
1020
0230
0302
2003
,
3200
0000
0310
0001
0100
0000
0010
1000
,
1001
0110
1001
0110
,
0002
0023
0230
2300
,
3020
0000
0100
0000
0000
0130
0010
0001
,
1000
0100
0020
0000
0000
0130
0010
0001
,
0100
0000
0010
1000
0100
0000
0010
0100
,
0110
0000
2002
3000
0000
1003
0010
0100
,
0001
0000
0000
0010
0000
0000
0100
0000
1000
0000
0000
0010
0000
0000
0100
0000
,
0001
0000
0000
1000
0000
0000
0100
0000
0020
0000
0000
0000
0130
0000
1000
0000
,
0010
0100
0001
0010
0100
1000
0010
0100
,
1001
0000
0000
0000
0010
0000
0010
0000
0100
0001
0000
0100
1000
0000
0100
0001
,
0000
0100
1000
0100
0010
0100
0001
0000
1000
0010
0000
0001
0010
0000
1000
0010
,
0000
0001
0010
0100
0010
1000
0010
0000
1000
0100
0000
0100
0001
0000
0001
0010
,
0000
0010
1000
0000
1100
0000
0010
0100
1000
1000
0000
0010
0010
0000
0001
2001
,
0000
0000
3100
0000
0100
0010
0001
0100
,
0010
0010
1000
0001
0010
0100
1000
0010
,
0100
0100
0100
0001
1000
0100
0010
0001
,
0101
1100
1010
0011
,
1001
0110
1001
0110
,
1000
1000
0010
0100
0001
0010
0100
1000
,
0010
0010
0010
0100
0001
1000
0100
0010
,
0001
0101
0000
1000
1010
0000
0110
0000
,
1001
0101
1001
1100
,
2002
3003
0001
0100
0010
1000
0010
0100
,
0001
0000
0010
0000
0100
1000
0100
0000
0020
0000
0000
0000
0031
0000
0000
0000
,
0001
0000
0000
0000
0100
0000
0010
1000
0010
0000
0100
0000
0001
0000
0010
0000
,
0100
0000
1000
0010
0200
0000
0301
0000
,
0022
0033
0010
0100
1000
0000
0010
0100
,
1000
0000
0100
0000
0001
0000
0010
0100
0020
0000
0000
0000
0000
0000
0031
0000
,
0100
0010
0001
0010
1000
0100
0010
0001
,
1000
0010
1000
0010
1000
0010
0100
0000
0100
0000
0100
0000
,
0202
0303
1010
0010
,
1001
0000
0000
1000
0000
0001
0100
0000
0000
1000
0000
0000
,
1010
0000
0000
0001
0000
1000
0010
0000
0000
0001
0000
0000
,
0011
0000
0000
1000
0000
0001
0100
0000
0000
0001
0010
0100
,
2000
0000
3000
0000
0010
0100
0001
1000
,
0110
0000
0000
0010
0000
0010
1000
0000
0000
0100
0000
0000
,
0110
0000
0000
0010
0000
0010
0001
0000
0000
0100
0000
0000
,
0110
0000
0000
0010
0000
0010
1000
0000
0000
0001
0010
0100
,
1100
0011
1001
0110
,
0001
0100
0000
0000
1000
0010
0000
0000
0001
0000
0001
0000
0100
0000
0010
0000
,
1000
0100
0001
0100
0010
0010
0010
0001
,
0100
1000
0100
0010
1010
0000
1100
0000
,
0101
0011
1001
0110
,
1001
0000
0110
0000
1000
1000
0100
0001
,
0100
0010
0001
0100
0010
0010
0010
0001
,
0010
0000
1000
0000
0100
0000
0010
0000
0001
0000
0000
0100
0000
0000
1000
0000
,
0010
0000
0000
0001
0000
0000
1000
0000
1001
0000
0000
0000
0010
1000
0000
0000
,
0100
0001
0000
0000
0010
0000
0100
0000
1000
0000
0010
0000
0100
0001
0100
0000
,
0010
0000
1000
0000
0100
0000
0010
0000
0001
0000
0100
0010
0100
0000
0001
0000
,
0100
0010
1010
0000
0011
0000
0101
0000
,
1100
1001
0110
1001
,
0110
0000
0000
0000
0010
1000
0010
0000
1000
0000
0100
0000
0001
0000
0100
0000
,
0010
0000
0001
0000
0100
0000
1000
0000
0100
0000
0010
1000
0010
0000
0100
0000
,
0001
0010
0100
1100
0000
0010
0011
0000
,
1001
0000
0110
0000
0001
0010
0100
1000
,
2020
3030
0000
0000
;

//---------------dance-single - ----------------
#NOTES:
     dance-single:
     :
     Challenge:
     14:
     0.679717,0.984010,0.494534,0.487041,0.584449,635.000000,569.000000,66.000000,65.000000,0.000000,0.000000,0.679717,0.984010,0.494534,0.487041,0.584449,635.000000,569.000000,66.000000,65.000000,0.000000,0.000000:
0000
0000
0000
0000
,
0000
0000
0000
0000
,
0000
0000
0000
0000
,
0000
0000
0000
0000
,
0000
0000
0000
0000
,
0000
0000
0000
1000
0010
0100
0001
0000
0001
0200
0000
0000
,
0310
0000
0000
0010
1000
0001
0100
0000
0100
0002
0000
0000
,
1003
0000
0100
0000
0010
0000
0011
0000
0000
0000
0000
0000
0002
0000
0000
0203
0000
0000
0320
0000
0000
2030
0000
0000
,
3100
0010
0001
0100
0000
0100
0010
0000
0000
0010
1000
0010
,
0100
0001
0010
0100
0000
0100
1000
0000
0000
1000
0010
1000
,
0100
0010
0001
0100
0000
0100
0010
1000
0100
0010
0000
0010
,
0001
0100
0010
1000
0000
1000
0100
0000
0000
0100
0010
0001
,
1000
0100
0010
0100
0000
0100
1000
0000
0000
1000
0010
0100
,
0010
0001
0010
0100
0000
0100
0001
0000
0000
0001
0010
0100
,
1000
0010
0100
0001
0000
0001
1000
0100
0010
0001
0000
0001
,
0100
0000
1000
0000
0001
0000
0010
0000
0000
0000
0010
0000
2000
0000
0000
3200
0000
0000
0320
0000
0000
0032
0000
0000
,
0203
0000
0000
0010
0310
0000
1010
0000
,
1000
0100
0001
0100
1000
0100
0001
1000
,
0020
0000
0000
0100
0130
0000
0101
0000
,
0001
0010
1000
0010
0001
0010
1000
0001
,
0200
0000
0000
0010
0310
0000
1001
0000
,
0001
0100
1000
0100
0001
0010
1000
0010
,
0001
0100
0000
0000
0010
1000
0000
0000
1100
0000
0000
0000
0011
0000
0000
0000
,
0001
0010
0100
1000
0001
0010
0100
1000
0010
0100
0001
1000
,
0200
0000
0010
0000
0310
0010
0001
0100
,
1000
0100
0002
0000
0010
0000
0013
0100
,
2000
0000
3001
0010
0200
0000
1300
0010
,
0100
0010
0100
0000
2002
0000
0003
0000
0000
0000
3001
0000
0100
0000
1000
0000
,
0010
0000
0000
0001
0000
0000
0100
0000
0010
0000
0000
1000
0000
0000
0001
0000
,
0010
0000
0000
0100
0000
0000
1000
0000
0010
0000
0100
0000
0001
0000
1000
0000
,
0100
0010
0100
0000
1000
0010
1000
0000
0001
0010
0001
0000
0010
0100
0010
0100
,
2000
0000
3010
0000
0010
0000
0010
0000
0100
0001
0010
0100
1000
0010
1000
0100
,
0010
0001
0100
0010
1000
1000
1100
0000
0010
1000
0100
0010
0001
0100
0001
0010
,
0100
1000
0010
0100
0001
0001
0011
0000
0100
0010
1000
0100
0001
0100
0010
0001
,
0100
1000
0100
0010
1010
0000
1000
0100
0010
0011
0000
0001
1001
0000
1000
1020
,
0000
0000
0000
0000
0130
0000
0000
0000
0100
0001
0010
0000
0100
1000
0010
0000
,
0100
0010
0100
0000
0001
0000
0020
0000
0130
0000
0010
0000
0001
0000
0100
0000
,
0010
1000
0010
0000
0200
0000
0302
0000
1003
0000
0001
0000
0010
0000
0100
0000
,
1000
0010
0000
0000
0010
0100
0000
0000
0100
0001
0000
0000
0001
0010
0000
0000
,
0110
1001
0110
1001
,
1000
0100
1000
0000
0010
0000
0200
0000
0301
0000
0100
0000
0010
0000
1000
0000
,
0100
0010
0100
0000
0020
0000
0032
0000
0103
0000
0001
0000
1000
0000
0010
0000
,
0100
0101
0000
0010
1010
0000
1001
0000
,
0011
1010
1100
0101
,
2002
3003
1000
0100
0001
0100
1000
0100
,
0001
0000
0100
0000
0010
0001
0010
0001
0100
0000
0000
0000
0110
0000
0000
0000
,
0020
0000
0000
0000
1030
0000
1000
0100
0010
0000
0001
0000
0100
0000
1000
0000
,
0100
0010
1000
0100
0010
0000
0011
0000
,
0200
0000
0310
1000
0100
0010
1000
0010
,
0001
0000
0100
0000
0010
1000
0010
1000
0002
0000
0000
0000
0000
0000
0103
0000
,
0010
0000
1000
0000
0100
0000
0010
0001
0100
0000
0100
0000
0010
0000
1000
0000
,
0001
0010
0100
1000
0010
0100
0001
0000
1000
0000
0010
0000
,
0220
0330
1001
0101
,
1020
0000
0000
1030
0100
0010
0001
0000
0000
0011
0000
0000
,
1200
0000
0000
1300
0010
0100
0001
0000
0000
0101
0000
0000
,
2010
0000
0000
3100
0010
0001
0100
0000
0000
0100
0001
0010
,
0110
0000
0000
0000
0100
0000
1000
0000
0010
0000
0100
0000
0002
0000
0000
0013
0000
0000
2000
0000
0000
3010
0000
0000
,
0110
0000
0000
0001
0010
0100
1000
0000
0000
1010
0000
0000
,
0012
0000
0000
1003
0100
0010
0001
0000
0000
0101
0000
0000
,
2100
0000
0000
3001
0100
0010
1010
0000
1000
0100
0010
0001
,
2001
0000
0000
0000
3010
0000
0000
0000
0110
0000
0000
0100
0002
0000
0000
0000
,
0013
0100
1000
0000
0001
0010
0100
0000
0010
0100
0010
0000
0001
0000
0200
0000
,
0310
0000
0100
0000
0001
0000
0010
0000
0100
1000
0100
0000
0020
0000
0032
0000
,
1003
0000
0001
0000
0100
0000
0010
0000
1000
0100
0000
0000
0100
0010
0000
0000
,
0010
0001
0000
0000
0001
0100
0000
0000
0110
0000
0000
0000
1001
0000
0000
0000
,
0110
0000
0000
0000
1001
0000
0000
0000
1000
0010
1000
0000
0100
0000
0020
0000
,
0031
0000
0010
0000
0100
0000
1000
0000
0010
0100
0010
0000
0200
0000
0302
0000
,
0013
0000
0001
0000
1000
0000
0100
0000
1100
0000
0000
1010
0000
0000
0101
0000
,
0011
0000
0000
1001
0000
0000
0110
0000
1001
0000
0000
0000
0001
0100
0010
0000
,
1000
0010
0100
0000
0001
0010
0001
0010
0100
0000
2000
0000
3010
0000
1000
0000
,
0010
0001
0020
0230
0302
0023
0230
1300
,
0100
0000
0010
0000
0001
0100
0001
0000
1000
0100
1000
0000
0001
0010
0001
0000
,
1000
0010
1000
0000
1100
0000
0000
0000
0101
0000
0000
0000
0011
0000
0000
0000
,
1010
0000
0000
0000
1000
0100
1000
0100
0010
0000
0002
0000
0103
0000
0001
0000
,
0100
1000
0200
0302
0023
0230
2300
3001
,
1000
0010
1010
1100
0000
0011
0101
0000
,
1001
0000
0220
0300
1030
0100
0001
0010
,
2200
3300
0000
0000
;

//---------------dance-double - ----------------
#NOTES:
     dance-double:
     :
     Easy:
     6:
     0.249408,0.346174,0.172338,0.104901,0.000000,233.000000,210.000000,23.000000,14.000000,0.000000,0.000000,0.249408,0.346174,0.172338,0.104901,0.000000,233.000000,210.000000,23.000000,14.000000,0.000000,0.000000:
00000000
00000000
00000000
00000000
,
00000000
00000000
00000000
00000000
,
00000000
00000000
00000000
00000000
,
00000000
00000000
00000000
00000000
,
00000000
00000000
00000000
00000000
,
00000000
00001000
00000000
00010000
,
00000000
00001000
00000000
00010000
,
00000000
00011000
00000000
00000000
,
00001000
00100000
00001000
00000000
,
00010000
00000010
00010000
00000000
,
00001000
00100000
00010000
00100000
,
00001000
00010000
00011000
00000000
,
00010000
00000100
00010000
00000000
,
00001000
01000000
00001000
00000000
,
00010000
00000100
00001000
00000100
,
00010000
00001000
00100000
00100000
,
01100000
00000000
10000000
01000000
,
00010000
00001000
00000100
00000000
,
00000110
00000000
00000001
00000100
,
00001000
00010000
00100000
00000000
,
01100000
00000000
10000000
01000000
,
00010000
00001000
00000100
00000000
,
00000001
00001000
00000100
00010000
,
00001000
00100000
00010000
10000000
,
01000000
00100000
00001000
00010000
,
00000100
00000110
00000000
00000010
,
00000001
00000100
00001000
00010000
,
00100000
01100000
00000000
01000000
,
01000000
00010000
00100000
00001000
,
00010000
00000100
00001000
00000010
,
00010000
00001000
01000000
00100000
,
10100000
00000000
10000000
01000000
,
00010000
00011000
00000001
00000010
,
00001000
00011000
10000000
00100000
,
00010000
00011000
00000001
00000010
,
00002000
00003000
00010000
00001000
,
00200000
00300000
00000000
00000000
,
00200000
00300000
00000000
00000000
,
00010000
01000000
00001000
00010000
,
00001000
00000010
00000001
00000100
,
00000020
00000030
00000000
00000000
,
00000020
00000030
00000000
00000000
,
00001000
00000100
00010000
00001000
,
00100000
00100000
00100000
00100000
,
01100000
00000000
10000000
00000000
,
00010000
01000000
00001000
00000000
,
00010000
00000000
00000100
00000000
,
00001000
00000010
00010000
00000000
,
00001000
00000000
00100000
00000000
,
00010000
00000000
01000000
00000000
,
00100000
10000000
01000000
00010000
,
00011000
00000000
00011000
00000000
,
00011000
00000000
00011000
00000000
,
00001000
00000100
00000001
00000000
,
00000001
00000100
00001000
00000000
,
00001000
00000100
00000001
00001000
,
00001100
00000000
00000100
00010000
,
00010000
01000000
10000000
00000000
,
10000000
01000000
00010000
00000000
,
00010000
01000000
10000000
00100000
,
00110000
00000000
00011000
00000000
,
00001000
00010000
00000200
00000300
,
00000000
00000000
00000200
00000300
,
00000000
00000000
00000010
00000001
,
00000100
00001000
00010000
01000000
,
00100000
00010000
02000000
03000000
,
00000000
00000000
02000000
03000000
,
00000000
00000000
00100000
10000000
,
01000000
00010000
00011000
00000100
,
00000100
00002000
00003000
00000000
,
00000000
00000002
00000003
00000000
,
00000000
00000010
00000100
00010000
,
00001000
00100000
01000000
10000000
,
01100000
00020000
00030000
00000000
,
00000000
20000000
30000000
00000000
,
00000000
00000000
01000000
01000000
00000000
00010000
00010000
00000000
,
00011000
00000200
00000300
00000010
,
00000011
00000000
00000000
00000000
;

//---------------dance-double - ----------------
#NOTES:
     dance-double:
     :
     Medium:
     10:
     0.359661,0.432717,0.367154,0.164845,0.003746,336.000000,287.000000,49.000000,22.000000,0.000000,0.000000,0.359661,0.432717,0.367154,0.164845,0.003746,336.000000,287.000000,49.000000,22.000000,0.000000,0.000000:
00000000
00000000
00000000
00000000
,
00000000
00000000
00000000
00000000
,
00000000
00000000
00000000
00000000
,
00000000
00000000
00000000
00000000
,
00000000
00000000
00000000
00000000
,
00000000
00001000
00100000
00001000
,
00001000
00010000
00000010
00010000
,
00001000
00011000
01000000
01000000
,
00010000
10000000
11000000
00000000
,
01000000
00010000
00011000
00000000
,
00001000
00000010
00000001
00000100
,
00000010
00001000
00001100
00000000
,
00000100
00010000
00011000
00000000
,
00001000
00100000
01100000
00000000
,
01000000
10000000
00100000
01000000
,
00010000
00100000
00001000
00011000
,
00020000
00000000
00000000
00000100
00030100
00000000
00010000
00000000
,
00001000
01000000
01010000
00000000
,
00002000
00000000
00000000
00100000
00103000
00000000
00001000
00000000
,
00010000
00000010
00001010
00000000
,
00020000
00000000
00000000
00001000
00031000
00000000
00010000
00000000
,
00001000
00000000
00000100
00000001
00000100
00000000
00001000
00000000
,
00010000
01000000
10000000
10100000
,
00100000
01000000
00010000
00110000
,
00100000
00002000
00003000
00100000
,
00010000
01010000
00000000
01000000
,
00011000
00000100
00011000
00100000
,
00001000
00010000
00002000
00000000
00003000
00000000
00000010
00000000
,
00000001
00000100
00000010
00010000
,
00001000
01000000
00100000
10000000
,
00010000
00100000
01000000
00000000
00100000
00001000
00010000
00000000
,
00011000
00000000
00000100
00000100
00000100
00000010
00000001
00000000
,
00001000
00000100
00000010
00000000
00010000
00001000
00000100
00000000
,
00100000
00010000
00001000
00000000
01000000
00100000
00010000
00000000
,
10000000
00000000
01000000
00000000
00100000
00000000
00000000
00000000
00001000
00000000
00000000
00010000
00000000
00000000
00001000
00000000
,
00011000
00000000
00011000
00000000
00010000
01000000
00010000
01000000
,
10000000
00100000
00010000
00001000
,
00010000
00100000
10000000
01000000
,
01100000
00010000
01010000
00001000
,
00011000
00100000
00011000
00000010
,
00000001
00000100
00001000
00010000
,
00001000
00000100
00000001
00000010
,
00000110
00001000
00001010
00010000
,
00011000
00000100
00011000
01000000
,
20000000
30000000
00200000
00300000
,
02000000
03000000
00020000
00030000
,
00002000
00003000
00000200
00000300
,
00000020
00000030
00000002
00000003
,
00000200
00000300
00000020
00000030
,
00002000
00003000
00020000
00030000
,
00100000
01000000
10000000
00010000
,
10010000
00000000
00011000
00000000
,
00001001
00000000
00022000
00033000
,
00010000
00100000
10000000
00000000
,
00010000
00100000
10000000
00000000
,
00010000
00100000
10000000
11000000
,
01000000
00000000
00010000
00001000
00100000
00001000
00010000
00000100
,
00001000
00000010
00000001
00000000
,
00001000
00000010
00000001
00000000
,
00001000
00000010
00000001
00000101
,
00000120
00010030
00011000
00001000
,
00100000
01000000
10000000
00100000
01000000
00000000
00010000
00000000
,
00100000
10000000
00100000
00010000
,
01000000
00001000
00011000
00100000
,
00011000
00000010
00000101
00001100
,
00011000
00010010
00000010
00001000
,
00000100
00000001
00000100
00001000
,
00000010
00010000
00002000
00000000
,
00020000
00000000
00033000
00000000
00011000
00000000
00010000
01000000
,
10000000
00000000
10000000
01000000
00100000
00000000
00100000
00010000
,
01000000
00000000
01000000
00001000
00010000
00000000
00010000
00000100
,
00000010
00000011
00001000
00011000
,
01000000
01010000
10100000
01001000
,
00011000
00000000
00001000
00000100
00000001
00000000
00000001
00000010
,
00000100
00000000
00000100
00010000
00001000
00000000
00001000
00100000
,
01000000
00000000
01000000
10000000
00000000
00100000
00010000
00000000
,
00011000
00000000
00001100
00000000
00000001
00000010
00000100
00001000
,
00011000
00000000
00000000
00000000
;

//---------------dance-double - ----------------
#NOTES:
     dance-double:
     :
     Hard:
     12:
     0.552337,0.723537,0.412112,0.224788,0.269746,516.000000,461.000000,55.000000,30.000000,0.000000,0.000000,0.552337,0.723537,0.412112,0.224788,0.269746,516.000000,461.000000,55.000000,30.000000,0.000000,0.000000:
00000000
00000000
00000000
00000000
,
00000000
00000000
00000000
00000000
,
00000000
00000000
00000000
00000000
,
00000000
00000000
00000000
00000000
,
00000000
00000000
00000000
00000000
,
00000000
00000000
00000000
00001000
01000000
00000000
00001000
00010000
00000000
00001000
00000000
00000000
,
00011000
00000000
00000000
00010000
00000100
00000000
00010000
00001000
00000000
00010000
00000000
00000000
,
00001000
00000000
00010000
00000000
00100000
00000000
01000000
00000000
00000000
00000000
00000000
00000000
00100000
00000000
00000000
10000000
00000000
00000000
01000000
00000000
00000000
00100000
00000000
00000000
,
00110000
00000000
00010000
01000000
00000000
00001000
00010000
00000000
00000000
00000100
00000000
00001000
,
00000010
00000000
00010000
00001000
00000000
00100000
00010000
00000000
00000000
01000000
00000000
00100000
,
10000000
00000000
01000000
10000000
00000000
00010000
01000000
00000000
00001000
00010000
00000000
00000100
,
00001000
00000000
00000010
00000100
00000000
00000001
00000100
00000000
00000000
00000010
00000000
00001000
,
00000100
00000000
00000100
00010000
00000000
00010000
00001000
00000000
00000000
00100000
00000000
01000000
,
10000000
00000000
10000000
00100000
00000000
00100000
00010000
00000000
00000000
00001000
00000000
00100000
,
00010000
00000000
01000000
00001000
00000000
00010000
00000100
00000000
00001000
00000010
00000000
00000100
,
00000001
00000000
00000000
00000000
00000010
00000000
00000100
00000000
00000000
00000000
00001000
00000000
00000001
00000000
00000000
00000100
00000000
00000000
00001000
00000000
00010000
00000000
00001000
00000000
,
00022000
00000000
00033000
00001000
00010000
00000000
01000000
00000000
,
10000000
00000000
00100000
01000000
00010000
00000000
00100000
00001000
,
00022000
00000000
00033000
00010000
00001000
00000000
00000100
00000000
,
00000001
00000000
00000010
00000001
00000100
00000000
00000010
00010000
,
00022000
00000000
00033000
00001000
00010000
00000000
01000000
00000000
,
10000000
00000000
00100000
00010000
00001000
00000000
00000010
00001000
,
00011000
01000000
00011000
00000100
,
00000002
00000023
00002030
00023000
,
02030000
00000000
10000000
00000000
00000000
13000000
01000000
00100000
,
00010000
01000000
00002000
00000000
00000000
00013000
00001000
00000100
,
00000010
00000000
00001000
00000100
00000010
00000000
00000001
00000100
,
00001010
00000000
00022000
00000000
00033000
00001000
00010000
00100000
,
01000000
00000000
00000000
00100000
00000000
00000000
10000000
00000000
00010000
00000000
00000000
01000000
00000000
00000000
00001000
00000000
,
00010000
00000000
00000000
00000100
00000000
00000000
00000010
00000000
00000002
00000000
00000000
00000000
00000103
00000000
00001000
00000000
,
00010000
00001000
00010000
00100000
10000000
01000000
00100000
00001000
,
00011000
00000000
00000000
00000000
00100000
00000000
00100000
00000000
00010000
01000000
00000000
01000000
00001000
00000000
00001000
00010000
,
00000000
00010000
00000100
00000000
00000010
00000100
00000010
00000000
00000001
00000100
00000000
00000100
00000010
00000000
00000010
00010000
,
00000000
00010000
00001000
00000000
00100000
01000000
00100000
00000000
01000000
10000000
00000000
10000000
00100000
00000000
00100000
00010000
,
00000000
00010000
00001000
00000000
00011000
00000000
00010000
00000100
00001000
00000010
00000000
00010000
00001000
00000000
00100000
00120000
,
00000000
00000000
10030000
00000000
10000000
01000000
00100000
00001000
,
00010000
00010000
00100000
10000000
01000000
00100000
00001000
00010000
,
00100000
00100000
10000000
01000000
00100000
00001000
00010000
00100000
,
01100000
00010000
00011000
00000100
,
00000110
00010010
00101000
00011000
,
00001000
00001000
00000010
00000001
00000100
00000010
00010000
00001000
,
00000010
00000010
00000001
00000100
00000010
00010000
00001000
00000010
,
00000001
00000100
00000000
00001000
00010000
00000000
00110000
00000000
,
10100000
01100000
01001000
00011000
,
00020200
00030300
00000100
00001000
00000001
00001000
00000100
00001000
,
00000001
00000100
00000010
00001000
00011000
00000000
01000000
00000000
,
02200000
03300000
00100000
10000000
11000000
01000000
00010000
00001000
,
00100000
00000000
00010000
01000000
00100000
00000000
00011000
00000000
,
00002020
00003030
00001000
00000100
00000010
00000000
00000001
00000100
,
00001000
00010000
00100000
01000000
01200000
00000000
00000000
10300000
,
01000000
00100000
00010000
01000000
00100000
00010000
00001000
00000010
,
00000001
00000100
00000001
00000100
00000001
00000100
00001000
00000000
00010000
00000000
00001000
00000000
,
00022000
00033000
00011000
00100000
,
10010000
00000000
00000000
10000000
00000000
01000000
00010000
00000000
00000000
00001000
00000000
00000000
,
00011000
00000000
00000000
00010000
00000000
00001000
00000010
00000000
00000000
00000001
00000000
00000000
,
00001001
00000000
00000000
00001000
00000000
00000100
00010000
00000000
00000000
00001000
00010000
00100000
,
02000000
00000000
03000000
00000000
00100000
00010000
00001000
00000010
,
00001001
00000000
00000000
00000001
00000000
00000100
00001000
00000000
00000000
00010000
00000000
00000000
,
00011000
00000000
00000000
00001000
00000000
00010000
01000000
00000000
00000000
10000000
00000000
00000000
,
10010000
00000000
00000000
00010000
00000000
01000000
00001000
00000000
00000000
00010000
00001000
00000100
,
00000020
00001030
00001001
00001001
,
00000001
00000100
00001000
00010000
00000100
00000100
00000010
00000001
,
00001000
00000100
00000010
00001000
00010000
00010000
00000100
00000010
,
00000001
00001000
00000100
00000010
00000011
00000000
00001000
00000000
,
00010100
00100000
01001000
01100000
,
10100000
00000000
10010000
00000000
01000000
01000000
00100000
10000000
,
00010000
01000000
00100000
00010000
00001000
00001000
01000000
00100000
,
10000000
00000000
00010000
00000000
01000000
00000000
00100000
00000000
10000000
00000000
00000000
01000000
00000000
00000000
00010000
00000000
,
00001000
00000000
00000000
00000010
00000000
00000000
00000001
00000000
00001001
00000000
00000000
00000000
00001000
00000000
00000100
00000000
,
00010000
01000000
10000000
10000000
00100000
01000000
10000000
01000000
,
00010000
00100000
01000000
01000000
00010000
00001000
00000010
00000001
,
00000100
00000010
00001010
00000000
00010000
00000000
01100000
00000000
,
10000000
00110000
00101000
00010010
,
00000101
00000000
00000001
00000001
00000010
00000100
00000001
00000100
,
00001000
00000010
00000100
00000100
00001000
00010000
00100000
10000000
,
01000000
00100000
01000000
00010000
00000000
00001000
00000010
00000000
,
00000012
00000000
00000103
00000000
00000100
00001000
00010000
00100000
,
22000000
33000000
00000000
00000000
;

//---------------dance-double - ----------------
#NOTES:
     dance-double:
     :
     Challenge:
     14:
     0.651886,0.955069,0.561970,0.337182,0.505773,609.000000,534.000000,75.000000,45.000000,0.000000,0.000000,0.651886,0.955069,0.561970,0.337182,0.505773,609.000000,534.000000,75.000000,45.000000,0.000000,0.000000:
00000000
00000000
00000000
00000000
,
00000000
00000000
00000000
00000000
,
00000000
00000000
00000000
00000000
,
00000000
00000000
00000000
00000000
,
00000000
00000000
00000000
00000000
,
00000000
00000000
00000000
00001000
00010000
00100000
01000000
00000000
00100000
10000000
00000000
00000000
,
11000000
00000000
00000000
00010000
00001000
00000100
00000010
00000000
00000100
00000001
00000000
00000000
,
00000001
00000000
00000010
00000000
00001000
00000000
00011000
00000000
00000000
00000000
00000000
00000000
00020000
00000000
00000000
00032000
00000000
00000000
00203000
00000000
00000000
02300000
00000000
00000000
,
13000000
00100000
10000000
01000000
00000000
10000000
00010000
00000000
00000000
01000000
00001000
00010000
,
00001000
00010000
00000100
00000010
00000000
00000100
00001000
00000000
00000000
00001000
00000001
00000100
,
00000001
00000100
00001000
00010000
00000000
00010000
00000100
00000000
00000100
00000010
00000000
00000010
,
00001000
00000000
00001000
00010000
00000000
00010000
00100000
00000000
00000000
10000000
01000000
10000000
,
01000000
00100000
01000000
00010000
00000000
00010000
00001000
00000000
00000000
00000100
00000001
00000100
,
00000001
00000010
00000100
00000010
00000000
00001000
00010000
00000000
00000000
00001000
00100000
00010000
,
00100000
00010000
10000000
01000000
00000000
01000000
00010000
00000000
00010000
00001000
00000000
00001000
,
00000010
00000000
00000000
00000000
00000010
00000000
00000001
00000000
00000000
00000000
00000001
00000000
00000200
00000000
00000000
00000320
00000000
00000000
00020030
00000000
00000000
00032000
00000000
00000000
,
02003000
00000000
00000000
00100000
03100000
00000000
10100000
00000000
,
10000000
01000000
00100000
00000000
01000000
00100000
00001000
00010000
,
00000200
00000000
00000000
00000010
00000310
00000000
00000011
00000000
,
00000001
00000100
00000010
00000000
00000100
00000010
00010000
00001000
,
00200000
00000000
00000000
01000000
01300000
00000000
11000000
00000000
,
10000000
00100000
01000000
00000000
00010000
00100000
01000000
00010000
,
00011000
00011000
01001000
00010010
,
00010000
00001000
00000100
00000010
00010000
00001000
00000100
00000010
00001000
00000100
00000010
00000001
,
00000201
00000000
00001000
00000000
00000301
00000000
00000001
00000010
,
00000100
00010000
00012000
00000000
00000010
00000000
00013000
00100000
,
20000000
00000000
31000000
00010000
00002000
00000000
00103000
00010000
,
01000000
00001000
00000000
00000000
00022000
00000000
00003000
00000000
00000000
00000000
00030100
00000000
00000010
00000000
00000001
00000000
,
00000100
00000000
00000000
00001000
00000000
00000000
00010000
00000000
00100000
00000000
00000000
10000000
00000000
00000000
01000000
00000000
,
00100000
00000000
00000000
00010000
00000000
00000000
01000000
00000000
00001000
00000000
00010000
00000000
00001000
00000000
00000100
00000000
,
00000001
00000000
00000001
00000000
00000010
00000000
00000010
00000000
00001000
00000000
00001000
00000000
00010000
00100000
00010000
00100000
,
02000000
00000000
03010000
00000000
00010000
00000000
00010000
00000000
00100000
00010000
01000000
00100000
10000000
01000000
00100000
00010000
,
01000000
00001000
00010000
00000000
00000100
00000010
00000110
00000000
00000100
00001000
00000010
00000100
00000001
00000010
00000100
00001000
,
00000010
00010000
00001000
00000000
00100000
01000000
01100000
00000000
00100000
00001000
00010000
00100000
01000000
00001000
00010000
01000000
,
00100000
00010000
01000000
00100000
10100000
00000000
10000000
01000000
00100000
00010000
00000000
00001000
00000010
00000000
00000100
00000102
,
00000000
00000000
00000000
00000000
00001003
00000000
00000000
00000000
00001000
00000100
00000000
00000000
00000010
00000001
00000000
00000000
,
00000100
00000010
00000100
00000000
00001000
00000000
00010000
00000000
01000000
00000000
10000000
00000000
00100000
00000000
00010000
00000000
,
00100000
01000000
00100000
00000000
01000000
00000000
00010000
00000000
00100000
00000000
00001000
00000000
00010000
00000000
00000100
00000000
,
00000110
00001001
00000110
00001001
,
00010100
00011000
01001000
10010000
,
10000000
01000000
10000000
00000000
00100000
00000000
00010000
00000000
00100000
00000000
01000000
00000000
00010000
00000000
00100000
00000000
,
00001000
00010000
00001000
00000000
00000010
00000000
00000001
00000000
00000100
00000000
00000010
00000000
00000001
00000000
00000010
00000000
,
00001000
00001100
00000000
00010000
00011000
00000000
01010000
00000000
,
10100000
01001000
00010100
00000011
,
00002002
00003003
00000001
00000100
00001000
00000100
00000001
00000100
,
00001000
00000000
00010000
00000000
00100000
10000000
00100000
10000000
01000000
00000000
00000000
00000000
01100000
00000000
00000000
00000000
,
00200000
00000000
00310000
01000000
01100000
00100000
10000000
01000000
,
00010000
00001000
00010000
00000100
00000010
00000000
00000011
00000000
,
00002000
00000000
00003010
00001000
00000100
00010000
00001000
00010000
,
00100000
00000000
10000000
00000000
01000000
00100000
01000000
00100000
00020000
00000000
00000000
00000000
00000000
00000000
01030000
00000000
,
00010000
00100000
00001000
00010000
00010100
00000010
00001000
00000001
,
00000100
00001000
00010000
00000010
00000100
00001000
00010000
00000000
00001000
00000000
00010000
00000000
,
00022000
00033000
00011000
01010000
,
22000000
00000000
00000000
33000000
00000000
00000000
10000000
00000000
01000000
00000000
00100000
00000000
00010000
00000000
00000000
00000000
00000000
00000000
00110000
00000000
00000000
00000000
00000000
00000000
,
00202000
00000000
00000000
00303000
00000000
00000000
00100000
00000000
00001000
00000000
00010000
00000000
00000010
00000000
00000000
00000000
00000000
00000000
00001010
00000000
00000000
00000000
00000000
00000000
,
00000202
00000000
00000000
00000303
00000000
00000000
00000001
00000000
00000010
00000000
00000100
00000000
00001000
00000000
00000000
00000000
00000000
00000000
00000010
00000000
00000100
00000000
00001000
00000000
,
00011000
00000000
00000000
00000000
00010000
00000000
00001000
00000000
00000000
00000000
00001000
00000000
00010000
00000000
00000000
00000100
00000000
00000000
00000010
00000000
00000000
00000001
00000000
00000000
,
00000202
00000000
00000000
00000303
00000000
00000000
00000001
00000000
00000100
00000000
00000010
00000000
00001000
00000000
00000000
00000000
00000000
00000000
00001010
00000000
00000000
00000000
00000000
00000000
,
00020020
00000000
00000000
00030030
00000000
00000000
00000010
00000000
00010000
00000000
00001000
00000000
00100000
00000000
00000000
00000000
00000000
00000000
00110000
00000000
00000000
00000000
00000000
00000000
,
22000000
00000000
00000000
33000000
00000000
00000000
10000000
00000000
00100000
00000000
01000000
00000000
00010000
00000000
00000000
00000000
00100000
00000000
01000000
00000000
00010000
00000000
00001000
00000000
,
00022000
00033000
00011000
00000000
01001000
00000000
00020010
00000000
,
00031000
00010000
00000000
00000000
00010000
00001000
00000000
00000000
00000100
00000001
00000100
00000000
00000001
00000000
00000010
00000000
,
00001000
00000000
00010000
00000000
00001000
00000000
00100000
00000000
01000000
10000000
01000000
00000000
00100000
00000000
00010000
00000000
,
01000000
00001000
00010000
00100000
10100000
00000000
11000000
00000000
,
01010000
00011000
00101000
00010010
,
01001000
00000000
00000000
00000000
00010100
00000000
00000000
00000000
00000100
00001000
00000100
00000000
00010000
00000000
00001000
00000000
,
00100000
00000000
01000000
00000000
10000000
00000000
00100000
00000000
00010000
00000010
00010000
00000000
00001000
00000000
00000100
00000000
,
00000001
00000000
00000010
00000000
00000100
00000000
00001000
00000000
00001100
00000000
00000000
00000100
00000000
00000000
00010100
00000000
,
00010000
00000000
00000000
00011000
00000000
00000000
00001000
00000000
01001000
00000000
00000000
00000000
01000000
00100000
00000000
00000000
,
10000000
00100000
00000000
00000000
10000000
01000000
10000000
01000000
10000000
00000000
00010000
00000000
00100000
00000000
00001000
00000000
,
00010000
00000000
00000100
00000000
00000010
00000001
00000010
00000000
00001000
00000000
00010000
00000000
00100000
00000000
10000000
00000000
,
01000000
00000000
00100000
00000000
00010000
01000000
00000000
00000000
00001000
00010000
00000000
00000000
00000100
00000010
00000000
00000000
,
00000001
00001000
00000001
00000000
00000101
00000000
00000000
00000000
00001100
00000000
00000000
00000000
00110000
00000000
00000000
00000000
,
10100000
00000000
00000000
00000000
00100000
01000000
00100000
01000000
00100000
00000000
00010000
00000000
00001000
00000000
00000010
00000000
,
00000001
00000000
00000100
00000000
00001000
00010000
00001000
00000000
00100000
00000000
01000000
00000000
00010000
00000000
00001000
00000000
,
00000010
00000100
00001000
00001010
00000000
00010000
00010100
00000000
,
01001000
00000000
02200000
03000000
10300000
01000000
00100000
00010000
,
00022000
00033000
00000000
00000000
;
