#VERSION:0.83;
#TITLE:Break It Down;
#SUBTITLE:;
#ARTIST:MAZO;
#TITLETRANSLIT:;
#SUBTITLETRANSLIT:;
#ARTISTTRANSLIT:;
#GENRE:VARIETY;
#ORIGIN:;
#CREDIT:MUINELIM;
#BANNER:Break It Down-bg.PNG;
#BACKGROUND:Break It Down-bg.PNG;
#PREVIEWVID:;
#JACKET:Break It Down-jacket.png;
#CDIMAGE:;
#DISCIMAGE:Break It Down.PNG;
#LYRICSPATH:;
#CDTITLE:;
#MUSIC:Break It Down.mp3;
#OFFSET:0.216000;
#SAMPLESTART:12.056727;
#SAMPLELENGTH:12.272727;
#SELECTABLE:YES;
#BPMS:0.000=176;
#STOPS:;
#DELAYS:;
#WARPS:;
#TIMESIGNATURES:0.000=4=4;
#TICKCOUNTS:0.000=4;
#COMBOS:0.000=1;
#SPEEDS:0.000=1.000=0.000=0;
#SCROLLS:0.000=1.000;
#FAKES:;
#LABELS:0.000=Song Start;
#BGCHANGES:;
#KEYSOUNDS:;
#ATTACKS:
;

//---------------dance-single - ----------------
#NOTEDATA:;
#CHARTNAME:;
#STEPSTYPE:dance-single;
#DESCRIPTION:;
#CHARTSTYLE:;
#DIFFICULTY:Hard;
#METER:13;
#RADARVALUES:0.601820,0.916836,0.818100,0.188069,0.112841,448.000000,361.000000,87.000000,20.000000,0.000000,0.000000,0.000000,0.000000,0.000000,0.601820,0.916836,0.818100,0.188069,0.112841,448.000000,361.000000,87.000000,20.000000,0.000000,0.000000,0.000000,0.000000,0.000000;
#CREDIT:MILEN;
#NOTES:
// measure 0
0000
0000
0000
0000
,  // measure 1
0000
0000
0000
0000
,  // measure 2
0000
0000
0000
0000
,  // measure 3
0000
0000
0000
0000
,  // measure 4
0000
0000
0000
0000
,  // measure 5
1000
0100
0001
0010
,  // measure 6
1000
0000
1100
0001
0000
0101
1000
0000
,  // measure 7
0001
0010
1000
0100
,  // measure 8
0001
0000
0000
1000
0000
0000
0110
0000
1000
0000
0000
0001
0000
0000
0110
0000
,  // measure 9
0001
0101
0000
0000
0000
0000
0000
0000
,  // measure 10
1000
1100
0000
0000
0001
0011
0000
0000
,  // measure 11
1000
1010
0000
0000
0000
0000
0000
0000
,  // measure 12
0100
0110
0000
0000
0001
0011
1000
1010
,  // measure 13
0100
0110
0000
0000
0000
0000
0000
0000
,  // measure 14
0001
0011
0000
0000
1000
1010
0000
0000
,  // measure 15
0001
0101
0000
0000
0000
0000
0000
0000
,  // measure 16
1000
0000
1100
0000
0001
0000
0100
0000
0010
0100
0010
0100
0001
0000
0100
0010
,  // measure 17
2000
0100
0001
0010
,  // measure 18
0001
0100
0010
3100
,  // measure 19
0002
0010
1000
0100
,  // measure 20
1000
0010
0100
0013
,  // measure 21
2000
0010
0001
0100
,  // measure 22
0010
0001
0100
3010
,  // measure 23
0002
0100
1000
0010
,  // measure 24
0100
1000
0010
0103
,  // measure 25
1000
1000
0010
0001
0001
0100
1000
1000
,  // measure 26
0010
0000
0001
0000
0001
0000
0100
0000
0110
0000
0000
0000
0001
1000
0001
1000
,  // measure 27
0001
0001
0010
1000
1000
0100
0001
0001
,  // measure 28
0010
1000
1000
0100
0110
0000
1001
0000
,  // measure 29
0100
0100
0001
0010
0010
1000
0100
0100
,  // measure 30
0001
0010
0010
1000
1001
0000
0110
0000
,  // measure 31
0010
0010
0001
0100
0100
1000
0010
0010
,  // measure 32
0001
0100
0100
1000
0020
0100
0030
0000
,  // measure 33
1200
0001
0010
1000
,  // measure 34
0010
0001
0010
1300
,  // measure 35
0021
1000
0100
0001
,  // measure 36
0100
1000
0100
0031
,  // measure 37
1200
0010
0001
0010
,  // measure 38
1000
0010
0001
1300
,  // measure 39
0021
0100
1000
0031
,  // measure 40
0001
0000
0000
0100
0000
0000
1000
0000
0010
0000
0100
0000
0001
0000
1000
0000
,  // measure 41
1020
0100
0001
0100
,  // measure 42
1000
0100
0001
1030
,  // measure 43
0201
0010
1000
0010
,  // measure 44
0001
0010
1000
0301
,  // measure 45
1020
0001
0100
1030
,  // measure 46
0201
1000
0010
0301
,  // measure 47
1020
0100
0001
1030
,  // measure 48
1001
0001
0010
0100
1000
0001
0010
0000
,  // measure 49
0220
0000
0330
0000
1000
0100
0010
0001
,  // measure 50
1000
0100
1000
0000
0010
0100
0010
0000
0100
0001
0100
0000
0001
1000
0001
0000
,  // measure 51
0010
0100
2000
0000
3100
0010
0002
0000
,  // measure 52
0103
0010
0100
0000
0010
0100
0010
0000
1000
0000
0001
0000
1001
0000
1000
0000
,  // measure 53
0110
0100
0001
0010
1000
0001
0100
1000
,  // measure 54
1010
0010
1000
0100
0001
1000
0010
0001
,  // measure 55
0101
0100
0001
0010
1000
0001
0100
1000
,  // measure 56
0010
1000
0010
0000
0100
0001
0100
0000
0001
0000
0010
0000
0100
0000
1000
0000
,  // measure 57
0010
0011
0000
0000
0000
0000
0000
0000
,  // measure 58
0100
1100
0000
0000
0010
1010
0000
0000
,  // measure 59
0100
0101
0000
0000
0000
0000
0000
0000
,  // measure 60
1000
1001
0000
0000
0100
0101
0010
0011
,  // measure 61
1000
1001
0000
0000
0000
0000
0000
0000
,  // measure 62
0010
1010
0000
0000
0100
1100
0000
0000
,  // measure 63
0010
0011
0000
0000
0000
0000
0000
0000
,  // measure 64
0100
0000
0101
0000
1000
0000
0010
0000
0100
0001
0100
0001
0100
0000
0010
0000
,  // measure 65
0110
1100
0101
0011
,  // measure 66
1010
0000
1001
0100
0000
1001
0010
0000
,  // measure 67
0110
0101
1100
1010
,  // measure 68
0011
0000
0000
0000
1001
0000
0000
0000
0100
0010
0100
0010
0100
0000
0001
0000
,  // measure 69
0011
1010
1100
0101
,  // measure 70
1001
0000
0110
0001
0000
0110
1000
0000
,  // measure 71
1100
1010
0011
0101
,  // measure 72
1010
0000
0000
0110
0000
0000
0101
0000
0110
0000
0000
1010
0000
0000
0110
0000
,  // measure 73
1001
0000
0000
1100
0000
0000
0011
0000
1001
0000
0000
0011
0000
0000
1100
0000
,  // measure 74
1010
0022
0000
0000
0000
0000
0033
0000
,  // measure 75
0101
0000
0000
0000
;

//---------------dance-single - ----------------
#NOTEDATA:;
#CHARTNAME:;
#STEPSTYPE:dance-single;
#DESCRIPTION:;
#CHARTSTYLE:;
#DIFFICULTY:Challenge;
#METER:14;
#RADARVALUES:0.600477,0.679575,0.808696,0.197472,0.112841,447.000000,361.000000,86.000000,21.000000,0.000000,0.000000,0.000000,0.000000,0.000000,0.600477,0.679575,0.808696,0.197472,0.112841,447.000000,361.000000,86.000000,21.000000,0.000000,0.000000,0.000000,0.000000,0.000000;
#CREDIT:MILEN;
#OFFSET:0.216000;
#BPMS:0.000000=88.000000
,10.000000=176.000000
,177.000000=352.000000
,185.500000=176.000000
;
#STOPS:10.000000=0.170455
,10.500000=0.170455
,11.000000=0.170455
,11.500000=0.170455
,12.000000=0.170455
,13.000000=0.170455
,14.000000=0.170455
,14.500000=0.170454
,15.000000=0.170454
,15.500000=0.170454
,16.000000=0.170454
,21.000000=1.022728
,22.000000=0.340909
,23.000000=0.340909
,24.000000=1.022727
,25.000000=0.340910
,28.000000=1.022726
,29.000000=0.340908
,30.000000=0.340908
,31.000000=1.022726
,35.500000=0.170456
,36.000000=0.170456
,36.500000=0.170456
,37.000000=0.170456
,37.500000=0.170456
,38.000000=0.170456
,38.500000=0.170456
,39.000000=0.170456
,39.500000=0.170456
,40.000000=0.170456
,40.500000=0.170456
,41.000000=0.170456
,41.500000=0.170456
,42.000000=0.170456
,42.500000=0.170456
,43.000000=0.170456
,43.500000=0.170456
,44.000000=0.170456
,44.500000=0.170456
,45.000000=0.170456
,45.500000=0.170456
,46.000000=0.170456
,46.500000=0.170456
,47.000000=0.170456
,47.500000=0.170456
,48.000000=0.170456
,48.500000=0.170456
,49.000000=0.170452
,49.500000=0.170452
,50.000000=0.170452
,50.500000=0.170452
,51.000000=0.170452
,57.500000=0.170456
,65.000000=0.170456
,65.500000=0.170452
,72.000000=0.170456
,72.500000=0.170452
,79.500000=0.170456
,80.500000=0.170456
,81.000000=0.170452
,81.500000=0.170452
,82.000000=0.170452
,82.500000=0.170452
,83.000000=0.170452
,83.500000=0.170452
,84.000000=0.170452
,84.500000=0.170452
,85.000000=0.170452
,85.500000=0.170452
,86.000000=0.170452
,86.500000=0.170452
,87.000000=0.170452
,87.500000=0.170452
,88.000000=0.170452
,88.500000=0.170452
,89.000000=0.170452
,89.500000=0.170452
,90.000000=0.170452
,90.500000=0.170452
,91.000000=0.170452
,91.500000=0.170452
,92.000000=0.170452
,92.500000=0.170452
,93.000000=0.170452
,93.500000=0.170452
,94.000000=0.170452
,98.500000=0.170452
,99.000000=0.170452
,99.500000=0.170452
,100.000000=0.170452
,100.500000=0.170452
,101.000000=0.170452
,101.500000=0.170452
,102.000000=0.170452
,102.500000=0.170452
,103.000000=0.170452
,103.500000=0.170452
,104.000000=0.170452
,104.500000=0.170452
,105.000000=0.170452
,105.500000=0.170452
,106.000000=0.170452
,106.500000=0.170452
,107.000000=0.170452
,107.500000=0.170452
,108.000000=0.170452
,108.500000=0.170452
,109.000000=0.170452
,109.500000=0.170452
,110.000000=0.170452
,110.500000=0.170452
,111.000000=0.170456
,111.500000=0.170456
,112.000000=0.170456
,115.500000=0.170456
,116.000000=0.340904
,124.000000=0.170456
,125.500000=0.170456
,146.500000=1.022728
,147.500000=0.340904
,148.500000=0.340904
,149.500000=1.022728
,150.500000=0.340904
,153.500000=1.022728
,154.500000=0.340904
,155.500000=0.340904
,156.500000=1.022728
,161.000000=0.170456
,161.500000=0.170456
,162.000000=0.170456
,162.500000=0.170456
,163.000000=0.170456
,164.000000=0.170448
,165.000000=0.170448
,165.500000=0.170456
,166.000000=0.170456
,166.500000=0.170456
,167.000000=0.170456
,167.500000=0.170456
,168.000000=0.170456
,170.500000=0.170456
,171.000000=0.170456
,171.500000=0.170456
,172.000000=0.170456
,172.500000=0.170456
,173.500000=0.170448
,174.500000=0.170448
,175.000000=0.170456
,175.500000=0.170456
,176.000000=0.170456
,176.500000=0.170456
,177.000000=0.127838
,177.750000=0.127846
,178.500000=0.085228
,179.000000=0.127838
,179.750000=0.127846
,180.500000=0.085228
,181.000000=0.127838
,181.750000=0.127846
,182.500000=0.085228
,183.000000=0.127838
,183.750000=0.127846
,184.500000=0.085228
,185.000000=0.085228
,185.500000=0.852272
;
#DELAYS:;
#WARPS:;
#TIMESIGNATURES:0.000000=4=4
;
#TICKCOUNTS:0.000000=4
;
#COMBOS:0.000000=1
;
#SPEEDS:0.000000=1.000000=0.000000=0
;
#SCROLLS:0.000000=1.000000
;
#FAKES:;
#LABELS:0.000000=Song Start
;
#NOTES:
0000
0000
0000
0000
,
0000
0000
0000
0000
,
0000
0000
0000
0000
1000
0100
0001
0010
,
1000
1100
0001
0101
1000
0001
0010
1000
,
0100
0000
0001
0000
0000
1000
0000
0000
0110
0000
1000
0000
0000
0001
0000
0000
,
0110
0001
0101
1000
1100
0001
0011
1000
,
1010
0100
0110
0001
0011
1000
1010
0100
,
0110
0001
0011
1000
1010
0001
0101
1000
,
1100
0000
0001
0000
0100
0000
0010
0100
0010
0100
0001
0000
0100
0010
2000
0000
,
0100
0001
0010
0001
0100
0010
3100
0002
,
0010
1000
0100
1000
0010
0100
0013
2000
,
0010
0001
0100
0010
0001
0100
3010
0002
,
0100
1000
0010
0100
1000
0010
0103
1000
,
1000
0010
0001
0001
0100
1000
1000
0010
,
0001
0000
0001
0000
0100
0000
0110
0000
0001
1000
0001
1000
0001
0000
0001
0000
,
0010
1000
1000
0100
0001
0001
0010
1000
,
1000
0100
0110
1001
0100
0100
0001
0010
,
0010
1000
0100
0100
0001
0010
0010
1000
,
1001
0110
0010
0010
0001
0100
0100
1000
,
0010
0000
0010
0000
0001
0000
0100
0000
0100
0000
1000
0000
0020
0000
0200
0330
,
0000
1200
0001
0010
1000
0010
0001
0010
,
1300
0021
1000
0100
0001
0100
1000
0100
,
0031
1200
0010
0001
0010
1000
0010
0001
,
1300
0000
0021
0000
0100
0000
1000
0000
0031
0000
0001
0000
0000
0100
0000
0000
,
1000
0010
0100
0001
1000
1020
0100
0001
,
0100
1000
0100
0001
1030
0201
0010
1000
,
0010
0001
0010
1000
0301
1020
0001
0100
,
1030
0201
1000
0010
0301
1020
0100
0001
,
1030
1001
0001
0010
0100
1000
0001
0010
,
0220
0000
0330
0000
1000
0000
0100
0000
0010
0000
0001
0000
1000
0100
1000
0000
,
0010
0100
0010
0000
0100
0001
0100
0000
0001
1000
0001
0000
0010
0000
0100
0000
,
2000
0000
3100
0000
0010
0000
0002
0000
0103
0010
0100
0000
0010
0100
0010
0000
,
1000
0001
1001
1000
0110
0100
0001
0010
,
1000
0001
0100
1000
1010
0010
1000
0100
,
0001
1000
0010
0001
0101
0100
0001
0010
,
1000
0000
0001
0000
0100
0000
1000
0000
0010
1000
0010
0000
0100
0001
0100
0000
,
0001
0010
0100
1000
0010
0011
0100
1100
,
0010
1010
0100
0101
1000
1001
0100
0101
,
0010
0011
1000
1001
0010
1010
0100
1100
,
0010
0000
0011
0000
0100
0000
0101
0000
1000
0000
0010
0000
0100
0001
0100
0001
,
0100
0010
0110
1100
0101
0011
1010
1001
,
0100
1001
0010
0110
0101
1100
1010
0011
,
1001
0000
0100
0010
0100
0010
0100
0000
0001
0000
0011
0000
1010
0000
1100
0000
,
0101
1001
0110
0001
0110
1000
1100
1010
,
0011
0000
0101
0000
1010
0000
0000
0110
0000
0000
0101
0000
0110
0000
0000
1010
,
0000
0000
0110
0000
1001
0000
0000
1100
0000
0000
0011
0000
1001
0000
0000
0011
,
0000
1100
1010
0022
0030
0103
0000
0000
;

//---------------dance-double - ----------------
#NOTEDATA:;
#CHARTNAME:;
#STEPSTYPE:dance-double;
#DESCRIPTION:;
#CHARTSTYLE:;
#DIFFICULTY:Hard;
#METER:13;
#RADARVALUES:0.584357,0.916836,0.771083,0.188069,0.075228,435.000000,353.000000,82.000000,20.000000,0.000000,0.000000,0.000000,0.000000,0.000000,0.584357,0.916836,0.771083,0.188069,0.075228,435.000000,353.000000,82.000000,20.000000,0.000000,0.000000,0.000000,0.000000,0.000000;
#CREDIT:MILEN;
#NOTES:
00000000
00000000
00000000
00000000
,
00000000
00000000
00000000
00000000
,
00000000
00000000
00000000
00000000
,
00000000
00000000
00000000
00000000
,
00000000
00000000
00000000
00000000
,
00001000
00010000
01000000
10000000
,
00100000
00000000
01100000
10000000
00000000
01100000
00010000
00000000
,
00010000
00001000
00000100
00000001
,
00000010
00000000
00000000
00000100
00000000
00000000
00001000
00000000
00010000
00000000
00000000
01000000
00000000
00000000
00100000
00000000
,
10000000
11000000
00000000
00000000
00000000
00000000
00000000
00000000
,
01000000
01010000
00000000
00000000
00010000
00011000
00000000
00000000
,
00001000
00001010
00000000
00000000
00000000
00000000
00000000
00000000
,
00000010
00000011
00000000
00000000
00000001
00000101
00000100
00000110
,
00000010
00010010
00000000
00000000
00000000
00000000
00000000
00000000
,
00010000
00011000
00000000
00000000
00001000
00101000
00000000
00000000
,
00100000
01100000
00000000
00000000
00000000
00000000
00000000
00000000
,
01000000
00000000
11000000
00000000
10000000
00000000
00100000
00000000
00010000
00001000
00010000
00001000
00010000
00000000
00001000
00010000
,
00002000
00100000
01000000
00100000
,
00010000
00100000
01000000
00103000
,
00020000
00000100
00000010
00000100
,
00001000
00000100
00000010
00030100
,
00002000
01000000
00100000
00010000
,
01000000
00100000
00010000
01003000
,
00020000
00000010
00000100
00001000
,
00000010
00000100
00001000
00030010
,
00001000
00010000
01000000
10000000
00100000
00010000
00001000
00010000
,
01000000
00000000
10000000
00000000
00100000
00000000
00010000
00000000
00011000
00000000
00000000
00000000
00010000
00001000
00010000
00001000
,
00010000
00001000
00000010
00000001
00000100
00001000
00010000
00001000
,
00000010
00000001
00000100
00001000
00011000
00000000
01100000
00000000
,
00100000
10000000
01000000
00010000
00001000
00000010
00000001
00000100
,
00001000
00010000
00100000
00010000
00011000
00000000
00000110
00000000
,
00000100
00000001
00000010
00001000
00010000
01000000
10000000
00100000
,
00010000
00001000
00000100
00001000
00020000
00001000
00030000
00000000
,
00210000
10000000
01000000
00010000
,
00001000
00010000
01000000
00310000
,
00012000
01000000
00100000
00000010
,
00100000
01000000
00100000
00013000
,
00021000
00000010
00000100
01000000
,
00000100
00000010
00000100
00031000
,
00001200
00000010
00000001
00000310
,
00000010
00000000
00000000
00010000
00000000
00000000
00001000
00000000
00100000
00000000
00010000
00000000
01000000
00000000
00001000
00000000
,
00021000
01000000
10000000
01000000
,
00001000
00000100
00000010
00030100
,
00012000
00000010
00000001
00000010
,
00010000
00100000
01000000
00103000
,
00012000
00000100
00000001
00003010
,
00021000
00100000
10000000
01030000
,
00012000
00100000
00000010
01003000
,
00011000
00010000
00000010
00010000
00001000
00100000
00001000
00000000
,
00022000
00000000
00033000
00000000
00010000
00001000
00000100
00000001
,
00000010
00000100
00001000
00010000
00100000
01000000
10000000
00100000
,
00010000
00001000
02000000
00000000
03001000
00010000
00000020
00000000
,
00010030
00010000
00001000
00001000
00010000
00001000
00011000
00010000
,
00001000
00000010
00000001
00000100
00001000
00000100
00000001
00000010
,
00001000
00010000
00100000
10000000
01000000
00010000
01000000
10000000
,
00100000
00010000
00001000
00000010
00000001
00000100
00001000
00010000
,
00100000
10000000
01000000
00100000
00010000
00001000
00000100
00000010
,
00000001
00000101
00000000
00000000
00000000
00000000
00000000
00000000
,
00000100
00001100
00000000
00000000
00001000
00011000
00000000
00000000
,
00010000
00110000
00000000
00000000
00000000
00000000
00000000
00000000
,
00100000
10100000
00000000
00000000
10000000
11000000
01000000
01100000
,
00100000
00101000
00000000
00000000
00000000
00000000
00000000
00000000
,
00001000
00011000
00000000
00000000
00010000
00010010
00000000
00000000
,
00000010
00000110
00000000
00000000
00000000
00000000
00000000
00000000
,
00000100
00000000
00000101
00000000
00000001
00000000
00000010
00000000
00000100
00001000
00000100
00001000
00000100
00000000
00010000
00000000
,
00011000
00001010
00011000
00110000
,
00011000
00000000
00010100
00000010
00000000
01001000
00100000
00000000
,
00011000
00110000
00011000
00001010
,
00011000
00000000
00000000
00000000
01001000
00000000
00000000
00000000
01000000
00100000
01000000
00100000
01000000
00000000
00100000
00000000
,
10100000
11000000
01010000
00011000
,
00001010
00000000
00000011
00000100
00000000
00001010
00010000
00000000
,
00010100
01001000
00010010
00101000
,
00011000
00000000
00000000
01010000
00000000
00000000
11000000
00000000
10100000
00000000
00000000
00110000
00000000
00000000
00011000
00000000
,
00001100
00000000
00000000
00000101
00000000
00000000
00000011
00000000
00001010
00000000
00000000
00011000
00000000
00000000
00010010
00000000
,
00101000
00020200
00000000
00000000
00000000
00000000
00030300
00000000
,
01001000
00000000
00000000
00000000
;

//---------------dance-double - ----------------
#NOTEDATA:;
#CHARTNAME:;
#STEPSTYPE:dance-double;
#DESCRIPTION:;
#CHARTSTYLE:;
#DIFFICULTY:Challenge;
#METER:14;
#RADARVALUES:0.583014,0.679575,0.761679,0.188069,0.075228,434.000000,353.000000,81.000000,20.000000,0.000000,0.000000,0.000000,0.000000,0.000000,0.583014,0.679575,0.761679,0.188069,0.075228,434.000000,353.000000,81.000000,20.000000,0.000000,0.000000,0.000000,0.000000,0.000000;
#CREDIT:MILEN;
#OFFSET:0.216000;
#BPMS:0.000000=88.000000
,10.000000=176.000000
,177.000000=352.000000
,185.500000=176.000000
;
#STOPS:10.000000=0.170455
,10.500000=0.170455
,11.000000=0.170455
,11.500000=0.170455
,12.000000=0.170455
,13.000000=0.170455
,14.000000=0.170455
,14.500000=0.170454
,15.000000=0.170454
,15.500000=0.170454
,16.000000=0.170454
,21.000000=1.022728
,22.000000=0.340909
,23.000000=0.340909
,24.000000=1.022727
,25.000000=0.340910
,28.000000=1.022726
,29.000000=0.340908
,30.000000=0.340908
,31.000000=1.022726
,35.500000=0.170456
,36.000000=0.170456
,36.500000=0.170456
,37.000000=0.170456
,37.500000=0.170456
,38.000000=0.170456
,38.500000=0.170456
,39.000000=0.170456
,39.500000=0.170456
,40.000000=0.170456
,40.500000=0.170456
,41.000000=0.170456
,41.500000=0.170456
,42.000000=0.170456
,42.500000=0.170456
,43.000000=0.170456
,43.500000=0.170456
,44.000000=0.170456
,44.500000=0.170456
,45.000000=0.170456
,45.500000=0.170456
,46.000000=0.170456
,46.500000=0.170456
,47.000000=0.170456
,47.500000=0.170456
,48.000000=0.170456
,48.500000=0.170456
,49.000000=0.170452
,49.500000=0.170452
,50.000000=0.170452
,50.500000=0.170452
,51.000000=0.170452
,57.500000=0.170456
,65.000000=0.170456
,65.500000=0.170452
,72.000000=0.170456
,72.500000=0.170452
,79.500000=0.170456
,80.500000=0.170456
,81.000000=0.170452
,81.500000=0.170452
,82.000000=0.170452
,82.500000=0.170452
,83.000000=0.170452
,83.500000=0.170452
,84.000000=0.170452
,84.500000=0.170452
,85.000000=0.170452
,85.500000=0.170452
,86.000000=0.170452
,86.500000=0.170452
,87.000000=0.170452
,87.500000=0.170452
,88.000000=0.170452
,88.500000=0.170452
,89.000000=0.170452
,89.500000=0.170452
,90.000000=0.170452
,90.500000=0.170452
,91.000000=0.170452
,91.500000=0.170452
,92.000000=0.170452
,92.500000=0.170452
,93.000000=0.170452
,93.500000=0.170452
,94.000000=0.170452
,98.500000=0.170452
,99.000000=0.170452
,99.500000=0.170452
,100.000000=0.170452
,100.500000=0.170452
,101.000000=0.170452
,101.500000=0.170452
,102.000000=0.170452
,102.500000=0.170452
,103.000000=0.170452
,103.500000=0.170452
,104.000000=0.170452
,104.500000=0.170452
,105.000000=0.170452
,105.500000=0.170452
,106.000000=0.170452
,106.500000=0.170452
,107.000000=0.170452
,107.500000=0.170452
,108.000000=0.170452
,108.500000=0.170452
,109.000000=0.170452
,109.500000=0.170452
,110.000000=0.170452
,110.500000=0.170452
,111.000000=0.170456
,111.500000=0.170456
,112.000000=0.170456
,115.500000=0.170456
,116.000000=0.340904
,124.000000=0.170456
,125.500000=0.170456
,146.500000=1.022728
,147.500000=0.340904
,148.500000=0.340904
,149.500000=1.022728
,150.500000=0.340904
,153.500000=1.022728
,154.500000=0.340904
,155.500000=0.340904
,156.500000=1.022728
,161.000000=0.170456
,161.500000=0.170456
,162.000000=0.170456
,162.500000=0.170456
,163.000000=0.170456
,164.000000=0.170448
,165.000000=0.170448
,165.500000=0.170456
,166.000000=0.170456
,166.500000=0.170456
,167.000000=0.170456
,167.500000=0.170456
,168.000000=0.170456
,170.500000=0.170456
,171.000000=0.170456
,171.500000=0.170456
,172.000000=0.170456
,172.500000=0.170456
,173.500000=0.170448
,174.500000=0.170448
,175.000000=0.170456
,175.500000=0.170456
,176.000000=0.170456
,176.500000=0.170456
,177.000000=0.127838
,177.750000=0.127846
,178.500000=0.085228
,179.000000=0.127838
,179.750000=0.127846
,180.500000=0.085228
,181.000000=0.127838
,181.750000=0.127846
,182.500000=0.085228
,183.000000=0.127838
,183.750000=0.127846
,184.500000=0.085228
,185.000000=0.085228
,185.500000=0.852272
;
#DELAYS:;
#WARPS:;
#TIMESIGNATURES:0.000000=4=4
;
#TICKCOUNTS:0.000000=4
;
#COMBOS:0.000000=1
;
#SPEEDS:0.000000=1.000000=0.000000=0
;
#SCROLLS:0.000000=1.000000
;
#FAKES:;
#LABELS:0.000000=Song Start
;
#NOTES:
00000000
00000000
00000000
00000000
,
00000000
00000000
00000000
00000000
,
00000000
00000000
00000000
00000000
00001000
00010000
01000000
10000000
,
00100000
01100000
10000000
01100000
00010000
00010000
00001000
00000100
,
00000001
00000000
00000010
00000000
00000000
00000100
00000000
00000000
00001000
00000000
00010000
00000000
00000000
01000000
00000000
00000000
,
00100000
10000000
11000000
01000000
01010000
00010000
00011000
00001000
,
00001010
00000010
00000011
00000001
00000101
00000100
00000110
00000010
,
00010010
00010000
00011000
00001000
00101000
00100000
01100000
01000000
,
11000000
00000000
10000000
00000000
00100000
00000000
00010000
00001000
00010000
00001000
00010000
00000000
00001000
00010000
00002000
00000000
,
00100000
01000000
00100000
00010000
00100000
01000000
00103000
00020000
,
00000100
00000010
00000100
00001000
00000100
00000010
00030100
00002000
,
01000000
00100000
00010000
01000000
00100000
00010000
01003000
00020000
,
00000010
00000100
00001000
00000010
00000100
00001000
00030010
00001000
,
00010000
01000000
10000000
00100000
00010000
00001000
00010000
01000000
,
10000000
00000000
00100000
00000000
00010000
00000000
00011000
00000000
00010000
00001000
00010000
00001000
00010000
00000000
00001000
00000000
,
00000010
00000001
00000100
00001000
00010000
00001000
00000010
00000001
,
00000100
00001000
00011000
01100000
00100000
10000000
01000000
00010000
,
00001000
00000010
00000001
00000100
00001000
00010000
00100000
00010000
,
00011000
00000110
00000100
00000001
00000010
00001000
00010000
01000000
,
10000000
00100000
00010000
00001000
00000100
00001000
00020000
00002000
,
00033000
00210000
10000000
01000000
00010000
00001000
00010000
01000000
,
00310000
00012000
01000000
00100000
00000010
00100000
01000000
00100000
,
00013000
00021000
00000010
00000100
01000000
00000100
00000010
00000100
,
00031000
00000000
00001200
00000000
00000010
00000000
00000001
00000000
00000310
00000000
00000010
00000000
00000000
00010000
00000000
00000000
,
00001000
00100000
00010000
01000000
00001000
00021000
01000000
10000000
,
01000000
00001000
00000100
00000010
00030100
00012000
00000010
00000001
,
00000010
00010000
00100000
01000000
00103000
00012000
00000100
00000001
,
00003010
00021000
00100000
10000000
01030000
00012000
00100000
00000010
,
01003000
00011000
00010000
00000010
00010000
00001000
00100000
00001000
,
00022000
00033000
00010000
00001000
00000100
00000001
00000010
00000100
,
00001000
00010000
00100000
01000000
10000000
00100000
00010000
00001000
,
02000000
03001000
00010000
00000020
00010030
00010000
00001000
00001000
,
00010000
00001000
00011000
00010000
00001000
00000010
00000001
00000100
,
00001000
00000100
00000001
00000010
00001000
00010000
00100000
10000000
,
01000000
00010000
01000000
10000000
00100000
00010000
00001000
00000010
,
00000001
00000100
00001000
00010000
00100000
10000000
01000000
00100000
,
00010000
00001000
00000100
00000010
00000001
00000101
00000100
00001100
,
00001000
00011000
00010000
00110000
00100000
10100000
10000000
11000000
,
01000000
01100000
00100000
00101000
00001000
00011000
00010000
00010010
,
00000010
00000000
00000110
00000000
00000100
00000000
00000101
00000000
00000001
00000000
00000010
00000000
00000100
00001000
00000100
00001000
,
00000100
00010000
00011000
00001010
00011000
00110000
00011000
00010100
,
00000010
01001000
00100000
00011000
00110000
00011000
00001010
00011000
,
01001000
00000000
01000000
00100000
01000000
00100000
01000000
00000000
00100000
00000000
10100000
00000000
11000000
00000000
01010000
00000000
,
00011000
00001010
00000011
00000100
00001010
00010000
00010100
01001000
,
00010010
00000000
00101000
00000000
00011000
00000000
00000000
01010000
00000000
00000000
11000000
00000000
10100000
00000000
00000000
00110000
,
00000000
00000000
00011000
00000000
00001100
00000000
00000000
00000101
00000000
00000000
00000011
00000000
00001010
00000000
00000000
00011000
,
00000000
00010010
00101000
00020100
00000000
01030000
00000000
00000000
;

//---------------dance-single - ----------------
#NOTEDATA:;
#CHARTNAME:;
#STEPSTYPE:dance-single;
#DESCRIPTION:;
#CHARTSTYLE:;
#DIFFICULTY:Beginner;
#METER:4;
#RADARVALUES:0.150455,0.211578,0.018807,0.009403,0.000000,112.000000,110.000000,2.000000,1.000000,0.000000,0.000000,0.000000,0.000000,0.000000,0.150455,0.211578,0.018807,0.009403,0.000000,112.000000,110.000000,2.000000,1.000000,0.000000,0.000000,0.000000,0.000000,0.000000;
#CREDIT:MILEN;
#NOTES:
0000
0000
0000
0000
,
0000
0000
0000
0000
,
0000
0000
0000
0000
,
0000
0000
0000
0000
,
0000
0000
0000
0000
,
1000
0000
0000
0000
,
0001
0000
0000
0000
,
1000
0000
0000
0000
,
0001
0000
0000
0000
,
0100
0000
0000
0000
,
0100
0000
0100
0000
,
0010
0000
0000
0000
,
0010
0000
0010
0000
,
0100
0000
0000
0000
,
0100
0000
0010
0000
,
0100
0000
0000
0000
,
0010
0000
0100
0100
,
0010
0000
1000
0000
,
0001
0000
0100
0000
,
0100
0000
0010
0000
,
1000
0000
0001
0000
,
0001
0000
0100
0000
,
0010
0000
1000
0000
,
1000
0000
0001
0000
,
0100
0000
0010
0010
,
0010
0000
0000
0000
,
0000
0000
1000
0000
,
0100
0000
0000
0000
,
0000
0000
0001
0000
,
0010
0000
0000
0000
,
0000
0000
1000
0000
,
0100
0000
0000
0000
,
0000
0000
1001
0000
,
1000
0000
1000
0000
,
1000
0000
0000
0000
,
0010
0000
0010
0000
,
0010
0000
0000
0000
,
0001
0000
0001
0000
,
0001
0000
0000
0000
,
0100
0000
0100
0000
,
0100
0000
0100
0100
,
1000
0000
0001
0000
,
1000
0000
0001
0000
,
0100
0000
0010
0000
,
0100
0000
0010
0000
,
1000
0000
0001
0000
,
0100
0000
0010
0000
,
0100
0000
0000
0000
,
0000
0010
0010
0010
,
0010
0000
0000
0000
,
1000
0000
0000
0000
,
0100
0000
0000
0000
,
0010
0000
0000
0000
,
0001
0000
0000
0000
,
0100
0000
0000
0000
,
0010
0000
0000
0000
,
0100
0100
0100
0000
,
0001
0000
0000
0000
,
1000
0000
1000
0000
,
0001
0000
0000
0000
,
0001
0000
0001
0000
,
1000
0000
0000
0000
,
1000
0000
0001
0000
,
1000
0000
0000
0000
,
0001
0000
1000
0000
,
0001
0000
0001
0000
,
0100
0000
0100
0000
,
1000
0000
1000
0000
,
0010
0000
0010
0000
,
0001
0000
0001
0000
,
0100
0000
0100
0000
,
1000
0000
1000
0000
,
0020
0000
0000
0000
,
0000
0000
0000
0000
,
0030
0000
0000
0000
,
0110
0000
0000
0000
;

//---------------dance-single - ----------------
#NOTEDATA:;
#CHARTNAME:;
#STEPSTYPE:dance-single;
#DESCRIPTION:;
#CHARTSTYLE:;
#DIFFICULTY:Easy;
#METER:8;
#RADARVALUES:0.341211,0.423155,0.094034,0.047017,0.000000,254.000000,244.000000,10.000000,5.000000,0.000000,0.000000,0.000000,0.000000,0.000000,0.341211,0.423155,0.094034,0.047017,0.000000,254.000000,244.000000,10.000000,5.000000,0.000000,0.000000,0.000000,0.000000,0.000000;
#CREDIT:MILEN;
#NOTES:
0000
0000
0000
0000
,
0000
0000
0000
0000
,
0000
0000
0000
0000
,
0000
0000
0000
0000
,
0000
0000
0000
0000
,
1000
0001
1000
0001
,
0100
0000
0010
0010
0000
0100
0100
0000
,
0001
1000
0001
1000
,
0010
0000
0000
0100
0000
0000
0010
0000
,
1000
1000
0000
0000
0000
0000
0000
0000
,
0100
0100
0000
0000
0001
0001
0000
0000
,
0010
0010
0000
0000
0000
0000
0000
0000
,
1000
1000
0000
0000
0100
0000
0001
0000
,
0010
0010
0000
0000
0000
0000
0000
0000
,
1000
1000
0000
0000
0100
0100
0000
0000
,
0001
0001
0000
0000
0000
0000
0000
0000
,
0010
0010
0000
0000
1000
0000
0001
0000
,
1001
1000
0100
1000
,
0100
1000
0100
1000
,
0001
0100
0001
0100
,
0001
0100
0001
0100
,
1001
0001
0010
0001
,
0010
0001
0010
0001
,
1000
0010
1000
0010
,
1000
0010
1000
1000
,
0001
0000
0000
0100
0000
0000
0010
0000
,
0000
1000
0000
0000
0001
0000
0001
0000
,
1000
0000
0000
0010
0000
0000
0100
0000
,
0000
0001
0000
0000
1000
0000
1001
0000
,
0010
0000
0000
0100
0000
0000
0001
0000
,
0000
1000
0000
0000
0010
0000
0100
0000
,
0010
0000
0000
1000
0000
0000
0001
0000
,
0000
0100
0000
0000
0010
0010
0000
0000
,
1000
0100
1000
0100
,
0001
0010
0001
0010
,
1000
0100
1000
0100
,
0001
0010
0001
0010
,
1000
0100
0001
0010
,
1000
0100
0001
0010
,
0200
0000
0000
0300
,
0010
0000
0000
0000
0100
0100
0100
0000
,
0010
1000
0010
1000
,
0100
0001
0100
0001
,
0010
1000
0010
1000
,
0100
0001
0100
0001
,
0010
1000
0100
0001
,
0010
1000
0100
0001
,
0020
0000
0000
0030
,
0100
0000
0000
0000
0010
0010
0010
0000
,
1001
0000
1000
0100
,
0010
0001
1000
0100
,
0020
0030
0001
0001
,
0100
0100
1000
1000
,
0010
0001
1000
0001
,
0100
1000
0001
1000
,
0010
0001
1000
0001
,
0100
0100
0100
0100
,
0010
0010
0000
0000
0000
0000
0000
0000
,
1000
1000
0000
0000
0100
0100
0000
0000
,
0001
0001
0000
0000
0000
0000
0000
0000
,
0010
0010
0000
0000
1000
0000
0100
0000
,
0001
0001
0000
0000
0000
0000
0000
0000
,
0010
0010
0000
0000
1000
1000
0000
0000
,
0100
0100
0000
0000
0000
0000
0000
0000
,
0001
0001
0000
0000
0010
0000
0100
0000
,
0110
0001
1000
0001
,
1000
0000
0001
0001
0000
1000
1000
0000
,
0110
1000
0001
1000
,
0001
1000
2002
3003
,
1001
0010
0100
0010
,
0100
0000
0010
0010
0000
0100
0100
0000
,
1001
0100
0010
0100
,
0010
0000
1000
0000
,
0001
0000
0100
0000
,
0010
0010
0000
0000
0000
0000
0000
0000
,
0110
0000
0000
0000
;

//---------------dance-double - ----------------
#NOTEDATA:;
#CHARTNAME:;
#STEPSTYPE:dance-double;
#DESCRIPTION:;
#CHARTSTYLE:;
#DIFFICULTY:Easy;
#METER:8;
#RADARVALUES:0.338524,0.423155,0.112841,0.047017,0.000000,252.000000,240.000000,12.000000,5.000000,0.000000,0.000000,0.000000,0.000000,0.000000,0.338524,0.423155,0.112841,0.047017,0.000000,252.000000,240.000000,12.000000,5.000000,0.000000,0.000000,0.000000,0.000000,0.000000;
#CREDIT:MILEN;
#NOTES:
00000000
00000000
00000000
00000000
,
00000000
00000000
00000000
00000000
,
00000000
00000000
00000000
00000000
,
00000000
00000000
00000000
00000000
,
00000000
00000000
00000000
00000000
,
00001000
00010000
00001000
00010000
,
00000100
00000000
00010000
00010000
00000000
00001000
00001000
00000000
,
00010000
00001000
00010000
00001000
,
01000000
00000000
00000000
00001000
00000000
00000000
00010000
00000000
,
00001000
00001000
00000000
00000000
00000000
00000000
00000000
00000000
,
00010000
00010000
00000000
00000000
01000000
01000000
00000000
00000000
,
10000000
10000000
00000000
00000000
00000000
00000000
00000000
00000000
,
00100000
00100000
00000000
00000000
00010000
00000000
00001000
00000000
,
00000010
00000010
00000000
00000000
00000000
00000000
00000000
00000000
,
00000001
00000001
00000000
00000000
00000100
00000100
00000000
00000000
,
00001000
00001000
00000000
00000000
00000000
00000000
00000000
00000000
,
00010000
00010000
00000000
00000000
00001000
00000000
00010000
00000000
,
00011000
00000100
00001000
00000001
,
00001000
00000100
00001000
00000000
,
00010000
01000000
00010000
10000000
,
00010000
01000000
00010000
00000000
,
00001000
00000010
00001000
00000001
,
00001000
00000010
00001000
00000000
,
00010000
00100000
00010000
10000000
,
00010000
00100000
00010000
00000000
,
00011000
00000000
00000000
01000000
00000000
00000000
00010000
00000000
,
00000000
01000000
00000000
00000000
00001000
00000000
00010000
00000000
,
00011000
00000000
00000000
00000010
00000000
00000000
00001000
00000000
,
00000000
00000010
00000000
00000000
00010000
00000000
00011000
00000000
,
00001000
00000000
00000000
00100000
00000000
00000000
00010000
00000000
,
00000000
00100000
00000000
00000000
00001000
00000000
00010000
00000000
,
00011000
00000000
00000000
00000100
00000000
00000000
00001000
00000000
,
00000000
00000100
00000000
00000000
00010000
00010000
00000000
00000000
,
00001000
01000000
00001000
01000000
,
00010000
00100000
00010000
00100000
,
00001000
01000000
00001000
01000000
,
00010000
00100000
00010000
00100000
,
00001000
01000000
00010000
00100000
,
00001000
01000000
00010000
00100000
,
00002000
00000000
00000000
00003000
,
00010000
00000000
00000000
00000000
00001000
00010000
00001000
00000000
,
00010000
00000100
00010000
00000100
,
00001000
00000010
00001000
00000010
,
00010000
00000100
00010000
00000100
,
00001000
00000010
00001000
00000010
,
00010000
00000100
00001000
00000010
,
00010000
00000100
00001000
00000010
,
00020000
00000000
00000000
00030000
,
00001000
00000000
00000000
00000000
00010000
00001000
00010000
00000000
,
00011000
00000000
00001000
00010000
,
00100000
10000000
01000000
00010000
,
00002000
00003000
00010000
00010000
,
00001000
00001000
00000010
00000010
,
00000001
00000100
00001000
00010000
,
00001000
00010000
00100000
10000000
,
01000000
00010000
00001000
00010000
,
00001000
00000010
00000001
00001000
,
00000100
00000100
00000000
00000000
00000000
00000000
00000000
00000000
,
00010000
00010000
00000000
00000000
00001000
00001000
00000000
00000000
,
01000000
01000000
00000000
00000000
00000000
00000000
00000000
00000000
,
00001000
00001000
00000000
00000000
00010000
00000000
00000100
00000000
,
00001000
00001000
00000000
00000000
00000000
00000000
00000000
00000000
,
00000010
00000010
00000000
00000000
00010000
00010000
00000000
00000000
,
00001000
00001000
00000000
00000000
00000000
00000000
00000000
00000000
,
00000000
00100000
00100000
00000000
00010000
00000000
10000000
00000000
,
10010000
00100000
01000000
00100000
,
01000000
00000000
00001000
00001000
00000000
00010000
00010000
00000000
,
00011000
00001000
00010000
00001000
,
00000010
00000100
00000220
00000330
,
00001001
00000010
00000100
00000010
,
00000100
00000000
00001000
00001000
00000000
00010000
00010000
00000000
,
00011000
00001000
00010000
01000000
,
10000000
00000000
00100000
00000000
,
00010000
00000000
00001000
00000000
,
00000100
00000100
00000000
00000000
00000000
00000000
00000000
00000000
,
00001001
00000000
00000000
00000000
;

//---------------dance-single - ----------------
#NOTEDATA:;
#CHARTNAME:;
#STEPSTYPE:dance-single;
#DESCRIPTION:;
#CHARTSTYLE:;
#DIFFICULTY:Medium;
#METER:10;
#RADARVALUES:0.493009,0.564207,0.780486,0.169262,0.032912,367.000000,284.000000,83.000000,18.000000,0.000000,0.000000,0.000000,0.000000,0.000000,0.493009,0.564207,0.780486,0.169262,0.032912,367.000000,284.000000,83.000000,18.000000,0.000000,0.000000,0.000000,0.000000,0.000000;
#CREDIT:MILEN;
#NOTES:
0000
0000
0000
0000
,
0000
0000
0000
0000
,
0000
0000
0000
0000
,
0000
0000
0000
0000
,
0000
0000
0000
0000
,
0100
0001
1000
0010
,
0100
0000
0001
1000
0000
1000
0001
0000
,
0010
0100
1000
0001
,
0100
0000
0000
0100
0000
0000
0100
0000
0010
0000
0000
0010
0000
0000
0010
0000
,
1000
0001
0000
0000
0000
0000
0000
0000
,
0001
0100
0000
0000
0100
0010
0000
0000
,
0010
1000
0000
0000
0000
0000
0000
0000
,
1000
0100
0000
0000
0100
0010
0001
0100
,
0010
1000
0000
0000
0000
0000
0000
0000
,
1000
0001
0000
0000
0001
0100
0000
0000
,
0100
0010
0000
0000
0000
0000
0000
0000
,
0010
1000
0000
1000
0100
0010
0001
0100
,
0010
1010
0100
1100
,
0010
1010
0100
1100
,
0010
0011
0100
0101
,
0010
0011
1100
1001
,
0100
1001
0010
1001
,
0100
1001
0010
1001
,
1000
0110
0001
0110
,
1000
0110
1001
0110
,
1010
0000
0000
1100
0000
0000
1001
0000
,
0000
0011
0000
0000
0101
0000
0010
0000
,
0011
0000
0000
0101
0000
0000
1001
0000
,
0000
1010
0000
0000
1100
0000
0110
0000
,
0011
0000
0000
0101
0000
0000
1001
0000
,
0000
1100
0000
0000
1010
0000
0110
0000
,
0101
0000
0000
0011
0000
0000
0110
0000
,
0000
1100
0000
0000
1010
2020
3030
0000
,
0001
0011
0100
0110
,
0001
0011
1000
1010
,
0001
0101
0010
0110
,
0001
0101
1000
1100
,
0010
0110
1000
1010
,
0100
0110
0001
0011
,
1010
1100
0101
0011
,
1000
0000
0000
1000
0000
0000
1000
0000
0010
0000
0100
0000
0001
0000
1000
0000
,
0010
0110
1000
1100
,
0001
0011
0100
0110
,
1000
1010
0100
1001
,
0010
0110
0001
0101
,
1000
1100
0001
0110
,
1000
1001
0100
0101
,
0010
1010
0100
1001
,
1000
0010
0100
0001
0100
0010
1000
0000
,
0220
0330
2000
3010
,
0002
0103
2000
3100
,
0002
0013
2000
3001
,
0020
0000
0130
0000
0010
0010
0010
0000
,
0002
0103
2000
3010
,
0002
0013
2000
3100
,
0002
1003
0200
0310
,
0010
0001
1000
0100
0010
0001
0100
0000
,
1000
0010
0000
0000
0000
0000
0000
0000
,
0010
0001
0000
0000
0001
0100
0000
0000
,
0100
1000
0000
0000
0000
0000
0000
0000
,
1000
0100
0000
0000
0100
0001
0010
0100
,
1000
0010
0000
0000
0000
0000
0000
0000
,
0010
0001
0000
0000
0001
0100
0000
0000
,
0100
1000
0000
0000
0000
0000
0000
0000
,
1000
0010
0000
0010
0100
0001
1000
0100
,
0010
0011
0100
1010
,
0001
0000
1000
0100
0000
0100
0010
0000
,
0100
1100
0010
0101
,
1000
0000
0110
0000
0001
1000
0100
0000
,
0010
0101
1000
0110
,
0001
0000
0100
0010
0000
0010
1000
0000
,
0100
0011
1000
1010
,
0001
0000
0000
0001
0000
0000
0001
0000
0100
0000
0000
0100
0000
0000
0100
0000
,
1000
0000
0000
1000
0000
0000
1000
0000
0010
0000
0000
0010
0000
0000
0010
0000
,
0100
0220
0000
0000
0000
0000
0330
0000
,
1001
0000
0000
0000
;

//---------------dance-double - ----------------
#NOTEDATA:;
#CHARTNAME:;
#STEPSTYPE:dance-double;
#DESCRIPTION:;
#CHARTSTYLE:;
#DIFFICULTY:Medium;
#METER:11;
#RADARVALUES:0.484949,0.564207,0.742872,0.263296,0.032912,361.000000,282.000000,79.000000,28.000000,0.000000,0.000000,0.000000,0.000000,0.000000,0.484949,0.564207,0.742872,0.263296,0.032912,361.000000,282.000000,79.000000,28.000000,0.000000,0.000000,0.000000,0.000000,0.000000;
#CREDIT:MILEN;
#NOTES:
00000000
00000000
00000000
00000000
,
00000000
00000000
00000000
00000000
,
00000000
00000000
00000000
00000000
,
00000000
00000000
00000000
00000000
,
00000000
00000000
00000000
00000000
,
00001000
00010000
01000000
10000000
,
00100000
00000000
00010000
00001000
00000000
00001000
00010000
00000000
,
00001000
00000100
00000001
00000010
,
00001000
00000000
00000000
00001000
00000000
00000000
00001000
00000000
00010000
00000000
00000000
00010000
00000000
00000000
00010000
00000000
,
00001000
01000000
00000000
00000000
00000000
00000000
00000000
00000000
,
01000000
00010000
00000000
00000000
00010000
10000000
00000000
00000000
,
10000000
00100000
00000000
00000000
00000000
00000000
00000000
00000000
,
00100000
00010000
00000000
00000000
00010000
00001000
00010000
00000000
,
00000010
00001000
00000000
00000000
00000000
00000000
00000000
00000000
,
00001000
00000100
00000000
00000000
00000100
00000010
00000000
00000000
,
00000010
00000001
00000000
00000000
00000000
00000000
00000000
00000000
,
00000001
00000100
00000000
00000100
00000010
00010000
00001000
00010000
,
00100000
10100000
10000000
11000000
,
01000000
01010000
00010000
00011000
,
00001000
00001010
00000010
00000011
,
00000001
00000101
00000100
00001100
,
00001000
00011000
00010000
00010010
,
00000010
00000110
00000100
00001100
,
00001000
00011000
00010000
00110000
,
00100000
01100000
01000000
01001000
,
00011000
00000000
00000000
00110000
00000000
00000000
00011000
00000000
,
00000000
00001010
00000000
00000000
00011000
00000000
00100000
00000000
,
00110000
00000000
00000000
01010000
00000000
00000000
00011000
00000000
,
00000000
00001010
00000000
00000000
00001100
00000000
00010000
00000000
,
00010010
00000000
00000000
00101000
00000000
00000000
00010100
00000000
,
00000000
01001000
00000000
00000000
00011000
00000000
01000000
00000000
,
10010000
00000000
00000000
00110000
00000000
00000000
00011000
00000000
,
00000000
00001010
00000000
00000000
00001001
00002002
00003003
00000000
,
00000001
00000101
00001000
00001100
,
00010000
00011000
00100000
00110000
,
10000000
10100000
01000000
11000000
,
00010000
01010000
00001000
00011000
,
00000010
00001010
00000100
00000101
,
00001000
00001100
00010000
00011000
,
01001000
00011000
00010010
00011000
,
00001000
00000000
00000000
00001000
00000000
00000000
00001000
00000000
00100000
00000000
00010000
00000000
00100000
00000000
01000000
00000000
,
10000000
10100000
00010000
00011000
,
00000100
00000101
00000010
00000011
,
00001000
00011000
01000000
11000000
,
00100000
01010000
00001000
00011000
,
00000100
00001010
00000001
00000011
,
00000100
00011000
00100000
11000000
,
00100000
00011000
00000100
00001001
,
00000001
00000100
00001000
00010000
00100000
10000000
01000000
00000000
,
02200000
03300000
20000000
32000000
,
03200000
00000000
00302000
00003000
00020000
00000000
00030200
00000000
,
00000320
00000032
00000203
00002300
,
00023000
00000000
00130000
00000000
10000000
10000000
10000000
00000000
,
02000000
03020000
00032000
00003020
,
00000032
00000203
00002300
00023000
,
00230000
20300000
32000000
03010000
,
00001000
00010000
00000100
00001000
00000100
00000010
00000001
00000000
,
00000100
00001000
00000000
00000000
00000000
00000000
00000000
00000000
,
00001000
00010000
00000000
00000000
00010000
01000000
00000000
00000000
,
01000000
10000000
00000000
00000000
00000000
00000000
00000000
00000000
,
10000000
00100000
00000000
00000000
00100000
00010000
00100000
00000000
,
00010000
00001000
00000000
00000000
00000000
00000000
00000000
00000000
,
00001000
00000100
00000000
00000000
00000100
00000001
00000000
00000000
,
00000001
00000010
00000000
00000000
00000000
00000000
00000000
00000000
,
00000010
00001000
00000000
00001000
00010000
00100000
01000000
00100000
,
10000000
11000000
00100000
01010000
,
00001000
00000000
00010000
00000100
00000000
00001000
00000001
00000000
,
00000010
00001010
00010000
00101000
,
01000000
00000000
10010000
00000000
00100000
00010000
00001000
00000000
,
00000100
00001010
00010000
00011000
,
00100000
00000000
01000000
10000000
00000000
00100000
00010000
00000000
,
00001000
00001010
00000100
00000101
,
00000001
00000000
00000000
00000010
00000000
00000000
00001000
00000000
00010000
00000000
00000000
00001000
00000000
00000000
00010000
00000000
,
01000000
00000000
00000000
10000000
00000000
00000000
00100000
00000000
00010000
00000000
00000000
00001000
00000000
00000000
00010000
00000000
,
00001000
00022000
00000000
00000000
00000000
00000000
00033000
00000000
,
00011000
00000000
00000000
00000000
;
