#VERSION:0.83;
#TITLE:Bon Voyage;
#SUBTITLE:;
#ARTIST:YooA from Oh My Girl!;
#TITLETRANSLIT:;
#SUBTITLETRANSLIT:;
#ARTISTTRANSLIT:;
#GENRE:K-POP;
#ORIGIN:;
#CREDIT:MILEN;
#BANNER:Bon Voyage.png;
#BACKGROUND:Bon Voyage-bg.png;
#JACKET:Bon Voyage-jacket.png;
#CDIMAGE:;
#DISCIMAGE:;
#LYRICSPATH:;
#CDTITLE:;
#MUSIC:Bon Voyage.ogg;
#OFFSET:0.063000;
#SAMPLESTART:72.430954;
#SAMPLELENGTH:11.979000;
#SELECTABLE:YES;
#DISPLAYBPM:120.000000;
#BPMS:0.000=120.010;
#STOPS:;
#DELAYS:;
#WARPS:;
#TIMESIGNATURES:0.000=4=4;
#TICKCOUNTS:0.000=4;
#COMBOS:0.000=1;
#SPEEDS:0.000=1.000=0.000=0;
#SCROLLS:0.000=1.000;
#FAKES:;
#LABELS:0.000=Song Start;
#BGCHANGES:0.000=Bon Voyage-bg.png=1.000=0=0=1=StretchNormal===#000000=#000000,
1.000=Bon Voyage.avi=1.000=1=0=0=StretchNoLoop==CrossFade==,
99999=-nosongbg-=1.000=0=0=0 // don't automatically add -songbackground-
;
#KEYSOUNDS:;
#ATTACKS:
;

//---------------dance-single - ----------------
#NOTEDATA:;
#CHARTNAME:;
#STEPSTYPE:dance-single;
#DESCRIPTION:;
#CHARTSTYLE:;
#DIFFICULTY:Beginner;
#METER:2;
#RADARVALUES:0.091274,0.121314,0.008088,0.016175,0.000000,79.000000,78.000000,1.000000,2.000000,0.000000,0.000000,0.000000,0.000000,0.000000,0.091274,0.121314,0.008088,0.016175,0.000000,79.000000,78.000000,1.000000,2.000000,0.000000,0.000000,0.000000,0.000000,0.000000;
#CREDIT:MILEN;
#DISPLAYBPM:120.000000;
#NOTES:
0000
0000
0000
0000
,
0000
0000
0000
0000
,
0000
0000
0000
0000
,
0000
0000
0000
0000
,
0000
0010
0000
0000
,
0000
0010
0000
0000
,
0000
0100
0000
0000
,
0000
0100
0000
0000
,
0000
0010
0000
0000
,
0000
0100
0000
0000
,
0000
0010
0000
0000
,
0000
0100
0000
0000
,
0000
0001
0000
0000
,
0000
0001
0000
0000
,
0000
1000
0000
0000
,
0000
1000
0000
0000
,
0000
0001
0000
0000
,
0000
1000
0000
0000
,
0000
0001
0000
0000
,
0000
1000
0000
0000
,
0000
0010
0000
0010
,
0000
0010
0000
0000
,
0000
0010
0000
0000
,
0000
0000
0000
0000
,
0000
0100
0000
0100
,
0000
0100
0000
0000
,
0000
0100
0000
0000
,
0000
0000
0000
0000
,
0000
0001
0000
1000
,
0000
0001
0000
1000
,
0000
0001
0000
0000
,
0000
0001
0000
0000
,
0000
1000
0000
0001
,
0000
1000
0000
0001
,
0000
1000
0000
0000
,
0000
1000
0000
0000
,
0000
1000
0000
0001
,
0000
0100
0000
0010
,
0000
1000
1000
0000
,
0000
0001
0001
0000
,
0000
0001
0000
0100
,
0000
0010
0000
1000
,
0000
0001
0001
0000
,
0000
1000
1000
0000
,
0000
1000
0000
0100
,
0000
0010
0000
0001
,
0000
0100
0000
0000
,
0000
0100
0000
0000
,
0000
0001
0000
0010
,
0000
0100
0000
1000
,
0000
0010
0000
0000
,
0000
0010
0000
0000
,
0000
0100
0000
0001
,
0000
1000
0000
0010
,
0000
0100
0100
0000
,
0000
0000
0010
0010
,
0000
0010
0000
1000
,
0000
0001
0000
0100
,
0000
0010
0000
0000
,
0000
0220
0000
0000
,
0330
0000
0000
0000
;

//---------------dance-single - ----------------
#NOTEDATA:;
#CHARTNAME:;
#STEPSTYPE:dance-single;
#DESCRIPTION:;
#CHARTSTYLE:;
#DIFFICULTY:Easy;
#METER:4;
#RADARVALUES:0.164063,0.242628,0.097051,0.088964,0.000000,142.000000,130.000000,12.000000,11.000000,0.000000,0.000000,0.000000,0.000000,0.000000,0.164063,0.242628,0.097051,0.088964,0.000000,142.000000,130.000000,12.000000,11.000000,0.000000,0.000000,0.000000,0.000000,0.000000;
#CREDIT:MILEN;
#DISPLAYBPM:120.000000;
#NOTES:
0000
0000
0000
0000
,
0000
0000
0000
0000
,
0000
0000
0000
0000
,
0000
0000
0000
0000
,
0000
1000
0000
1000
,
0000
0100
0000
0010
,
0000
0001
0000
0001
,
0000
0010
0000
0100
,
0000
1000
0000
1000
,
0000
0010
0000
0100
,
0000
0001
0000
0001
,
0000
0100
0000
0010
,
0000
1000
0001
1000
,
0000
0001
0000
1000
,
0000
0001
1000
0001
,
0000
1000
0000
0001
,
0000
0100
0010
0100
,
0000
0010
0000
0100
,
0000
0010
0100
0020
,
0030
0100
0010
0200
,
0300
0001
0000
1000
,
0000
0002
0000
0003
,
1000
1001
0000
0000
,
0000
0000
0000
0000
,
0000
1000
0000
0001
,
0000
2000
0000
3000
,
0001
1001
0000
0000
,
0000
0000
0000
0000
,
0100
0100
0000
0010
,
0000
1000
0000
0001
,
0000
0200
0000
0300
,
0010
0110
0000
0000
,
0010
0010
0000
0100
,
0000
0001
0000
1000
,
0000
0020
0000
0000
,
0030
0200
0000
0300
,
0110
1000
0001
1000
,
1000
0001
1000
0001
,
0001
0100
1000
0000
,
0000
0100
0001
0000
,
0110
0001
1000
0001
,
0001
1000
0001
1000
,
1000
0010
0001
0000
,
0000
0010
1000
0000
,
1001
0010
0000
1000
,
0000
0100
0000
0001
,
0000
0010
0100
0010
,
0010
0100
0100
0010
,
1001
0100
0000
0001
,
0000
0010
0000
1000
,
0000
0100
0010
0100
,
0100
0010
0010
0100
,
1001
0001
0000
1000
,
0000
0002
0000
0003
,
1000
1001
0000
0000
,
0100
0110
0000
0000
,
0001
1000
0000
0001
,
0000
2000
0000
3000
,
0001
1001
0000
0010
,
0100
0010
0220
0000
,
0330
0000
0000
0000
;

//---------------dance-single - ----------------
#NOTEDATA:;
#CHARTNAME:;
#STEPSTYPE:dance-single;
#DESCRIPTION:;
#CHARTSTYLE:;
#DIFFICULTY:Medium;
#METER:6;
#RADARVALUES:0.258803,0.315417,0.153664,0.331592,0.000000,224.000000,205.000000,19.000000,41.000000,0.000000,0.000000,0.000000,0.000000,0.000000,0.258803,0.315417,0.153664,0.331592,0.000000,224.000000,205.000000,19.000000,41.000000,0.000000,0.000000,0.000000,0.000000,0.000000;
#CREDIT:MILEN;
#DISPLAYBPM:120.000000;
#NOTES:
0000
0000
0000
0000
,
0000
0000
0000
0000
,
0000
0000
0000
0000
,
0000
0000
0000
0000
,
0000
1000
0100
1000
,
1000
0001
0010
0001
,
0001
1000
0010
1000
,
1000
0001
0100
0001
,
0001
1000
0100
0010
,
0010
0001
0100
0010
,
0010
1000
0001
2002
,
3003
0010
0100
0220
,
0330
0010
1000
0010
,
0010
0100
0001
0100
,
0100
0010
0001
0010
,
0010
0100
1000
0100
,
0100
0010
1000
0001
,
0001
0100
0001
1000
,
1000
0010
0100
0220
,
0330
0001
1000
2002
,
3003
0010
1000
0100
,
0010
0002
0003
0100
,
0010
0220
0000
0000
,
0000
0000
0000
0330
,
1001
0100
0001
0010
,
0100
2000
3000
0010
,
0100
0220
0000
0000
,
0000
0000
0000
0330
,
0001
1000
0001
0000
1000
0000
0001
0000
,
0200
0310
0010
1000
,
0001
2002
0000
0000
,
0000
0000
0000
3003
,
1000
0001
1000
0000
0001
0000
1000
0000
,
0020
0130
0100
0001
,
1000
2002
0000
0000
,
0000
0000
0000
3003
,
0110
0000
0010
1000
0010
0000
0100
0000
,
0100
0000
0010
1000
0010
0000
0100
0000
,
0100
0000
0010
1000
1010
0000
1000
0000
,
0001
0000
1000
0010
1010
0000
1000
0000
,
0001
0000
0010
0001
0010
0000
0100
0000
,
0100
0000
0010
0001
0010
0000
0100
0000
,
0100
0000
0010
0001
0011
0000
0001
0000
,
1000
0000
0001
0010
0011
0000
0001
0000
,
1000
0020
0230
0302
,
2003
3020
0230
0302
,
2003
0000
3010
0010
0100
0000
0010
0000
,
1000
0000
0010
0010
0100
0000
0010
0000
,
1000
0002
0023
0230
,
2300
3002
0023
0230
,
2300
0000
3010
0010
0100
0000
0001
0000
,
0100
0000
0010
0010
0100
0000
0001
0000
,
1001
0100
1000
0010
,
0001
0200
0300
0001
,
0010
0000
1000
0001
1000
1001
0000
0000
,
0000
0000
0000
0001
1000
1001
0000
0000
,
1001
0010
0001
0100
,
1000
0020
0030
1000
,
0100
0000
0002
0000
0000
1003
0001
1000
,
0001
1000
0000
2002
0000
0000
0000
0000
,
3003
0000
0000
0000
;

//---------------dance-single - ----------------
#NOTEDATA:;
#CHARTNAME:;
#STEPSTYPE:dance-single;
#DESCRIPTION:;
#CHARTSTYLE:;
#DIFFICULTY:Hard;
#METER:9;
#RADARVALUES:0.353544,0.388205,0.218365,0.291154,0.109183,306.000000,279.000000,27.000000,36.000000,0.000000,0.000000,0.000000,0.000000,0.000000,0.353544,0.388205,0.218365,0.291154,0.109183,306.000000,279.000000,27.000000,36.000000,0.000000,0.000000,0.000000,0.000000,0.000000;
#CREDIT:MILEN;
#DISPLAYBPM:120.000000;
#NOTES:
0000
0000
0000
0000
,
0000
0000
0000
0000
,
0000
0000
0000
0000
,
0000
0000
0000
0000
,
0000
0000
0001
1000
2002
0000
3003
0000
,
1000
0001
0100
0010
,
0100
0000
0001
1000
2002
0000
3003
0000
,
0001
1000
0010
0100
,
0010
0000
1000
0001
2002
0000
3003
0000
,
1000
0001
0100
0010
,
0100
0000
0000
0000
0001
0000
0000
1000
0000
0000
0220
0000
0000
0000
0000
0000
,
0330
0000
0010
0000
1000
0000
0000
0001
0000
0000
0220
0000
0000
0000
0000
0000
,
0330
0000
0100
0001
0010
0000
0001
0000
,
1000
0000
0010
1000
0100
0000
1000
0000
,
0001
0000
0010
0100
1000
0000
0001
0000
,
1000
0000
0100
0010
0001
0000
1000
0000
,
0001
0000
0100
0010
1000
0010
0100
0000
,
0110
0000
0010
0100
0001
0100
0010
0000
,
0110
0000
0000
0000
1000
0000
0000
0001
0000
0000
0220
0000
0000
0000
0000
0000
,
0330
0000
0110
0000
0001
0000
0000
1000
0000
0000
0220
0000
0000
0000
0330
0000
,
0010
0000
1000
0000
0100
0000
0000
0100
0000
0000
0010
0000
0000
0010
0000
0000
,
0002
0000
0203
0000
0000
0000
0310
1000
,
0001
0100
0220
0000
0000
0000
0000
0000
,
0000
0000
0000
0330
,
0100
0000
0001
0000
0010
0000
0000
0010
0000
0000
0100
0000
0000
0100
0000
0000
,
2000
0000
3020
0000
0000
0000
0130
0001
,
1000
0010
0220
0000
0000
0000
0000
0000
,
0000
0000
0000
0330
,
0010
0000
0010
0000
1000
0000
0000
0100
0000
0000
0010
0000
0000
0000
0001
0000
,
0001
0000
0100
0000
0010
0000
0000
1000
0000
0000
0001
0000
0000
0000
0010
0000
,
0010
0000
0100
0000
1000
0000
0000
0010
0000
0000
0100
0000
0000
0000
0001
0000
,
0001
0000
1000
0000
0100
0000
0000
0010
0000
0000
0001
0000
0000
0000
0100
0000
,
0100
0000
0010
0000
1000
0000
0000
0001
0000
0000
0010
0000
0000
0000
0100
0000
,
1000
0000
0001
0000
0100
0000
0000
0010
0000
0000
1000
0000
0000
0000
0100
0000
,
0010
0000
0001
0000
0100
0000
0000
0010
0000
0000
1000
0000
0000
0000
0001
0000
,
0010
0100
1000
0010
0100
0001
1000
0000
,
1001
0000
0001
0100
0002
0000
1003
0100
,
2000
0000
3001
0100
0002
0000
1003
0100
,
2000
0000
3001
1000
1001
0000
0100
0000
,
0010
0000
1000
0001
1001
0000
0110
0000
,
1001
0000
0001
0100
0020
0000
1030
0010
,
0200
0000
0301
0010
0200
0000
1300
0100
,
0020
0000
0031
1000
1100
0000
1000
0000
,
0010
0000
1000
0001
0011
0000
0101
0000
,
1010
0000
0000
0000
0110
0000
0000
0010
1000
0000
0000
0000
0100
0000
0000
0010
,
0001
0000
0000
0000
0100
0000
0000
0010
1000
0000
0000
0000
0100
0000
0000
0010
,
0001
0000
0100
0010
1000
0001
0010
0100
,
1000
0000
0010
0100
0001
1000
0100
0010
,
0001
0000
0000
0000
1001
0000
0000
1000
0010
0000
0000
0000
0100
0000
0000
0001
,
0010
0000
0000
0000
0100
0000
0000
1000
0010
0000
0000
0000
0100
0000
0000
0001
,
0010
0000
0100
1000
0010
0100
0001
1000
,
0100
0000
0010
0001
0100
0010
1000
0001
,
0010
0000
0010
0000
0100
0000
0000
1000
0000
0000
0010
0000
0000
0100
0000
0000
,
0002
0000
2003
0000
0000
0000
3100
0010
,
0001
1000
1001
0010
0001
1001
0000
0000
,
0000
0000
0000
0100
1000
1001
0000
0000
,
0100
0000
0100
0000
0010
0000
0000
1000
0000
0000
0100
0000
0000
0010
0000
0000
,
0002
0000
2003
0000
0000
0000
3001
0100
,
0010
1000
1100
0000
0000
0100
0010
1000
,
0010
0002
0000
2000
0000
0000
0000
0000
,
3003
0000
0000
0000
;

//---------------dance-single - ----------------
#NOTEDATA:;
#CHARTNAME:;
#STEPSTYPE:dance-single;
#DESCRIPTION:;
#CHARTSTYLE:;
#DIFFICULTY:Challenge;
#METER:13;
#RADARVALUES:0.506053,0.582308,0.388205,0.274979,0.618702,438.000000,390.000000,48.000000,34.000000,0.000000,0.000000,0.000000,0.000000,0.000000,0.506053,0.582308,0.388205,0.274979,0.618702,438.000000,390.000000,48.000000,34.000000,0.000000,0.000000,0.000000,0.000000,0.000000;
#CREDIT:MILEN;
#DISPLAYBPM:120.000000;
#NOTES:
0000
0000
0000
0000
,
0000
0000
0000
0000
,
0000
0000
0000
0000
,
0000
0000
0000
0000
,
0000
0000
0000
0000
1001
0000
0001
2000
0000
0000
0000
0000
0000
0000
3010
0000
,
0010
0100
0000
0100
0000
0001
0000
0001
0000
1000
0000
1000
0000
0100
0000
0100
,
0000
0010
0000
0000
1001
0000
1000
0002
0000
0000
0000
0000
0000
0000
0103
0000
,
0100
0010
0000
0010
0000
1000
0000
1000
0000
0001
0000
0001
0000
0010
0000
0010
,
0000
0100
0000
0000
1001
0000
1000
0020
0000
0000
0000
0000
0000
0000
0130
0000
,
0100
0001
0000
0001
0000
0010
0000
0010
0000
1000
0000
1000
0000
0100
0000
0100
,
0000
0010
0000
0000
1010
0000
0000
1100
0000
0000
0022
0000
0000
0000
0030
0000
,
0000
0000
0103
0000
0110
0000
0000
0101
0000
0000
2020
0000
0000
0000
0030
0000
,
0000
0000
3100
0000
0110
0000
0010
0001
0100
0000
1000
0000
0100
0000
0010
0000
,
1000
0100
0000
0100
0000
0001
0000
0001
0000
0100
0000
0100
0000
0010
0000
0001
,
0000
0100
0000
0000
0110
0000
0010
1000
0100
0000
0001
0000
0100
0000
0010
0000
,
0001
0100
0000
0100
0000
1000
0000
1000
0000
0100
0000
0100
0000
0010
0000
1000
,
0000
0100
0000
0000
0110
0000
0010
0001
1000
0000
0100
0000
0001
0000
1000
0000
,
0010
0100
0000
0100
0000
1000
0000
1000
0000
0010
0000
0010
0000
0001
0000
1000
,
0000
0100
0000
0000
0101
0000
0000
0011
0000
0000
2200
0000
0000
0000
0300
0000
,
0000
0000
3010
0000
0110
0000
0000
1010
0000
0000
0202
0000
0000
0000
0303
0000
,
0011
0000
0010
0000
0100
0000
0000
1000
0000
0000
0010
0000
0000
0001
0000
0000
,
0200
0000
0000
0000
2000
0000
0000
0000
0300
0000
0000
0000
3010
0100
0000
0001
,
0000
0010
0000
0220
0000
0000
0000
0000
0000
0000
0000
0000
0000
0000
0000
0000
,
0000
0000
0000
0000
0000
0000
0000
0330
,
1100
0000
0100
0000
0010
0000
0000
0001
0000
0000
0100
0000
0000
1000
0000
0000
,
0020
0000
0000
0000
0002
0000
0000
0000
0030
0000
0000
0000
0103
0010
0000
1000
,
0000
0100
0000
0220
0000
0000
0000
0000
0000
0000
0000
0000
0000
0000
0000
0000
,
0000
0000
0000
0000
0000
0000
0000
0330
,
0110
0000
0010
0000
0100
0000
1000
0010
0000
1000
0100
0000
1000
0001
0000
1000
,
0100
0000
0100
0000
0010
0000
0001
0100
0000
0001
0010
0000
0001
1000
0000
0001
,
0010
0000
0010
0000
0100
0000
1000
0010
0000
0001
0010
0000
0100
0000
0001
0000
,
1000
0000
1100
0000
0100
0000
0010
0001
0000
0010
1000
0000
0010
0000
0100
0000
,
0110
0000
0100
0000
0010
0000
0001
0100
0000
1000
0100
0000
0001
0100
0000
0010
,
0100
0000
0010
0000
0010
0000
1000
0010
0000
0001
0010
0000
1000
0010
0000
0100
,
0010
0000
0100
0000
0100
0000
0010
1000
0000
0001
0100
0000
1000
0000
0010
0000
,
0001
0000
0101
0000
0100
0000
0010
1000
0000
0100
0001
0000
0010
0000
0100
0000
,
2002
0000
3003
0000
1001
0000
0001
0100
0000
0010
0100
0000
0001
0010
0001
0000
,
1000
0010
1000
0000
0001
0000
1000
0010
0000
0100
0010
0000
1000
0100
1000
0000
,
0001
0100
0001
0000
0010
0000
0100
2000
0000
0000
3010
0000
0100
0000
0001
0000
,
1000
0000
0100
0000
0010
0000
0001
0200
0000
0000
0310
0000
1000
0000
0001
0000
,
0010
0000
0100
0000
1100
0000
1000
0010
0000
0001
0010
0000
0100
0010
0100
0000
,
0001
1000
0001
0000
0100
0000
0001
0010
0000
1000
0010
0000
0100
0010
0100
0000
,
1000
0001
1000
0000
0001
0000
0100
0020
0000
0000
1030
0000
0001
0000
0010
0000
,
0100
0000
1000
0000
0010
0000
0100
0002
0000
0000
1003
0000
0100
0000
0010
0000
,
0110
0000
0000
0000
1001
0000
0000
1000
0010
0000
0000
0010
0001
0000
0000
0001
,
0100
0000
0000
0100
1000
0000
0000
1000
0100
0000
0000
0100
0001
0000
0000
0001
,
0010
0000
0000
0010
1000
0000
0100
0010
0100
0000
0001
0000
1000
0000
0010
0000
,
0001
0000
0100
0000
0010
0000
1000
0100
1000
0000
0001
0000
0010
0000
0100
0000
,
0110
0000
0000
0000
1001
0000
0000
1000
0010
0000
0000
0010
0001
0000
0000
0001
,
0100
0000
0000
0100
1000
0000
0000
1000
0100
0000
0000
0100
0001
0000
0000
0001
,
0010
0000
0000
0010
1000
0000
0100
0010
0100
0000
0001
0000
1000
0000
0010
0000
,
0001
0000
0100
0000
0010
0000
1000
0100
1000
0000
0001
0000
0010
0000
0100
0000
,
0110
0000
0001
0000
1001
0000
0000
1010
0000
0000
0101
0000
0000
0011
0000
0000
,
1200
0000
0000
0000
0020
0000
0000
0000
0300
0000
0000
0000
0031
0100
0000
1000
,
0000
0100
0000
0020
0000
0000
1000
0000
0001
0000
1030
0000
0000
0000
0000
0000
,
0000
0000
0000
1200
0001
1300
0000
0000
,
0110
0000
1000
0000
1001
0000
0000
0101
0000
0000
1010
0000
0000
1100
0000
0000
,
0021
0000
0000
0000
0200
0000
0000
0000
0030
0000
0000
1300
0010
0100
0000
1000
,
0000
0100
0000
0002
0000
0000
0000
0000
0000
0000
0013
0000
0100
0000
1000
0000
,
0010
0110
0000
2002
0000
0000
0000
0000
,
3003
0000
0000
0000
;

//---------------dance-double - ----------------
#NOTEDATA:;
#CHARTNAME:;
#STEPSTYPE:dance-double;
#DESCRIPTION:;
#CHARTSTYLE:;
#DIFFICULTY:Easy;
#METER:4;
#RADARVALUES:0.160597,0.218365,0.129402,0.072788,0.000000,139.000000,123.000000,16.000000,9.000000,0.000000,0.000000,0.000000,0.000000,0.000000,0.160597,0.218365,0.129402,0.072788,0.000000,139.000000,123.000000,16.000000,9.000000,0.000000,0.000000,0.000000,0.000000,0.000000;
#CREDIT:MILEN;
#DISPLAYBPM:120.000000;
#NOTES:
00000000
00000000
00000000
00000000
,
00000000
00000000
00000000
00000000
,
00000000
00000000
00000000
00000000
,
00000000
00000000
00000000
00000000
,
00000000
00001000
00000000
00001000
,
00000000
01000000
00000000
00001000
,
00000000
00010000
00000000
00010000
,
00000000
00000100
00000000
00010000
,
00000000
00001000
00000000
00001000
,
00000000
00100000
00000000
00001000
,
00000000
00010000
00000000
00010000
,
00000000
00000010
00000000
00010000
,
00000000
00001000
00010000
00011000
,
00000000
00010000
00000000
01000000
,
00000000
00010000
00001000
00011000
,
00000000
00001000
00000000
00000100
,
00000000
00001000
00010000
00011000
,
00000000
00010000
00000000
00100000
,
00000000
00010000
00001000
00011000
,
00000000
00001000
00000000
00000010
,
00000000
00001000
00000000
00010000
,
00000000
00200000
00000000
00300000
,
10000000
10010000
00000000
00000000
,
00000000
00000000
00000000
00000000
,
00000000
00010000
00000000
00001000
,
00000000
00000020
00000000
00000030
,
00000001
00001001
00000000
00000000
,
00000000
00000000
00000000
00000000
,
00001000
00001000
00000000
00000100
,
00000000
00010000
00000000
00001000
,
00000000
02000000
00000000
03000000
,
00100000
01100000
00000000
00000000
,
00010000
00010000
00000000
00100000
,
00000000
00001000
00000000
00010000
,
00000000
00000020
00000000
00000000
,
00000030
00000200
00000000
00000300
,
00000110
00001000
00000001
00001000
,
00000000
00000001
00001000
00000001
,
00000000
00000100
00001000
00000000
,
00000000
00010000
00100000
00000000
,
01100000
00010000
10000000
00010000
,
00000000
10000000
00010000
10000000
,
00000000
00100000
00010000
00000000
,
00000000
00001000
00000100
00000000
,
00001001
00000001
00000000
00000100
,
00000000
00001000
00000000
00010000
,
00000000
00100000
10000000
01000000
,
00000000
10000000
00100000
01000000
,
10010000
10000000
00000000
00100000
,
00000000
00010000
00000000
00001000
,
00000000
00000010
00000001
00000100
,
00000000
00000001
00000100
00000010
,
00001001
00000001
00000000
00000100
,
00000000
00002000
00000000
00003000
,
00010000
00011000
00000000
00000000
,
00001000
00011000
00000000
00000000
,
10000000
10000000
00000000
00100000
,
00000000
00020000
00000000
00030000
,
00001000
00011000
00000000
00001000
,
00000100
00000001
00002002
00000000
,
00003003
00000000
00000000
00000000
;

//---------------dance-double - ----------------
#NOTEDATA:;
#CHARTNAME:;
#STEPSTYPE:dance-double;
#DESCRIPTION:;
#CHARTSTYLE:;
#DIFFICULTY:Medium;
#METER:6;
#RADARVALUES:0.254182,0.315417,0.145577,0.331592,0.000000,220.000000,202.000000,18.000000,41.000000,0.000000,0.000000,0.000000,0.000000,0.000000,0.254182,0.315417,0.145577,0.331592,0.000000,220.000000,202.000000,18.000000,41.000000,0.000000,0.000000,0.000000,0.000000,0.000000;
#CREDIT:MILEN;
#DISPLAYBPM:120.000000;
#NOTES:
00000000
00000000
00000000
00000000
,
00000000
00000000
00000000
00000000
,
00000000
00000000
00000000
00000000
,
00000000
00000000
00000000
00000000
,
00000000
00001000
01000000
00001000
,
00001000
00010000
00000100
00010000
,
00010000
00001000
00100000
00001000
,
00001000
00010000
00000010
00010000
,
00010000
00001000
00100000
00010000
,
01000000
00001000
00010000
00000100
,
00001000
00000010
00010000
00022000
,
00033000
01000000
00001000
00022000
,
00033000
00000100
00001000
00000001
,
00001000
00000100
00010000
00001000
,
00001000
00100000
00010000
10000000
,
00010000
00100000
00001000
00010000
,
00010000
00001000
00000100
00000001
,
00000010
00001000
00010000
01000000
,
10000000
00100000
00010000
00022000
,
00033000
00000010
00001000
00022000
,
00033000
00010000
00100000
10000000
,
01000000
00200000
00300000
00001000
,
00010000
00022000
00000000
00000000
,
00000000
00000000
00000000
00033000
,
00011000
00001000
00000100
00000001
,
00000010
00000200
00000300
00010000
,
00001000
00022000
00000000
00000000
,
00000000
00000000
00000000
00033000
,
00001000
00010000
00001000
00000000
00100000
00000000
01000000
00000000
,
20000000
30000000
00100000
00010000
,
00001000
00022000
00000000
00000000
,
00000000
00000000
00000000
00033000
,
00010000
00001000
00010000
00000000
00000100
00000000
00000010
00000000
,
00000002
00000003
00000100
00001000
,
00010000
00022000
00000000
00000000
,
00000000
00000000
00000000
00033000
,
00011000
00000000
00010000
00000100
00010000
00000000
00000100
00000000
,
00010000
00000000
00001000
00100000
00001000
00000000
00100000
00000000
,
00001000
00000000
00010000
00001000
00011000
00000000
01000000
00000000
,
00001000
00000000
00010000
00001000
00011000
00000000
00000010
00000000
,
00010000
00000000
00001000
01000000
00001000
00000000
01000000
00000000
,
00001000
00000000
00010000
00000010
00010000
00000000
00000010
00000000
,
00010000
00000000
00001000
00010000
00011000
00000000
00000100
00000000
,
00000010
00000000
00001000
00010000
00011000
00000000
00100000
00000000
,
01000000
00020000
00032000
00003020
,
00000032
00000203
00002300
00023000
,
00230000
00000000
10300000
01000000
00100000
00000000
01000000
00000000
,
10000000
00000000
01000000
00010000
00001000
00000000
00010000
00000000
,
00011000
00002000
00023000
02030000
,
23000000
30200000
00320000
00032000
,
00003020
00000000
00000031
00000100
00000010
00000000
00000100
00000000
,
00000001
00000000
00000100
00001000
00010000
00000000
00001000
00000000
,
00011000
00100000
01000000
10000000
,
00100000
00020000
00030000
00001000
,
00000100
00000000
00000001
00001000
00000001
00001000
00000000
00000000
,
00000000
00000000
00000000
00001000
00010000
00001000
00000000
00000000
,
00011000
00000100
00000010
00000001
,
00000100
00002000
00003000
00010000
,
00100000
00000000
20000000
00000000
00000000
30010000
00000000
00010000
,
00001000
00010000
00000000
00022000
00000000
00000000
00000000
00000000
,
00033000
00000000
00000000
00000000
;

//---------------dance-double - ----------------
#NOTEDATA:;
#CHARTNAME:;
#STEPSTYPE:dance-double;
#DESCRIPTION:;
#CHARTSTYLE:;
#DIFFICULTY:Hard;
#METER:9;
#RADARVALUES:0.331592,0.363942,0.177927,0.291154,0.109183,287.000000,265.000000,22.000000,36.000000,0.000000,0.000000,0.000000,0.000000,0.000000,0.331592,0.363942,0.177927,0.291154,0.109183,287.000000,265.000000,22.000000,36.000000,0.000000,0.000000,0.000000,0.000000,0.000000;
#CREDIT:MILEN;
#DISPLAYBPM:120.000000;
#NOTES:
00000000
00000000
00000000
00000000
,
00000000
00000000
00000000
00000000
,
00000000
00000000
00000000
00000000
,
00000000
00000000
00000000
00000000
,
00000000
00000000
00010000
00001000
00022000
00000000
00033000
00000000
,
00010000
00001000
00100000
01000000
,
00100000
00000000
00001000
00010000
00022000
00000000
00033000
00000000
,
00001000
00010000
00000100
00000010
,
00000100
00000000
00010000
00001000
00022000
00000000
00033000
00000000
,
00010000
00001000
00100000
01000000
,
10000000
00000000
00000000
00000000
00100000
00000000
00000000
00010000
00000000
00000000
00022000
00000000
00000000
00000000
00000000
00000000
,
00033000
00000000
00000010
00000000
00000010
00000000
00000000
00001000
00000000
00000000
00022000
00000000
00000000
00000000
00000000
00000000
,
00033000
00000000
00010000
00001000
00010000
00000000
00100000
00000000
,
10000000
00000000
01000000
00100000
01000000
00000000
10000000
00000000
,
00100000
00000000
00010000
00001000
00010000
00000000
00000100
00000000
,
00000010
00000000
00000001
00000100
00000001
00000000
00000010
00000000
,
00000100
00000000
00010000
00001000
00000100
00000000
00000001
00000000
,
00000010
00000000
00001000
00010000
01000000
00000000
10000000
00000000
,
00100000
00000000
00000000
00000000
01000000
00000000
00000000
00001000
00000000
00000000
00022000
00000000
00000000
00000000
00000000
00000000
,
00033000
00000000
00000100
00000000
00000100
00000000
00000000
00010000
00000000
00000000
00022000
00000000
00000000
00000000
00033000
00000000
,
00001000
00000000
00010000
00000000
01000000
00000000
00000000
01000000
00000000
00000000
10000000
00000000
00000000
10000000
00000000
00000000
,
00200000
00000000
02300000
00000000
00000000
00000000
03010000
00100000
,
00001000
00010000
00022000
00000000
00000000
00000000
00000000
00000000
,
00000000
00000000
00000000
00033000
,
00010000
00000000
00001000
00000000
00000100
00000000
00000000
00000100
00000000
00000000
00000001
00000000
00000000
00000001
00000000
00000000
,
00000020
00000000
00000230
00000000
00000000
00000000
00001300
00000010
,
00010000
00001000
00022000
00000000
00000000
00000000
00000000
00000000
,
00000000
00000000
00000000
00033000
,
00010000
00000000
00001000
00000000
00010000
00000000
00000000
01000000
00000000
00000000
10000000
00000000
00000000
00000000
00100000
00000000
,
00000000
00000000
01000000
00000000
00100000
00000000
00000000
01000000
00000000
00000000
00010000
00000000
00000000
00000000
00100000
00000000
,
00000000
00000000
00001000
00000000
00010000
00000000
00000000
00000100
00000000
00000000
00001000
00000000
00000000
00000000
00000001
00000000
,
00000000
00000000
00000010
00000000
00000100
00000000
00000000
00001000
00000000
00000000
00000010
00000000
00000000
00000000
00010000
00000000
,
00000000
00000000
00001000
00000000
00100000
00000000
00000000
01000000
00000000
00000000
10000000
00000000
00000000
00000000
00100000
00000000
,
01000000
00000000
00010000
00000000
01000000
00000000
00000000
00001000
00000000
00000000
00010000
00000000
00000000
00000000
00000100
00000000
,
00001000
00000000
00000100
00000000
00000010
00000000
00000000
00000001
00000000
00000000
00000100
00000000
00000000
00000000
00001000
00000000
,
00010000
00000010
00010000
00001000
00100000
00001000
00010000
00000000
,
00011000
00000000
00000000
00000000
00001000
00000000
00000000
00010000
01000000
00000000
00000000
00000000
10000000
00000000
00000000
01000000
,
00010000
00000000
00000000
00000000
00001000
00000000
00000000
00010000
01000000
00000000
00000000
00000000
10000000
00000000
00000000
01000000
,
00010000
00000000
00001000
00010000
00011000
00000000
00000100
00000000
,
00000010
00000000
00001000
00010000
00011000
00000000
00100000
00000000
,
01000000
00000000
00000000
00000000
00010000
00000000
00000000
00001000
00000100
00000000
00000000
00000000
00000001
00000000
00000000
00000100
,
00001000
00000000
00000000
00000000
00010000
00000000
00000000
00001000
00000100
00000000
00000000
00000000
00000001
00000000
00000000
00000100
,
00001000
00000000
00010000
00001000
00011000
00000000
00100000
00000000
,
01000000
00000000
00010000
00001000
00011000
00000000
00000100
00000000
,
00000010
00000000
00001000
00010000
00200000
00000000
00310000
00001000
,
00000020
00000000
00001030
00010000
02000000
00000000
03010000
00001000
,
00000200
00000000
00000301
00000010
00000011
00000000
00000001
00000000
,
00000100
00000000
00001000
00010000
00010100
00000000
00000100
00000000
,
00001000
00000000
00000010
00010000
00002000
00000000
00103000
00001000
,
00020000
00000000
00030100
00010000
00002000
00000000
01003000
00001000
,
00020000
00000000
00130000
10000000
11000000
00000000
01000000
00000000
,
00100000
00000000
00001000
00010000
00010010
00000000
00000010
00000000
,
00000100
00000000
00000100
00000000
00000001
00000000
00000000
00001000
00000000
00000000
00000100
00000000
00000000
00000010
00000000
00000000
,
00002000
00000000
00023000
00000000
00000000
00000000
00130000
10000000
,
01000000
00100000
00010000
01000000
00001000
00011000
00000000
00000000
,
00000000
00000000
00000000
00000100
00010000
00011000
00000000
00000000
,
00100000
00000000
00100000
00000000
01000000
00000000
00000000
00010000
00000000
00000000
00100000
00000000
00000000
01000000
00000000
00000000
,
00020000
00000000
00032000
00000000
00000000
00000000
00003100
00000001
,
00000010
00000100
00001100
00000000
00000000
00001000
00000010
00010000
,
00001000
01000000
00000000
20020000
00000000
00000000
00000000
00000000
,
30030000
00000000
00000000
00000000
;

//---------------dance-double - ----------------
#NOTEDATA:;
#CHARTNAME:;
#STEPSTYPE:dance-double;
#DESCRIPTION:;
#CHARTSTYLE:;
#DIFFICULTY:Challenge;
#METER:13;
#RADARVALUES:0.491033,0.533782,0.315417,0.234541,0.602527,425.000000,386.000000,39.000000,29.000000,0.000000,0.000000,0.000000,0.000000,0.000000,0.491033,0.533782,0.315417,0.234541,0.602527,425.000000,386.000000,39.000000,29.000000,0.000000,0.000000,0.000000,0.000000,0.000000;
#CREDIT:MILEN;
#DISPLAYBPM:120.000000;
#NOTES:
// measure 0
00000000
00000000
00000000
00000000
,  // measure 1
00000000
00000000
00000000
00000000
,  // measure 2
00000000
00000000
00000000
00000000
,  // measure 3
00000000
00000000
00000000
00000000
,  // measure 4
00000000
00000000
00000000
00000000
00011000
00000000
00010000
00002000
00000000
00000000
00000000
00000000
00000000
00000000
00103000
00000000
,  // measure 5
00100000
01000000
00000000
10000000
00000000
00100000
00000000
00010000
00000000
00100000
00000000
01000000
00000000
00010000
00000000
00100000
,  // measure 6
00000000
01000000
00000000
00000000
00011000
00000000
00001000
00020000
00000000
00000000
00000000
00000000
00000000
00000000
00030100
00000000
,  // measure 7
00000100
00000010
00000000
00000001
00000000
00000100
00000000
00001000
00000000
00000100
00000000
00000010
00000000
00001000
00000000
00000100
,  // measure 8
00000000
00000010
00000000
00000000
00011000
00000000
00001000
00020000
00000000
00000000
00000000
00000000
00000000
00000000
01030000
00000000
,  // measure 9
01000000
10000000
00000000
00100000
00000000
00010000
00000000
00001000
00000000
00000100
00000000
00000001
00000000
00000010
00000000
00001000
,  // measure 10
00000000
00010000
00000000
00000000
00010100
00000000
00000000
01001000
00000000
00000000
00020020
00000000
00000000
00000000
00000030
00000000
,  // measure 11
00000000
00000000
00031000
00000000
00011000
00000000
00000000
01001000
00000000
00000000
00020200
00000000
00000000
00000000
00030000
00000000
,  // measure 12
00000000
00000000
00000310
00000000
00000011
00000000
00000001
00000100
00000001
00000000
00000010
00000000
00001000
00000000
00010000
00000000
,  // measure 13
00100000
10000000
00000000
01000000
00000000
00100000
00000000
01000000
00000000
00010000
00000000
00001000
00000000
00000010
00000000
00000100
,  // measure 14
00000000
00001000
00000000
00000000
00011000
00000000
00010000
00000100
00010000
00000000
00001000
00000000
00000100
00000000
00000001
00000000
,  // measure 15
00000010
00001000
00000000
00010000
00000000
00001000
00000000
00100000
00000000
01000000
00000000
00100000
00000000
00010000
00000000
10000000
,  // measure 16
00000000
00100000
00000000
00000000
01100000
00000000
00100000
10000000
00100000
00000000
00010000
00000000
00001000
00000000
00100000
00000000
,  // measure 17
01000000
00010000
00000000
00001000
00000000
00010000
00000000
00000100
00000000
00000010
00000000
00000001
00000000
00000100
00000000
00001000
,  // measure 18
00000000
00010000
00000000
00000000
00010010
00000000
00000000
00101000
00000000
00000000
00020200
00000000
00000000
00030000
00000000
00000000
,  // measure 19
00000000
00000000
00001300
00000000
00001010
00000000
00000000
00010100
00000000
00000000
02002000
00000000
00000000
00000000
03003000
00000000
,  // measure 20
01010000
00000000
00010000
00000000
10000000
00000000
00000000
00100000
00000000
00000000
00010000
00000000
00000000
00001000
00000000
00000000
,  // measure 21
00000200
00000000
00000000
00000000
00000002
00000000
00000000
00000000
00000300
00000000
00000000
00000000
00000013
00000100
00000000
00010000
,  // measure 22
00000000
00001000
00000000
00022000
00000000
00000000
00000000
00000000
00000000
00000000
00000000
00000000
00000000
00000000
00000000
00000000
,  // measure 23
00000000
00000000
00000000
00000000
00000000
00000000
00000000
00033000
,  // measure 24
00011000
00000000
00010000
00000000
01000000
00000000
00000000
10000000
00000000
00000000
00100000
00000000
00000000
01000000
00000000
00000000
,  // measure 25
00002000
00000000
00000000
00000000
00020000
00000000
00000000
00000000
00003000
00000000
00000000
00000000
00030100
00001000
00000000
00000001
,  // measure 26
00000000
00000100
00000000
00000220
00000000
00000000
00000000
00000000
00000000
00000000
00000000
00000000
00000000
00000000
00000000
00000000
,  // measure 27
00000000
00000000
00000000
00000000
00000000
00000000
00000000
00000330
,  // measure 28
00000110
00000000
00000100
00000000
00000001
00000000
00001000
00000100
00000000
00000100
00010000
00000000
00010000
00001000
00000000
00001000
,  // measure 29
00100000
00000000
01000000
00000000
10000000
00000000
00100000
01000000
00000000
01000000
00001000
00000000
00001000
00010000
00000000
00010000
,  // measure 30
00000100
00000000
00000010
00000000
00000001
00000000
00001000
00000010
00000000
00000010
00010000
00000000
00001000
00000000
00000100
00000000
,  // measure 31
00000010
00000000
00001010
00000000
00001000
00000000
00000100
00010000
00000000
00010000
00001000
00000000
00100000
00000000
01000000
00000000
,  // measure 32
11000000
00000000
10000000
00000000
00100000
00000000
01000000
00010000
00000000
00010000
00100000
00000000
00100000
01000000
00000000
01000000
,  // measure 33
00010000
00000000
00001000
00000000
00000010
00000000
00000001
00000100
00000000
00000100
00001000
00000000
00001000
00010000
00000000
00010000
,  // measure 34
00100000
00000000
10000000
00000000
01000000
00000000
00100000
10000000
00000000
10000000
00100000
00000000
00001000
00000000
00010000
00000000
,  // measure 35
00000100
00000000
00001100
00000000
00001000
00000000
00000010
00000001
00000000
00000001
00000010
00000000
00010000
00000000
00001000
00000000
,  // measure 36
00022000
00000000
00033000
00000000
00011000
00000000
00010000
01000000
00010000
00000000
01000000
00000000
10000000
00100000
00000000
00000000
,  // measure 37
00010000
01000000
00000000
00000000
10000000
00000000
00100000
00010000
00100000
00000000
00010000
00000000
00001000
00100000
00000000
00000000
,  // measure 38
00010000
00000010
00000000
00000000
00001000
00000000
00010000
01000000
00010000
00000000
00001000
00000000
00000100
00000000
00000001
00000000
,  // measure 39
00000010
00000000
00000100
00000000
00001000
00000000
00000010
00000100
00000010
00000000
00010000
00000000
00001000
00000000
00100000
00000000
,  // measure 40
01000000
00000000
10000000
00000000
10100000
00000000
00100000
01000000
00100000
00000000
00010000
00000000
00001000
00000100
00000000
00000000
,  // measure 41
00000001
00000010
00000000
00000000
00000100
00000000
00000010
00000001
00000010
00000000
00001000
00000000
00010000
00000100
00000000
00000000
,  // measure 42
00001000
01000000
00000000
00000000
00010000
00000000
00001000
00000100
00001000
00000000
00010000
00000000
00100000
00000000
10000000
00000000
,  // measure 43
01000000
00000000
00100000
00000000
00010000
00000000
01000000
00100000
01000000
00000000
00001000
00000000
00010000
00000000
00000100
00000000
,  // measure 44
00010100
00000000
00000000
00000000
01001000
00000000
00000000
00001000
00100000
00000000
00000000
00010000
01000000
00000000
00000000
00100000
,  // measure 45
10000000
00000000
00000000
01000000
00100000
00000000
00000000
00010000
01000000
00000000
00000000
00001000
00010000
00000000
00000000
00000100
,  // measure 46
00000010
00000000
00000000
00000001
00000100
00000000
00000010
00001000
00000010
00000000
00010000
00000000
00001000
00000000
00000100
00000000
,  // measure 47
00010000
00000000
01000000
00000000
00100000
00000000
10000000
01000000
10000000
00000000
00100000
00000000
00010000
00000000
00001000
00000000
,  // measure 48
00101000
00000000
00000000
00000000
00010010
00000000
00000000
00010000
00001000
00000000
00000000
00000100
00000010
00000000
00000000
00001000
,  // measure 49
00000001
00000000
00000000
00000100
00001000
00000000
00000000
00010000
00100000
00000000
00000000
10000000
00010000
00000000
00000000
01000000
,  // measure 50
00100000
00000000
00000000
00010000
01000000
00000000
00001000
00010000
00001000
00000000
00000100
00000000
00000001
00000000
00000010
00000000
,  // measure 51
00000100
00000000
00000001
00000000
00000100
00000000
00010000
00001000
00010000
00000000
01000000
00000000
10000000
00000000
00100000
00000000
,  // measure 52
01100000
00000000
10000000
00000000
01000000
00000000
00000000
00100000
00000000
00000000
00010000
00000000
00000000
00001000
00000000
00000000
,  // measure 53
00000200
00000000
00000000
00000000
00000002
00000000
00000000
00000000
00000300
00000000
00000000
00000000
00000103
00000010
00000000
00000001
,  // measure 54
00000000
00000100
00000000
00002000
00000000
00000000
00013000
00000000
00000100
00000000
00010100
00000000
00000000
00000000
00000000
00000000
,  // measure 55
00000000
00000000
00000000
00001000
01000000
01001000
00000000
00000000
,  // measure 56
00011000
00000000
00000100
00000000
00000010
00000000
00000000
00000001
00000000
00000000
00001000
00000000
00000000
00010000
00000000
00000000
,  // measure 57
20000000
00000000
00000000
00000000
00200000
00000000
00000000
00000000
30000000
00000000
00000000
01300000
00010000
00100000
00000000
01000000
,  // measure 58
00000000
00010000
00000000
00002000
00000000
00000000
00000000
00000000
00000000
00000000
00003010
00000000
00000001
00000000
00000100
00000000
,  // measure 59
00001000
00011000
00000000
20020000
00000000
00000000
00000000
00000000
,  // measure 60
30030000
00000000
00000000
00000000
;
