#TITLE:Blue Voyage;
#SUBTITLE:;
#ARTIST:LUCY;
#TITLETRANSLIT:;
#SUBTITLETRANSLIT:;
#ARTISTTRANSLIT:;
#GENRE:K-POP;
#CREDIT:MUINELIM;
#BANNER:Blue Voyage.png;
#BACKGROUND:Blue Voyage-bg.png;
#LYRICSPATH:;
#CDTITLE:;
#MUSIC:Blue Voyage.ogg;
#OFFSET:0.089000;
#SAMPLESTART:47.183727;
#SAMPLELENGTH:13.030907;
#SELECTABLE:YES;
#DISPLAYBPM:164:165;
#BPMS:0.000000=165,192.500000=164,207.500000=165
;
#STOPS:126.000000=0.545,255.000000=0.182
;
#BGCHANGES:;
#KEYSOUNDS:;
#ATTACKS:;

//---------------dance-single - ----------------
#NOTES:
     dance-single:
     :
     Hard:
     12:
     0.557658,0.601841,0.459739,0.250767,0.000000,467.000000,412.000000,55.000000,30.000000,0.000000,0.000000,0.557658,0.601841,0.459739,0.250767,0.000000,467.000000,412.000000,55.000000,30.000000,0.000000,0.000000:
0000
0000
0000
0000
,
0000
0000
0000
0000
,
0000
0000
0000
0000
,
0000
0000
0000
0000
,
0000
0000
0000
0000
1000
0100
0010
0001
,
0000
0110
0000
0000
0001
0010
0100
1000
,
0000
0110
0000
0000
1000
0010
0100
0001
,
0000
0110
0000
0000
0001
0100
0010
1000
,
0010
0100
0101
0000
1001
0000
1000
0100
,
0010
0100
1000
0000
0001
0000
0100
0010
,
1000
0010
0100
0001
1000
0000
0100
1000
,
0001
0100
0010
1000
0100
0000
0001
0010
,
0000
1000
1100
0000
1001
0000
0001
0100
,
0010
0100
0001
0000
1000
0000
0100
0010
,
0001
0010
0100
0010
0001
0100
0010
1000
,
0001
0000
0010
0001
1000
0200
0000
0000
,
0310
0000
0010
0100
1000
0001
0010
0100
,
1000
0000
0100
0010
0001
1000
0100
0110
,
0000
0000
0001
0100
0010
1000
0001
0100
,
0010
0000
1000
0010
0100
0001
1001
0000
,
0110
0000
0010
1000
0100
0000
0010
0001
,
0100
0000
0010
1000
0001
0000
0100
0001
,
1000
0000
0110
0000
0010
1000
0010
0100
,
0001
0100
0010
2000
0000
3002
0000
0100
,
0103
0000
0100
0010
1000
0001
0010
0100
,
0000
0001
0100
1000
0000
0100
0010
0001
,
1000
0010
0100
0001
0000
1000
0100
0001
,
0000
0100
0010
0001
0200
0000
0320
0000
,
2030
3002
0103
0000
,
1100
0000
0010
0000
,
0011
0000
0000
0000
0100
0010
2000
0002
,
0000
0000
3003
0000
1001
0000
0010
0010
,
0000
1100
0000
0101
0000
1100
0000
1000
,
0100
0010
0000
0001
0100
0000
1000
0010
,
0000
0001
0100
0010
1000
0001
0100
0000
,
0110
0000
1000
0100
0100
0001
0010
0100
,
0000
0011
0000
1010
0000
0011
0000
0001
,
0010
0100
0000
1000
0010
0000
0001
0100
,
0000
1000
0010
0010
0001
0100
0000
1000
,
0010
0000
0100
0001
1000
0010
0100
0001
,
1000
1200
0000
0010
0300
1000
0100
0010
,
0000
0021
0000
0100
0000
0030
0001
0100
,
0000
0102
0000
1000
0003
0100
0010
1000
,
0000
0001
0010
0100
1000
0001
0010
0100
,
0000
0120
0000
0001
0030
0100
1000
0010
,
0000
0210
0000
1000
0000
0300
0001
0010
,
0000
0011
0000
1000
0010
0000
1100
0000
,
1000
0010
0100
0001
0010
1000
0010
0100
,
1000
0002
0000
0000
0000
0000
0000
0100
,
0103
0010
1000
0200
,
0000
0320
0000
0001
0031
0000
1000
0000
,
2020
0000
0000
0000
0000
3030
0000
0010
,
0100
0001
1000
0100
0010
0001
0000
0000
,
0000
1000
0001
0010
0100
1000
0000
0000
,
0000
0001
1000
0100
0010
0001
0100
0000
,
1000
1010
0000
0011
0000
0101
0000
1100
,
0000
2002
0000
0000
3003
0110
0000
0000
,
0000
1010
0000
0101
0000
1001
0000
0000
,
0000
0220
0000
0000
0330
1001
0000
0000
,
0000
0011
0000
1100
0000
0110
0000
0000
,
0000
0001
0000
0001
0000
0010
0000
0010
,
0000
1000
0000
1000
0000
0100
0000
0100
,
0000
0001
0010
0100
0001
1000
0010
0100
,
1000
0010
0000
0001
0100
0000
1001
0000
,
1000
0010
0100
0001
0100
0010
1000
0001
,
0010
0100
0010
0100
1000
0001
0100
0000
,
0010
1000
0010
0100
0001
0100
0010
1000
,
0100
0001
0100
1000
0100
0010
0001
0000
,
1000
0010
0100
1000
0100
0001
1000
0010
,
0001
0010
0100
0101
0000
0011
0000
1100
,
1000
0010
0001
0010
0100
1000
0100
0001
,
0010
0100
1000
0010
0010
0001
1000
0000
,
1020
0000
0001
0030
0100
0001
0010
0000
,
0210
0000
0001
0000
0300
1000
0010
0000
,
0210
0000
1000
0300
0001
0010
0100
0000
,
1000
0010
0001
1000
0100
0001
0010
0000
,
0210
0000
0001
0300
1000
0010
0001
0000
,
0021
0000
0100
0000
0030
1000
0100
0000
,
0001
0010
0010
1000
0100
0100
0001
0010
,
0110
0000
1000
1010
0000
0202
0000
0000
,
0303
0000
0000
0000
;

//---------------dance-double - ----------------
#NOTES:
     dance-double:
     :
     Hard:
     12:
     0.519446,0.568405,0.292561,0.275844,0.000000,435.000000,400.000000,35.000000,33.000000,0.000000,0.000000,0.519446,0.568405,0.292561,0.275844,0.000000,435.000000,400.000000,35.000000,33.000000,0.000000,0.000000:
00000000
00000000
00000000
00000000
,
00000000
00000000
00000000
00000000
,
00000000
00000000
00000000
00000000
,
00000000
00000000
00000000
00000000
,
00000000
00000000
00000000
00000000
00001000
00010000
00100000
01000000
,
00000000
00001000
00000000
00000000
00010000
00001000
00000100
00000010
,
00000000
00010000
00000000
00000000
00001000
00100000
00010000
01000000
,
00000000
00001000
00000000
00000000
00010000
00000100
00001000
00000010
,
00010000
00001000
00100000
00000000
01100000
00000000
10000000
00100000
,
00010000
00000000
00001000
00000000
00010000
00000000
00100000
10000000
,
01000000
00100000
00010000
01000000
00100000
00000000
01000000
00010000
,
00100000
00001000
00010000
00001000
00100000
00000000
00010000
01000000
,
00000000
00001000
00000100
00000000
00000110
00000000
00000001
00000010
,
00001000
00000000
00010000
00000000
00001000
00000000
00000010
00000001
,
00000100
00000010
00001000
00000100
00000010
00000001
00001000
00000010
,
00010000
00000000
00100000
00010000
00001000
00200000
00000000
00000000
,
01300000
00000000
10000000
01000000
00100000
00010000
10000000
01000000
,
00100000
00000000
00010000
01000000
00001000
00010000
00000100
00000010
,
00000000
00000000
00000001
00000010
00000100
00001000
00000001
00000010
,
00000100
00000000
00010000
00001000
00100000
01000000
10000000
00000000
,
10100000
00000000
00100000
00010000
00001000
00000000
00000010
00001000
,
00010000
00000000
01000000
00010000
00001000
00000000
00000100
00001000
,
00010000
00000000
00011000
00000000
00001000
01000000
00001000
00010000
,
00000100
00010000
00001000
00200000
00000000
02300000
00000000
10000000
,
13000000
00000000
10000000
00100000
00010000
00001000
00000100
00000001
,
00000000
00000010
00000100
00000001
00000000
00000100
00000010
00000001
,
00000100
00001000
00010000
01000000
00000000
10000000
00100000
01000000
,
00000000
10000000
01000000
00010000
00200000
00000000
02300000
00000000
,
03020000
00032000
00003010
00000000
,
00000011
00000000
00000100
00000000
,
00001100
00000000
00000000
00000000
00010000
00001000
00020000
00002000
,
00000000
00000000
00033000
00000000
00011000
00000000
01000000
01000000
,
00000000
01010000
00000000
10000000
00000000
10100000
00000000
00010000
,
00100000
01000000
00000000
00010000
00001000
00000000
00000010
00000100
,
00000000
00001000
00000100
00000010
00000001
00001000
00000100
00000000
,
00000101
00000000
00000001
00000010
00001000
00010000
00000100
00001000
,
00000000
00001010
00000000
00000001
00000000
00000101
00000000
00001000
,
00000100
00000010
00000000
00001000
00010000
00000000
01000000
00100000
,
00000000
00010000
00100000
01000000
10000000
00100000
00000000
00010000
,
00001000
00000000
00000100
00000001
00000010
00000100
00001000
00000010
,
00010000
00012000
00000000
00103000
00000000
00100000
00010000
01000000
,
00000000
01200000
00000000
10300000
00000000
00000000
10000000
01000000
,
00000000
01020000
00000000
00031000
00000000
00001000
00000100
00000010
,
00000000
00000100
00000001
00000100
00000010
00001000
00000010
00000100
,
00000000
00000102
00000000
00000013
00000000
00000010
00000100
00001000
,
00000000
00001020
00000000
00010030
00000000
00000000
00010000
00001000
,
00000000
00011000
00000000
00100000
00010000
00000000
10010000
00000000
,
10000000
00100000
01000000
00010000
00100000
00001000
00010000
00000100
,
00001000
00000002
00000000
00000000
00000000
00000000
00000000
00000010
,
00000013
00001000
00010000
00200000
,
00000000
20300000
00000000
01000000
31000000
00000000
00010000
00000000
,
00022000
00000000
00000000
00000000
00000000
00033000
00000000
00001000
,
00000000
00000100
00000000
00000001
00000000
00000010
00000000
00000000
,
00000000
00001000
00000000
00010000
00000000
01000000
00000000
00000000
,
00000000
10000000
00000000
00100000
00000000
00010000
00000000
00001000
,
00000000
01001000
00000000
00010000
00000000
00010100
00000000
00001000
,
00000000
00022000
00000000
00030000
00000000
01003000
00000000
00000000
,
00000000
00010010
00000000
00001000
00000000
00101000
00000000
00000000
,
00000000
00022000
00000000
00003000
00000000
00030010
00000000
00000000
,
00000000
00101000
00000000
00010000
00000000
00010010
00000000
00000000
,
00000000
00001000
00000000
00001000
00000000
00010000
00000000
00010000
,
00000000
01000000
00000000
01000000
00000000
10000000
00000000
10000000
,
00000000
00100000
00010000
00001000
00000100
00000001
00000010
00000100
,
00001000
00000010
00000000
00010000
00001000
00000000
00011000
00000000
,
00010000
00001000
00100000
00010000
01000000
00100000
10000000
00010000
,
00100000
01000000
00010000
00001000
00000010
00000001
00001000
00000000
,
00000010
00010000
00001000
00100000
00010000
01000000
00001000
00010000
,
00100000
10000000
01000000
00010000
00001000
00000010
00000100
00000000
,
00001000
00000010
00010000
00001000
00100000
01000000
10000000
00100000
,
00010000
00001000
00100000
02000000
00000000
03020000
00000000
00031000
,
00001000
00000100
00000001
00000010
00000100
00000000
00001000
00000010
,
00000000
00010000
00100000
10000000
01000000
00100000
00010000
00000000
,
12000000
00000000
03010000
00000000
00001000
00010000
00000100
00000000
,
00002100
00000000
00003001
00000000
00000000
00000100
00000010
00000000
,
00001020
00000000
00010030
00000000
00001000
00010000
00100000
00000000
,
10000000
01000000
00100000
00001000
00010000
00000100
00000010
00000000
,
00000012
00000000
00000103
00000000
00000010
00010000
00001000
00000000
,
00021000
00000000
00100000
00000000
00030000
00001000
01000000
00000000
,
00100000
10000000
01000000
00100000
00001000
00010000
00000100
00000010
,
00000002
00000000
00000103
00001000
00000000
00022000
00000000
00000000
,
00033000
00000000
00000000
00000000
;

//---------------dance-single - ----------------
#NOTES:
     dance-single:
     :
     Beginner:
     3:
     0.112248,0.200614,0.025077,0.008359,0.000000,94.000000,91.000000,3.000000,1.000000,0.000000,0.000000,0.112248,0.200614,0.025077,0.008359,0.000000,94.000000,91.000000,3.000000,1.000000,0.000000,0.000000:
0000
0000
0000
0000
,
0000
0000
0000
0000
,
0000
0000
0000
0000
,
0000
0000
0000
0000
,
0000
0000
0100
0000
,
0000
0000
0100
0000
,
0000
0000
0100
0000
,
0000
0000
0100
0000
,
0000
0100
0100
0000
,
0000
0001
0000
0000
,
0000
0000
0100
0000
,
0001
0000
1000
0000
,
0000
0010
0010
0000
,
0000
1000
0000
0000
,
0000
0000
0010
0000
,
1000
0000
0001
0000
,
0000
0000
0100
0000
,
0000
0000
0010
0000
,
0000
0000
1000
0000
,
0000
0000
0001
0000
,
0000
0000
0100
0000
,
0000
0000
0100
0000
,
0000
0000
0010
0000
,
0000
0000
0010
0000
,
0000
0000
1000
0000
,
0000
0000
1000
0000
,
0000
0000
0001
0000
,
0000
0000
0001
0000
,
0000
0000
1001
0000
,
0000
0000
0000
0000
,
0000
0000
0100
0000
,
0000
0000
0010
0000
,
0000
1000
0000
0000
0000
1000
0000
0000
,
0000
1000
0000
0000
0000
0000
0000
0000
,
0000
0001
0000
0000
0000
0001
0000
0000
,
0000
0001
0000
0000
0000
0000
0000
0000
,
0000
1000
0000
0000
0000
1000
0000
0000
,
0000
1000
0000
0000
0000
0000
0000
0000
,
0000
0001
0000
0000
0000
0001
0000
0000
,
0000
0001
0000
0000
0000
0100
0000
0000
,
0000
1000
0000
0000
0000
0000
0000
0000
,
0000
0000
0000
0000
,
0000
0010
0000
0000
0000
0000
0000
0000
,
0000
0000
0000
0000
,
0000
0001
0000
0000
0000
0000
0000
0000
,
0000
0000
0000
0000
,
0000
0100
0000
0000
0000
0100
0000
0000
,
0000
0100
0000
0000
0000
0000
0000
0000
,
0000
0110
0000
0000
0000
0000
0000
0000
,
0000
0000
0000
0000
,
0000
0000
0000
0000
,
0000
0000
0000
0000
,
0000
0001
0000
0000
0000
0000
0000
0000
,
0000
1000
0000
0000
0000
0000
0000
0000
,
0000
0001
0000
0000
0000
1000
0000
0000
,
0000
0001
0000
0000
0000
0001
0000
0000
,
0000
0001
0000
0000
0000
0000
0000
0000
,
0000
0100
0000
0000
0000
0000
0000
0000
,
0000
1000
0000
0000
0000
0000
0000
0000
,
0000
0010
0000
0000
0000
0000
0000
0000
,
0000
0001
0000
0000
0000
0100
0000
0000
,
0000
1000
0000
0000
0000
0010
0000
0000
,
0000
0001
0000
0000
0000
1000
0000
0000
,
0000
1001
0000
0000
0000
0000
0000
0000
,
0001
0000
0001
0000
,
0001
0000
0000
0000
,
1000
0000
1000
0000
,
1000
0000
0000
0000
,
0001
0000
0001
0000
,
0001
0000
0000
0000
,
1000
0000
1000
0000
,
1000
0000
0100
0000
,
0001
0000
0000
0000
,
0010
0000
0000
0000
,
1000
0000
0000
0000
,
0100
0000
0000
0000
,
0001
0000
0000
0000
,
0010
0000
0000
0000
,
1000
0000
0000
0000
,
0100
0100
0200
0000
,
0300
0000
0000
0000
;

//---------------dance-single - ----------------
#NOTES:
     dance-single:
     :
     Easy:
     6:
     0.241214,0.333311,0.117025,0.041794,0.000000,202.000000,188.000000,14.000000,5.000000,0.000000,0.000000,0.241214,0.333311,0.117025,0.041794,0.000000,202.000000,188.000000,14.000000,5.000000,0.000000,0.000000:
// measure 0
0000
0000
0000
0000
,  // measure 1
0000
0000
0000
0000
,  // measure 2
0000
0000
0000
0000
,  // measure 3
0000
0000
0000
0000
,  // measure 4
0000
0000
1000
0000
,  // measure 5
0000
0000
0100
0000
,  // measure 6
0000
0000
0001
0000
,  // measure 7
0000
0000
0010
0000
,  // measure 8
0000
1000
1000
0000
,  // measure 9
0001
0000
0100
0000
,  // measure 10
0001
0000
1000
0000
,  // measure 11
0010
0000
1000
0000
,  // measure 12
0000
0001
0001
0000
,  // measure 13
0010
0000
0001
0000
,  // measure 14
1000
0000
0100
0000
,  // measure 15
1000
0000
0001
0000
,  // measure 16
0000
0100
0100
0010
,  // measure 17
0100
0000
0010
0100
,  // measure 18
0010
0000
1000
0001
,  // measure 19
1000
0000
0001
1000
,  // measure 20
0001
0000
0101
0000
,  // measure 21
1010
0000
1100
0000
,  // measure 22
0011
0000
0001
0100
,  // measure 23
0010
0000
1000
0010
,  // measure 24
0100
0000
0010
0000
,  // measure 25
1000
0000
0001
0000
,  // measure 26
0100
0000
0010
0000
,  // measure 27
1000
0000
0001
0000
,  // measure 28
0100
0000
0020
0000
,  // measure 29
0000
0030
0100
0010
,  // measure 30
0100
0000
0010
0010
,  // measure 31
0000
0000
0000
0000
1001
0000
0000
1001
,  // measure 32
0000
1000
0000
0010
0000
1000
0000
0000
,  // measure 33
0000
0001
0000
0100
0000
0001
0000
0000
,  // measure 34
0000
1000
0000
0010
0000
1000
0000
0001
,  // measure 35
0000
0100
0000
0001
0000
1000
0000
0000
,  // measure 36
0000
0001
0000
0010
0000
0001
0000
0000
,  // measure 37
0000
1000
0000
0100
0000
1000
0000
0000
,  // measure 38
0000
0001
0000
0010
0000
0001
0000
1000
,  // measure 39
0000
0100
0000
1000
0000
0001
0000
0000
,  // measure 40
0000
1000
0000
0000
0000
0010
0000
0000
,  // measure 41
0000
0001
0000
0000
0000
0100
0000
1000
,  // measure 42
0000
0010
0000
0000
0000
0001
0000
0000
,  // measure 43
0000
0100
0000
0000
0000
1000
0000
0010
,  // measure 44
0000
0001
0000
0000
0000
0100
0000
0000
,  // measure 45
0000
1000
0000
0000
0000
0010
0000
0001
,  // measure 46
0000
0100
0000
0000
0000
1000
0000
0000
,  // measure 47
0000
0010
0000
0000
0000
0001
0000
0100
,  // measure 48
0000
2000
0000
0000
0000
0000
0000
3000
,  // measure 49
0000
0002
0000
0000
0000
0000
0000
0003
,  // measure 50
0000
0200
0000
0000
0000
0000
0000
0300
,  // measure 51
0000
0020
0000
0000
0000
0000
0000
0030
,  // measure 52
0000
0100
0000
0010
0000
1000
0000
0000
,  // measure 53
0000
0010
0000
0100
0000
0001
0000
0000
,  // measure 54
0000
0100
0000
0010
0000
1000
0000
0001
,  // measure 55
0000
0100
0000
0100
0000
0100
0000
0100
,  // measure 56
0000
1001
0000
0000
0000
1000
0000
0000
,  // measure 57
0000
1001
0000
0000
0000
0001
0000
0000
,  // measure 58
0000
1001
0000
0000
0000
1000
0000
0000
,  // measure 59
0000
1001
0000
0000
0000
0001
0000
0000
,  // measure 60
0000
0100
0000
0000
0000
0110
0000
0000
,  // measure 61
0000
0010
0000
0000
0000
0110
0000
0000
,  // measure 62
0000
0100
0000
0100
0000
0010
0000
0010
,  // measure 63
0000
0100
0000
0000
0100
0000
0100
0000
,  // measure 64
0001
0010
0100
0000
,  // measure 65
1000
0100
0010
0000
,  // measure 66
0001
0010
0100
1000
,  // measure 67
0001
1000
0001
0000
,  // measure 68
1000
0010
0100
0000
,  // measure 69
0001
0100
0010
0000
,  // measure 70
1000
0010
0100
0001
,  // measure 71
1000
0001
1000
0000
,  // measure 72
0001
0000
0010
0000
,  // measure 73
1000
0000
0100
0001
,  // measure 74
0010
0000
1000
0000
,  // measure 75
0100
0000
0001
0010
,  // measure 76
1000
0000
0100
0000
,  // measure 77
0001
0000
0010
1000
,  // measure 78
0100
0000
0001
0000
,  // measure 79
0010
0000
1001
1001
;

//---------------dance-single - ----------------
#NOTES:
     dance-single:
     :
     Medium:
     9:
     0.421527,0.501534,0.183896,0.225690,0.000000,353.000000,331.000000,22.000000,27.000000,0.000000,0.000000,0.421527,0.501534,0.183896,0.225690,0.000000,353.000000,331.000000,22.000000,27.000000,0.000000,0.000000:
0000
0000
0000
0000
,
0000
0000
0000
0000
,
0000
0000
0000
0000
,
0000
0000
0000
0000
,
0000
0000
0000
0000
1000
0100
0000
1000
,
0000
0001
0000
0000
0001
0010
0000
0001
,
0000
1000
0000
0000
1000
0010
0000
1000
,
0000
0001
0000
0000
0001
0100
0000
0001
,
0000
1000
1001
0000
0110
0000
0001
0000
,
1000
0010
1000
0000
0100
0000
1000
0000
,
0001
0100
0001
0000
0010
0000
0001
0010
,
0100
1000
0010
0000
0100
0000
0001
0100
,
0000
0010
1000
0000
1001
0000
0010
0000
,
0100
0001
0100
0000
0001
0000
0100
0000
,
0010
1000
0010
0000
1000
0010
0100
0001
,
1000
0000
0001
0000
1000
0100
0000
0001
,
0010
0000
0110
0000
1000
0001
0100
0000
,
0001
0000
1000
0000
0001
1000
0010
0000
,
1000
0000
0001
0000
1000
0010
0100
0000
,
0001
0000
1000
0000
0001
0100
0010
0000
,
1000
0000
0001
0100
0010
0000
1000
0100
,
0010
0000
0001
0100
0010
0000
1000
0100
,
0020
0000
0030
0000
0001
0000
0100
0010
,
1000
0010
0100
0000
0001
0000
1000
0000
,
0100
0000
0010
0001
0010
0000
0001
0000
,
0100
0000
0010
1000
0010
0000
0100
0000
,
0001
0000
0010
0100
0010
0000
0001
0000
,
0100
1000
0010
0010
,
0001
1000
1002
0000
,
0100
0003
2000
0000
,
0010
0000
3000
0000
0001
1000
0000
0220
,
0000
0000
0330
0000
0110
0000
0010
0010
,
0000
1000
0000
0101
0000
1100
0000
1000
,
0010
1000
0000
0001
0000
0100
0000
0010
,
0000
1000
0001
1000
0001
0010
0100
0010
,
0000
0001
0000
0100
0000
1000
0000
0010
,
0000
0001
0000
1100
0000
0101
0000
0001
,
0010
0001
0000
1000
0000
0100
0000
0010
,
0000
0001
1000
0100
0000
1000
0001
0010
,
0000
0001
0100
0010
1000
0001
0100
0010
,
0000
2000
0000
0100
0000
0000
0000
3100
,
0000
0002
0000
0010
0000
0000
0010
0013
,
0000
2000
0000
0001
0000
0000
0000
3001
,
0000
0100
0000
0001
0000
1000
0000
0010
,
0000
0200
0000
0001
0000
0000
0000
0301
,
0000
0020
0000
1000
0000
0000
1000
1030
,
0000
0200
0000
0010
0000
0000
0000
0310
,
0000
1001
0000
0010
0100
0010
0000
1000
,
0000
0002
0000
0000
0000
0000
0000
0103
,
0100
0010
1000
0020
,
0000
0230
0000
0301
0001
0000
1000
0000
,
2002
0000
0000
0000
0000
3003
0000
1000
,
0000
0010
0000
0100
0000
0001
0000
0000
,
0000
0100
0000
0010
0000
1000
0000
0000
,
0000
0010
0000
0100
0000
0001
0000
1000
,
0000
1010
0000
0001
0000
0011
0000
1000
,
0000
0002
0000
0000
0000
0103
0000
0000
,
0000
2000
0000
0010
0000
3010
0000
0000
,
0000
0002
0000
0000
0000
0013
0000
0000
,
0000
2000
0000
0100
0000
3100
0000
0000
,
0000
0001
0000
0100
0000
0010
0000
1000
,
0000
0001
0000
0100
0000
0010
0000
1000
,
0000
0001
0010
0001
0010
0100
1000
0100
,
1000
0100
0000
0100
0010
0000
0110
0000
,
0001
0000
1010
0000
0011
0000
0001
0100
,
0001
1000
0010
0100
,
0001
1000
0001
1000
0100
0010
0100
0000
,
1000
0010
0001
0100
,
1000
0000
0011
0000
1010
0000
1000
0100
,
1000
0001
0010
0100
,
1000
0001
0010
0000
0001
1000
0100
0000
,
1000
0010
0100
0001
1000
0010
0100
0000
,
0002
0010
0000
1003
,
2000
0000
0100
0000
0000
0001
3001
0000
,
0002
0010
0000
1003
,
1000
0100
0010
0001
0010
0100
1000
0000
,
0020
0001
0000
1030
,
0200
0000
1000
0000
0000
0001
0301
0000
,
0010
0000
1000
0100
0000
0001
0010
0000
,
0110
0000
0001
0100
0000
2002
0000
0000
,
3003
0000
0000
0000
;

//---------------dance-double - ----------------
#NOTES:
     dance-double:
     :
     Easy:
     6:
     0.236437,0.333311,0.117025,0.041794,0.000000,198.000000,184.000000,14.000000,5.000000,0.000000,0.000000,0.236437,0.333311,0.117025,0.041794,0.000000,198.000000,184.000000,14.000000,5.000000,0.000000,0.000000:
00000000
00000000
00000000
00000000
,
00000000
00000000
00000000
00000000
,
00000000
00000000
00000000
00000000
,
00000000
00000000
00000000
00000000
,
00000000
00000000
01000000
00000000
,
00000000
00000000
00010000
00000000
,
00000000
00000000
00001000
00000000
,
00000000
00000000
00000010
00000000
,
00000000
00000001
00000001
00000000
,
00001000
00000000
00000010
00000000
,
00000100
00000000
00000001
00000000
,
00001000
00000000
00000010
00000000
,
00000000
00010000
00010000
00000000
,
00001000
00000000
00000100
00000000
,
00000010
00000000
00010000
00000000
,
00001000
00000000
00000100
00000000
,
00000000
00000001
00000001
00000000
,
00000010
00000000
00001000
00000000
,
00010000
00000000
01000000
00000000
,
10000000
00000000
00100000
00000000
,
00010000
00000000
00011000
00000000
,
00011000
00000000
01001000
00000000
,
00010010
00000000
00010000
00001000
,
00010000
00000000
00001000
00010000
,
00001000
00000000
00000100
00000000
,
00000001
00000000
00000100
00000000
,
00001000
00000000
00010000
00000000
,
00100000
00000000
10000000
00000000
,
00100000
00000000
00020000
00000000
,
00000000
00030000
00001000
00010000
,
00001000
00000000
00010000
00010000
,
00000000
00000000
00000000
00000000
00011000
00000000
00000000
00011000
,
00000000
00001000
00000000
00100000
00000000
00001000
00000000
00000000
,
00000000
00010000
00000000
00000100
00000000
00010000
00000000
00000000
,
00000000
00001000
00000000
00100000
00000000
00001000
00000000
00010000
,
00000000
00000100
00000000
00010000
00000000
00001000
00000000
00000000
,
00000000
00010000
00000000
00000010
00000000
00010000
00000000
00000000
,
00000000
00001000
00000000
01000000
00000000
00001000
00000000
00000000
,
00000000
00010000
00000000
00000010
00000000
00010000
00000000
00001000
,
00000000
01000000
00000000
00001000
00000000
00010000
00000000
00000000
,
00000000
00001000
00000000
00000000
00000000
00000100
00000000
00000000
,
00000000
00000001
00000000
00000000
00000000
00000010
00000000
00001000
,
00000000
00010000
00000000
00000000
00000000
00100000
00000000
00000000
,
00000000
10000000
00000000
00000000
00000000
01000000
00000000
00010000
,
00000000
00001000
00000000
00000000
00000000
00000100
00000000
00000000
,
00000000
00000001
00000000
00000000
00000000
00000010
00000000
00001000
,
00000000
00010000
00000000
00000000
00000000
00100000
00000000
00000000
,
00000000
10000000
00000000
00000000
00000000
01000000
00000000
00010000
,
00000000
00002000
00000000
00000000
00000000
00000000
00000000
00003000
,
00000000
00200000
00000000
00000000
00000000
00000000
00000000
00300000
,
00000000
02000000
00000000
00000000
00000000
00000000
00000000
03000000
,
00000000
20000000
00000000
00000000
00000000
00000000
00000000
30000000
,
00000000
00100000
00000000
00010000
00000000
00001000
00000000
00000000
,
00000000
00000010
00000000
00001000
00000000
00010000
00000000
00000000
,
00000000
01000000
00000000
00010000
00000000
00001000
00000000
00010000
,
00000000
00000100
00000000
00000100
00000000
00000100
00000000
00000100
,
00000000
00001001
00000000
00000000
00000000
00001000
00000000
00000000
,
00000000
00011000
00000000
00000000
00000000
00010000
00000000
00000000
,
00000000
10010000
00000000
00000000
00000000
10000000
00000000
00000000
,
00000000
10010000
00000000
00000000
00000000
00010000
00000000
00000000
,
00000000
00011000
00000000
00000000
00000000
00001000
00000000
00000000
,
00000000
00001001
00000000
00000000
00000000
00000001
00000000
00000000
,
00000000
00000100
00000000
00001000
00000000
00010000
00000000
01000000
,
00000000
10000000
00000000
00000000
00100000
00000000
00100000
00000000
,
01000000
00010000
00100000
00000000
,
00010000
01000000
00100000
00000000
,
01000000
00010000
00100000
01000000
,
00010000
00001000
00010000
00000000
,
00000010
00001000
00000100
00000000
,
00001000
00000010
00000100
00000000
,
00000010
00001000
00000100
00000010
,
00001000
00010000
00001000
00000000
,
00010000
00000000
01000000
00000000
,
10000000
00000000
00100000
00010000
,
00001000
00000000
00000010
00000000
,
00000001
00000000
00000100
00001000
,
00010000
00000000
01000000
00000000
,
10000000
00000000
00100000
00010000
,
00001000
00000000
00000010
00000000
,
00000001
00000000
00001001
00001001
;

//---------------dance-double - ----------------
#NOTES:
     dance-double:
     :
     Medium:
     9:
     0.394062,0.434663,0.125383,0.234049,0.000000,330.000000,315.000000,15.000000,28.000000,0.000000,0.000000,0.394062,0.434663,0.125383,0.234049,0.000000,330.000000,315.000000,15.000000,28.000000,0.000000,0.000000:
00000000
00000000
00000000
00000000
,
00000000
00000000
00000000
00000000
,
00000000
00000000
00000000
00000000
,
00000000
00000000
00000000
00000000
,
00000000
00000000
00001000
01000000
,
00001000
00000000
00010000
00000100
,
00010000
00000000
00001000
00100000
,
00001000
00000000
00010000
00000010
,
00010000
00011000
00100000
01000000
,
10000000
00100000
00010000
00000000
00100000
00000000
00010000
00000000
,
00001000
00000100
00000001
00000000
00000010
00000000
00000100
00000010
,
00000001
00000000
00000100
00000000
00001000
00000000
00010000
00001000
,
00000000
00001000
00010000
00000000
00000100
00000000
00000010
00000000
,
00000001
00000100
00001000
00000000
00000100
00000000
00001000
00000000
,
00010000
00100000
10000000
00000000
01000000
00000000
00100000
01000000
,
10000000
00000000
00100000
00000000
00010000
00001000
00000000
00001000
,
00010000
00000000
00000010
00000000
00001000
00000100
00000010
00000000
,
00001000
00000000
00010000
00000000
01000000
00100000
00010000
00000000
,
01000000
00000000
00001000
00000000
00010000
00001000
00000100
00000000
,
00000010
00000000
00010000
00000000
00001000
00010000
00100000
00000000
,
01000000
00000000
00001000
00010000
00000010
00000000
00010000
00001000
,
00100000
00000000
00001000
00010000
00000100
00000000
00010000
00001000
,
02000000
00000000
03000000
00000000
00100000
00000000
10000000
01000000
,
00010000
00001000
00100000
01000000
,
00010000
00000000
00001000
00000010
00000100
00000000
00001000
00000000
,
00000010
00000001
00000010
00000100
,
00001000
00010000
00100000
01000000
,
10000000
01000000
00010000
00100000
,
01000000
00010000
00012000
00000000
,
00100000
00003000
00020000
00000000
,
00000010
00000000
00030000
00000000
00001000
00010000
00000000
00022000
,
00000000
00000000
00033000
00000000
00011000
00000000
00000100
00000100
,
00000000
00000010
00000000
00000001
00000000
00001001
00000000
00001000
,
00000010
00001000
00000000
00000100
00000000
00010000
00000000
00001000
,
00000000
01000000
00100000
01000000
00100000
10000000
00000000
00010000
,
00000000
01000000
00000000
00100000
00000000
10000000
00010000
10000000
,
00000000
00100000
00000000
10000000
00000000
10010000
00000000
00010000
,
00100000
00010000
00000000
01000000
00000000
00001000
00000000
00010000
,
00000000
00000010
00001000
00000100
00000000
00000010
00000001
00000100
,
00000000
00001000
00010000
00100000
00000000
00010000
00001000
00000010
,
00000000
00000002
00000000
00000100
00000000
00000000
00000000
00000103
,
00000000
00000200
00000000
00001000
00000000
00000000
00001000
00001300
,
00000000
00002000
00000000
00010000
00000000
00000000
00000000
00013000
,
00000000
00001000
00000000
00010000
00000000
01000000
00000000
10000000
,
00000000
00200000
00000000
00010000
00000000
00000000
00000000
00310000
,
00000000
00020000
00000000
00001000
00000000
00000000
00001000
00031000
,
00000000
00002000
00000000
00000010
00000000
00000000
00000000
00003010
,
00000000
00000010
00000001
00001000
00000100
00000010
00000000
00000011
,
00000000
00002000
00000000
00000000
00000000
00000000
00000000
00003100
,
00000100
00010000
00001000
02000000
,
00000000
03200000
00000000
10300000
10000000
00000000
00010000
00000000
,
20020000
00000000
00000000
00000000
00000000
30030000
00000000
10000000
,
00000000
01000000
00000000
00010000
00000000
00001000
00000000
00000000
,
00000000
00010000
00000000
00001000
00000000
00000100
00000000
00000000
,
00000000
00001000
00000000
00000100
00000000
00000001
00000000
00000010
,
00000000
00000110
00000000
00001000
00000000
00011000
00000000
00100000
,
00000000
02000000
00000000
00000000
00000000
13000000
00000000
00000000
,
00000000
00200000
00000000
00010000
00000000
00310000
00000000
00000000
,
00000000
00002000
00000000
00000000
00000000
00003010
00000000
00000000
,
00000000
00000002
00000000
00000100
00000000
00000103
00000000
00000000
,
00000000
00001000
00000000
00010000
00000000
00100000
00000000
00010000
,
00000000
00001000
00000000
00000010
00000000
00001000
00000000
00010000
,
00000000
00100000
10000000
00100000
00000000
10000000
01000000
10000000
,
01000000
00010000
00000000
00001000
00010000
00000000
00011000
00000000
,
00100000
00000000
10000000
00000000
10010000
00000000
00010000
00100000
,
00010000
01000000
00001000
00010000
,
00000100
00000010
00000100
00000010
00000001
00000000
00001000
00000000
,
00000100
00000000
00000010
00000000
00000001
00001000
00000001
00000000
,
00000010
00000000
00000001
00000000
00001001
00000000
00001000
00000010
,
00001000
00000100
00010000
00001000
,
00100000
00010000
01000000
00000000
00100000
10000000
01000000
00000000
,
00010000
00001000
00000010
00000000
00001000
00010000
00100000
00000000
,
20000000
01000000
00000000
31000000
,
00200000
00000000
00010000
00000000
00000000
00010000
00310000
00000000
,
00020000
00001000
00000000
00031000
,
00010000
00001000
00000100
00000001
,
00000020
00001000
00000000
00001030
,
00002000
00000000
00010000
00000000
00000000
00010000
00013000
00000000
,
00020000
00100000
00000000
00130000
,
10100000
00000000
00010000
00001000
00000000
00022000
00000000
00000000
,
00033000
00000000
00000000
00000000
;
