#VERSION:0.83;
#TITLE:Blow;
#SUBTITLE:;
#ARTIST:Future Funk Squad feat. Mojo;
#TITLETRANSLIT:;
#SUBTITLETRANSLIT:;
#ARTISTTRANSLIT:;
#GENRE:VARIETY;
#ORIGIN:;
#CREDIT:MILEN;
#BANNER:Blow.png;
#BACKGROUND:Blow-bg.png;
#PREVIEWVID:;
#JACKET:Blow-jacket.png;
#CDIMAGE:;
#DISCIMAGE:;
#LYRICSPATH:;
#CDTITLE:;
#MUSIC:Blow.ogg;
#OFFSET:0.046000;
#SAMPLESTART:84.976990;
#SAMPLELENGTH:18.000000;
#SELECTABLE:YES;
#BPMS:0.000=130.000;
#STOPS:120.000=1.385;
#DELAYS:;
#WARPS:;
#TIMESIGNATURES:0.000=4=4;
#TICKCOUNTS:0.000=1;
#COMBOS:0.000=1;
#SPEEDS:0.000=1.000=0.000=0;
#SCROLLS:0.000=1.000;
#FAKES:;
#LABELS:0.000=Song Start;
#BGCHANGES:;
#KEYSOUNDS:;
#ATTACKS:
;

//---------------dance-single - ----------------
#NOTEDATA:;
#CHARTNAME:;
#STEPSTYPE:dance-single;
#DESCRIPTION:;
#CHARTSTYLE:;
#DIFFICULTY:Hard;
#METER:12;
#RADARVALUES:0.543845,0.588591,0.490669,0.228415,0.139587,450.000000,392.000000,58.000000,27.000000,0.000000,0.000000,0.000000,0.000000,0.000000,0.543845,0.588591,0.490669,0.228415,0.139587,450.000000,392.000000,58.000000,27.000000,0.000000,0.000000,0.000000,0.000000,0.000000;
#CREDIT:MILEN;
#NOTES:
0000
0000
0000
0000
,
0000
0000
0000
0000
,
2001
0000
0000
0000
0200
3300
0000
1100
,
0000
0102
0000
0000
0000
0020
0033
0000
,
1002
0000
0000
0000
0200
0303
0000
0101
,
0000
2100
0000
0000
0000
0010
0020
3030
,
1001
0000
0000
0000
0100
0000
0000
0100
0010
0000
1000
0000
0010
0000
0000
0000
,
1001
0000
0000
0000
0010
0000
0000
0010
0100
0000
0001
0000
0100
0000
0000
0000
,
0110
0000
0000
0000
0001
0000
0000
1000
0010
0000
0100
0000
0010
0000
0000
0000
,
0110
0000
0000
0000
1000
0000
0000
0001
0100
0000
0010
0000
0200
0000
0000
0000
,
0301
0000
0010
0000
0100
0000
0010
0000
0001
0000
0010
0000
0100
0000
1000
0100
,
1000
0010
0001
0010
1000
0100
0010
0000
,
0010
0001
0100
0010
0100
0001
0010
0000
,
0001
0010
0100
1000
0100
0010
0110
0000
,
0100
0010
0001
0100
0010
1000
0001
0000
,
0010
0100
1000
0010
0100
0001
1000
0000
,
0100
0010
0001
0010
0100
0010
0001
0100
,
1000
0000
0100
0010
0100
0000
0001
0000
0010
0000
0100
0000
0110
0000
0000
0000
,
1001
1000
0010
0100
0101
0001
0100
0010
,
1010
1000
0100
0010
0011
0001
0010
0100
,
1100
1000
0010
0100
0110
0010
0100
0001
,
1001
1000
0010
0001
0010
0100
0110
0000
,
1001
0001
0010
0100
1100
1000
0100
0010
,
0011
0001
0100
0010
1010
1000
0010
0100
,
0101
0001
0010
0100
0110
0010
0100
1000
,
1001
0001
0010
1000
0010
0100
0110
0000
,
2000
0000
0000
3000
,
0020
0000
0000
0030
,
0002
0000
0000
0000
0000
0000
0000
0000
0000
0000
0000
0000
0000
0003
0000
0000
,
0200
0000
0000
0020
,
0000
0000
0330
0000
1001
0000
0001
0000
0100
0000
1000
0000
0100
0000
0010
0100
,
0010
0000
1010
1000
0100
0010
0011
0001
,
0100
0010
0110
0100
0001
0100
1000
0100
,
0010
0000
0110
0100
0001
0010
1000
0001
,
0100
0000
1100
1000
0001
0000
0202
0303
,
2020
3030
1000
0100
0010
1000
0010
0001
,
0010
0000
0100
0010
0100
0000
1000
0000
0100
0000
0010
0000
0001
0000
1000
0000
,
1001
0000
0001
0100
1000
0100
0001
0010
,
0100
0000
1000
0010
0001
0010
1000
0100
,
0010
0000
0001
0100
0010
0001
0010
1000
,
0001
0000
0100
0000
1000
0000
0100
0010
0100
0000
0001
0000
0010
0000
0100
0000
,
1100
0000
1000
0010
0001
1000
0100
0001
,
1000
0000
0001
0010
1000
0001
0100
1000
,
0010
0220
0000
0000
,
0300
0000
0000
0000
2030
0000
0000
0000
0000
0000
3001
0010
0000
0010
0100
0000
,
0110
0000
0011
0001
0100
0010
1010
1000
,
0010
0100
0101
0001
0010
0100
1100
1000
,
0010
0100
0110
0010
1000
0100
0101
0001
,
0100
0000
1000
0000
1100
0000
0100
0010
0100
0000
1000
0010
0000
0010
0100
0000
,
0001
0000
1010
1000
0100
0010
0011
0001
,
0010
0100
1100
1000
0010
0100
0101
0001
,
0010
0100
0110
0010
0001
0100
1100
1000
,
0100
0000
0001
0000
0101
0000
0100
0010
0100
0000
0001
0010
0000
0010
0100
0000
,
1000
0000
0000
0000
0010
0100
0000
0100
0002
0000
0000
0000
0010
0000
0000
0000
,
1003
0000
0000
0000
0100
0000
0010
1000
0000
1000
0200
0000
0010
0000
0000
0000
,
0301
0000
0000
0000
0010
0100
0000
0100
2000
0000
0000
0000
0010
0000
0000
0000
,
3001
0000
0000
0000
0100
0000
0010
0001
0000
0001
0200
0000
0010
0000
0000
0000
,
1300
0000
0000
0000
0100
0010
0000
0010
0100
0000
0001
0000
0010
0000
1000
0000
,
0001
0000
0100
0000
1100
0000
1000
0010
0000
0010
0001
0000
0010
0000
0100
0000
,
1001
0000
0000
0000
1000
0001
0000
0001
1000
0000
0100
0000
0001
0000
1000
0000
,
0010
0000
0001
0000
0101
0000
0100
0010
0000
0010
1000
0000
0100
0000
0001
0000
,
0010
0100
2002
0000
0000
0000
0000
0000
,
0000
0000
0000
0000
,
0000
3003
0000
0000
;

//---------------dance-single - ----------------
#NOTEDATA:;
#CHARTNAME:;
#STEPSTYPE:dance-single;
#DESCRIPTION:;
#CHARTSTYLE:;
#DIFFICULTY:Challenge;
#METER:13;
#RADARVALUES:0.471332,0.560727,0.236875,0.152277,0.139587,390.000000,362.000000,28.000000,18.000000,256.000000,0.000000,0.000000,0.000000,0.000000,0.471332,0.560727,0.236875,0.152277,0.139587,390.000000,362.000000,28.000000,18.000000,256.000000,0.000000,0.000000,0.000000,0.000000;
#CREDIT:MILEN;
#NOTES:
0000
0000
0000
0000
,
0000
0000
0000
0000
,
2001
0000
0000
0000
3100
MMMM
0000
1100
,
0000
0102
0000
0000
0000
0013
MMMM
0000
,
1002
0000
0000
0000
0103
MMMM
0000
0101
,
0000
2100
0000
0000
0000
0010
3010
MMMM
,
1001
0000
0000
0000
0100
0000
0000
0100
0010
0000
1000
0000
0010
0000
MMMM
0000
,
1001
0000
0000
0000
0010
0000
0000
0010
0100
0000
0001
0000
0100
0000
MMMM
0000
,
0110
0000
0000
0000
0001
0000
0000
1000
0010
0000
0100
0000
0010
0000
MMMM
0000
,
0110
0000
0000
0000
1000
0000
0000
0001
0100
0000
0010
0000
0100
0000
MMMM
0000
,
0001
0000
0010
0000
0100
0000
0010
0000
0001
0000
0010
0000
0100
0000
1000
0100
,
1000
0010
0001
0010
1000
0100
0010
MMMM
,
0010
0001
0100
0010
0100
0001
0010
MMMM
,
0001
0010
0100
1000
0100
0010
0110
MMMM
,
0100
0010
0001
0100
0010
1000
0001
MMMM
,
0010
0100
1000
0010
0100
0001
1000
MMMM
,
0100
0010
0001
0010
0100
0010
0001
0100
,
1000
0000
0100
0010
0100
0000
0001
0000
0010
0000
0100
0000
0110
0000
0000
0000
,
MMMM
1000
0010
0100
MMMM
0001
0100
0010
,
MMMM
1000
0100
0010
MMMM
0001
0010
0100
,
MMMM
1000
0010
0100
MMMM
0010
0100
0001
,
MMMM
1000
0010
0001
0010
0100
0110
0000
,
MMMM
0001
0010
0100
MMMM
1000
0100
0010
,
MMMM
0001
0100
0010
MMMM
1000
0010
0100
,
MMMM
0001
0010
0100
MMMM
0010
0100
1000
,
MMMM
0001
0010
1000
0010
0100
0110
0000
,
2000
0000
0000
3000
,
0020
0000
0000
0030
,
0002
0000
0000
0000
0000
0000
0000
0000
0000
0000
0000
0000
0000
0003
0000
0000
,
0200
0000
0000
0020
,
0330
0000
MMMM
0000
1001
0000
0001
0000
0100
0000
1000
0000
0100
0000
0010
0100
,
0010
MMMM
1010
1000
0100
0010
0011
0001
,
0100
0010
0110
0100
0001
0100
1000
0100
,
0010
MMMM
0110
0100
0001
0010
1000
0001
,
0100
0000
1100
1000
0001
0000
0101
MMMM
,
1010
MMMM
1000
0100
0010
1000
0010
0001
,
0010
0000
0100
0010
0100
0000
1000
0000
0100
0000
0010
0000
0001
0000
1000
0000
,
1001
MMMM
0001
0100
1000
0100
0001
0010
,
0100
MMMM
1000
0010
0001
0010
1000
0100
,
0010
MMMM
0001
0100
0010
0001
0010
1000
,
0001
0000
0100
0000
1000
0000
0100
0010
0100
0000
0001
0000
0010
0000
0100
0000
,
1100
MMMM
1000
0010
0001
1000
0100
0001
,
1000
MMMM
0001
0010
1000
0001
0100
1000
,
0010
MMMM
0220
0000
0000
0000
0000
0000
,
0300
0000
0000
0000
2030
0000
0000
0000
0000
0000
3001
0010
0000
0010
0100
0000
,
0110
MMMM
MMMM
0001
0100
0010
MMMM
1000
,
0010
0100
MMMM
0001
0010
0100
MMMM
1000
,
0010
0100
MMMM
0010
1000
0100
MMMM
0001
,
0100
0000
1000
0000
MMMM
0000
0100
0010
0100
0000
1000
0010
0000
0010
0100
0000
,
0001
MMMM
MMMM
1000
0100
0010
MMMM
0001
,
0010
0100
MMMM
1000
0010
0100
MMMM
0001
,
0010
0100
MMMM
0010
0001
0100
MMMM
1000
,
0100
0000
0001
0000
MMMM
0000
0100
0010
0100
0000
0001
0010
0000
0010
0100
0000
,
1000
0000
MMMM
0000
0010
0100
0000
0100
0002
0000
0000
0000
0010
0000
0000
0000
,
1003
0000
MMMM
0000
0100
0000
0010
1000
0000
1000
0200
0000
0010
0000
0000
0000
,
0301
0000
MMMM
0000
0010
0100
0000
0100
2000
0000
0000
0000
0010
0000
0000
0000
,
3001
0000
MMMM
0000
0100
0000
0010
0001
0000
0001
0200
0000
0010
0000
0000
0000
,
1300
0000
MMMM
0000
0100
0010
0000
0010
0100
0000
0001
0000
0010
0000
1000
0000
,
0001
0000
0100
0000
MMMM
0000
1000
0010
0000
0010
0001
0000
0010
0000
0100
0000
,
1001
0000
MMMM
0000
1000
0001
0000
0001
1000
0000
0100
0000
0001
0000
1000
0000
,
0010
0000
0001
0000
MMMM
0000
0100
0010
0000
0010
1000
0000
0100
0000
0001
0000
,
0010
0100
2002
0000
0000
0000
0000
0000
,
0000
0000
0000
0000
0000
0000
0000
3003
,
MMMM
MMMM
0000
0000
0000
0000
0000
0000
;

//---------------dance-double - ----------------
#NOTEDATA:;
#CHARTNAME:;
#STEPSTYPE:dance-double;
#DESCRIPTION:;
#CHARTSTYLE:;
#DIFFICULTY:Hard;
#METER:12;
#RADARVALUES:0.526925,0.560727,0.143817,0.262254,0.291863,436.000000,419.000000,17.000000,31.000000,0.000000,0.000000,0.000000,0.000000,0.000000,0.526925,0.560727,0.143817,0.262254,0.291863,436.000000,419.000000,17.000000,31.000000,0.000000,0.000000,0.000000,0.000000,0.000000;
#CREDIT:MILEN;
#NOTES:
00000000
00000000
00000000
00000000
,
00000000
00000000
00000000
00000000
,
00011000
00000000
01000000
00000000
00001000
00010000
00001000
00000000
,
00011000
00000000
00000100
00000000
00010000
00001000
00010000
00000000
,
00011000
00000000
00100000
00000000
00001000
00010000
00001000
00000000
,
00011000
00000000
00000010
00000000
00010000
00001000
00011000
00000000
,
00001000
00010000
00100000
00010000
00001000
00010000
00100000
00000000
,
00010000
00001000
00000010
00001000
00010000
00001000
00000010
00000000
,
00001000
00010000
01000000
00010000
00001000
00010000
01000000
00010000
,
00001000
00000100
00001000
00010000
00001000
00000100
00000001
00000000
,
00001001
00000000
00001000
00000100
00001000
00000000
00000100
00000000
00010000
00000000
00001000
00000000
00100000
00000000
00010000
00100000
,
00010000
00000000
01000000
00000000
00100000
00000000
10000000
00000000
01000000
00000000
00100000
00010000
00100000
00000000
00000000
00000000
,
00001000
00000000
00010000
00001000
00010000
00000000
00000100
00000000
00001000
00000000
00000010
00000100
00000010
00000000
00000000
00000000
,
00000100
00000000
00000001
00000010
00000001
00000000
00000100
00000010
00000000
00000010
00010000
00000000
00001000
00000000
00000000
00000000
,
00100000
00000000
00010000
00000000
00100000
00000000
01000000
10000000
00000000
10000000
00100000
00000000
01000000
00000000
00000000
00000000
,
00010000
00000000
00100000
00000000
00001000
00000000
00010000
00000100
00000000
00000100
00001000
00000000
00000010
00000000
00000000
00000000
,
00000100
00000000
00000001
00000000
00001000
00000000
00000010
00010000
00000000
00010000
00001000
00000000
00100000
00000000
00010000
00000000
,
01000000
00000000
00100000
10000000
00100000
00000000
01000000
00010000
00000000
00010000
00100000
00000000
00101000
00000000
00000000
00000000
,
00000000
00000000
00001000
00000000
00020000
00000000
00000000
00000000
00030100
00000000
00000100
00001000
00000100
00000000
00000020
00000000
,
00000000
00000000
00000031
00000000
00000010
00000000
00000100
00000000
00000010
00000000
00001000
00010000
00001000
00000000
00020000
00000000
,
00000000
01030000
10000000
01000000
00010000
01000000
10000000
01000000
,
00100000
00000000
00001000
00010000
00001000
00000000
00010000
00000010
00000000
00000010
00000100
00000000
00000101
00000000
00000000
00000000
,
00000000
00000000
00000001
00000000
00000020
00000000
00000000
00000000
00001030
00000000
00001000
00010000
00001000
00000000
00200000
00000000
,
00000000
00000000
00310000
00000000
01000000
00000000
00100000
00000000
10000000
00000000
01000000
00100000
01000000
00000000
00020000
00000000
,
00000000
00031000
00010000
00000100
00001000
00000100
00000010
00000001
,
00000100
00000000
00000010
00001000
00000010
00000000
00010000
00001000
00000000
00001000
00100000
00000000
01100000
00000000
00000000
00000000
,
10000000
00100000
00010000
00002000
00000000
00000000
00003000
00000000
,
01000000
00010000
00001000
00000200
00000000
00000000
00000300
00000000
,
00010000
00001000
00000010
00000002
00000000
00000000
00000003
00000000
,
00000100
00000000
00001000
00000000
00010000
00000000
00100000
00000000
00000000
00000000
00000000
00020000
00002000
00000000
00000000
00000000
,
00033000
00000000
00000000
00000000
00001000
00000000
00100000
00010000
00000000
00000000
01000000
00000000
00100000
00000000
10000000
01000000
,
10000000
00000000
00000000
00000000
01000000
00000000
00010000
00001000
00000000
00000000
00010000
00000000
01000000
00000000
00010000
00001000
,
00000000
00000000
00010000
00000000
00000100
00000000
00000010
00000001
00000010
00000000
00000001
00000100
00000000
00000100
00001000
00000000
,
00010000
00000000
00000000
00000000
00001000
00000000
00100000
00000000
01000000
00000000
10000000
00100000
00000000
00100000
01000000
00000000
,
00010000
00000000
00100000
01000000
00010000
00000000
00010010
00000000
,
01001000
00000000
00000000
00000000
00001000
00000000
00010000
00000000
00000100
00000000
00000010
00000001
00000000
00000001
00001000
00000000
,
00000010
00000000
00010000
00001000
00010000
00000000
00001000
00100000
00000000
00100000
01000000
00000000
10000000
00000000
00100000
00000000
,
01100000
00000000
00000000
00000000
01000000
00000000
00001000
00010000
00001000
00000000
00100000
00000000
00010000
00000000
01000000
00000000
,
00100000
00000000
00000000
00000000
10000000
00000000
01000000
00010000
01000000
00000000
00010000
00000000
00001000
00000000
00000010
00000000
,
00000001
00000000
00000100
00001000
00000100
00000001
00000010
00000100
,
00000001
00000000
00000100
00000000
00001000
00000000
00000100
00000010
00000100
00000000
00010000
00001000
00000000
00001000
01000000
00000000
,
00100000
00000000
00000000
00000000
10000000
00000000
01000000
00000000
00010000
00000000
00001000
00100000
00000000
00100000
01000000
00000000
,
00010000
00000000
00000000
00000000
00001000
00000000
00000010
00000000
00000001
00000000
00000100
00001000
00000000
00001000
00010000
00000000
,
00001000
00022000
00000000
00000000
,
00000000
00000000
00000000
00000000
00000000
00000000
00000000
00033000
,
00011000
00000000
00000000
00000000
00000000
00000000
00010000
00000000
00002000
00000000
00000000
00000000
01003000
00000000
01000000
00010000
,
01000000
00000000
00200000
00000000
00000000
00000000
10300000
00000000
00100000
00000000
01000000
00000000
00100000
00000000
00010000
00001000
,
00010000
00002000
00000000
00003100
00000001
00000100
00001000
00000100
,
00000001
00000000
00000100
00000000
00000010
00000000
00010000
00001000
00010000
00000000
00001000
00100000
00000000
00100000
01000000
00000000
,
11000000
00000000
00000000
00000000
00000000
00000000
10000000
00000000
00200000
00000000
00000000
00000000
00310000
00000000
00010000
00001000
,
00010000
00000000
00000020
00000000
00000000
00000000
00001030
00000000
00000100
00000000
00000010
00000000
00000001
00000000
00000100
00000010
,
00000100
00002000
00000000
00013000
00001000
01000000
00010000
01000000
,
00100000
00000000
10000000
00000000
01000000
00000000
00100000
00010000
00100000
00000000
00001000
00010000
00000000
00010000
00000010
00000000
,
00000110
00000002
00000010
00001000
,
00000103
00002000
00000010
00010000
,
00103000
00020000
00000010
00001000
,
00130000
20000000
01000000
00010000
,
30100000
00000000
00000000
00000000
00100000
01000000
00000000
01000000
00020000
00000000
00000000
00000000
00100000
00000000
00000000
00000000
,
00031000
00000000
00000000
00000000
00001000
00000000
00000010
00000100
00000000
00000100
00000002
00000000
00000010
00000000
00000000
00000000
,
00001003
00000000
00000000
00000000
00001000
00000100
00000000
00000100
00000020
00000000
00000000
00000000
00000001
00000000
00000000
00000000
,
00001030
00000000
00000000
00000000
00001000
00000000
00010000
00100000
00000000
00100000
20000000
00000000
01000000
00000000
00000000
00000000
,
30010000
00000000
00210000
00000000
00001000
00002000
00300000
00000000
,
00010000
00020000
00003000
00000000
00000100
00000200
00030000
00000000
,
00000010
00000310
00000000
00000000
00000000
00000000
00000000
00000000
;

//---------------dance-double - ----------------
#NOTEDATA:;
#CHARTNAME:;
#STEPSTYPE:dance-double;
#DESCRIPTION:;
#CHARTSTYLE:;
#DIFFICULTY:Challenge;
#METER:13;
#RADARVALUES:0.514840,0.561837,0.135357,0.228415,0.291863,426.000000,410.000000,16.000000,27.000000,384.000000,0.000000,0.000000,0.000000,0.000000,0.514840,0.561837,0.135357,0.228415,0.291863,426.000000,410.000000,16.000000,27.000000,384.000000,0.000000,0.000000,0.000000,0.000000;
#CREDIT:MILEN;
#NOTES:
00000000
00000000
00000000
00000000
,
00000000
00000000
00000000
00000000
,
00011000
00000000
MMMMMMMM
00000000
00001000
00010000
00001000
00000000
,
00011000
00000000
MMMMMMMM
00000000
00010000
00001000
00010000
00000000
,
00011000
00000000
MMMMMMMM
00000000
00001000
00010000
00001000
00000000
,
00011000
00000000
MMMMMMMM
00000000
00010000
00001000
00011000
MMMMMMMM
,
00001000
00010000
00100000
00010000
00001000
00010000
00100000
MMMMMMMM
,
00010000
00001000
00000010
00001000
00010000
00001000
00000010
MMMMMMMM
,
00001000
00010000
01000000
00010000
00001000
00010000
01000000
00010000
,
00001000
00000100
00001000
00010000
00001000
00000100
00000001
MMMMMMMM
,
00001001
00000000
00001000
00000100
00001000
00000000
00000100
00000000
00010000
00000000
00001000
00000000
00100000
00000000
00010000
00100000
,
00010000
00000000
01000000
00000000
00100000
00000000
10000000
00000000
01000000
00000000
00100000
00010000
00100000
00000000
MMMMMMMM
00000000
,
00001000
00000000
00010000
00001000
00010000
00000000
00000100
00000000
00001000
00000000
00000010
00000100
00000010
00000000
00000000
00000000
,
00000100
00000000
00000001
00000010
00000001
00000000
00000100
00000010
00000000
00000010
00010000
00000000
00001000
00000000
MMMMMMMM
00000000
,
00100000
00000000
00010000
00000000
00100000
00000000
01000000
10000000
00000000
10000000
00100000
00000000
01000000
00000000
00000000
00000000
,
00010000
00000000
00100000
00000000
00001000
00000000
00010000
00000100
00000000
00000100
00001000
00000000
00000010
00000000
MMMMMMMM
00000000
,
00000100
00000000
00000001
00000000
00001000
00000000
00000010
00010000
00000000
00010000
00001000
00000000
00100000
00000000
00010000
00000000
,
01000000
00000000
00100000
10000000
00100000
00000000
01000000
00010000
00000000
00010000
00100000
00000000
00101000
00000000
00000000
00000000
,
MMMMMMMM
00000000
00001000
00000000
00020000
00000000
00000000
00000000
00030100
00000000
00000100
00001000
00000100
00000000
00000020
00000000
,
00000000
00000000
00000031
00000000
00000010
00000000
00000100
00000000
00000010
00000000
00001000
00010000
00001000
00000000
00020000
00000000
,
00000000
01030000
10000000
01000000
00010000
01000000
10000000
01000000
,
00100000
00000000
00001000
00010000
00001000
00000000
00010000
00000010
00000000
00000010
00000100
00000000
MMMMMMMM
00000000
00000000
00000000
,
MMMMMMMM
00000000
00000001
00000000
00000020
00000000
00000000
00000000
00001030
00000000
00001000
00010000
00001000
00000000
00200000
00000000
,
00000000
00000000
00310000
00000000
01000000
00000000
00100000
00000000
10000000
00000000
01000000
00100000
01000000
00000000
00020000
00000000
,
00000000
00031000
00010000
00000100
00001000
00000100
00000010
00000001
,
00000100
00000000
00000010
00001000
00000010
00000000
00010000
00001000
00000000
00001000
00100000
00000000
MMMMMMMM
00000000
00000000
00000000
,
10000000
00100000
00010000
00002000
00000000
00000000
00003000
MMMMMMMM
,
01000000
00010000
00001000
00000200
00000000
00000000
00000300
MMMMMMMM
,
00010000
00001000
00000010
00000002
00000000
00000000
00000003
MMMMMMMM
,
00000100
00000000
00001000
00000000
00010000
00000000
00100000
00000000
MMMMMMMM
00000000
00000000
00020000
00002000
00000000
00000000
00000000
,
00033000
00000000
MMMMMMMM
00000000
00001000
00000000
00100000
00010000
00000000
00000000
01000000
00000000
00100000
00000000
10000000
01000000
,
10000000
00000000
MMMMMMMM
00000000
01000000
00000000
00010000
00001000
00000000
00000000
00010000
00000000
01000000
00000000
00010000
00001000
,
00000000
00000000
00010000
00000000
00000100
00000000
00000010
00000001
00000010
00000000
00000001
00000100
00000000
00000100
00001000
00000000
,
00010000
00000000
MMMMMMMM
00000000
00001000
00000000
00100000
00000000
01000000
00000000
10000000
00100000
00000000
00100000
01000000
00000000
,
00010000
MMMMMMMM
00100000
01000000
00010000
00000000
00010010
MMMMMMMM
,
01001000
00000000
MMMMMMMM
00000000
00001000
00000000
00010000
00000000
00000100
00000000
00000010
00000001
00000000
00000001
00001000
00000000
,
00000010
00000000
00010000
00001000
00010000
00000000
00001000
00100000
00000000
00100000
01000000
00000000
10000000
00000000
00100000
00000000
,
01100000
00000000
MMMMMMMM
00000000
01000000
00000000
00001000
00010000
00001000
00000000
00100000
00000000
00010000
00000000
01000000
00000000
,
00100000
00000000
00000000
00000000
10000000
00000000
01000000
00010000
01000000
00000000
00010000
00000000
00001000
00000000
00000010
00000000
,
00000001
MMMMMMMM
00000100
00001000
00000100
00000001
00000010
00000100
,
00000001
00000000
00000100
00000000
00001000
00000000
00000100
00000010
00000100
00000000
00010000
00001000
00000000
00001000
01000000
00000000
,
00100000
00000000
MMMMMMMM
00000000
10000000
00000000
01000000
00000000
00010000
00000000
00001000
00100000
00000000
00100000
01000000
00000000
,
00010000
00000000
MMMMMMMM
00000000
00001000
00000000
00000010
00000000
00000001
00000000
00000100
00001000
00000000
00001000
00010000
00000000
,
00001000
00022000
00000000
00000000
,
00000000
00000000
00000000
00000000
00000000
00000000
00000000
00033000
,
MMMMMMMM
00000000
00000000
00000000
MMMMMMMM
00000000
00010000
00000000
00002000
00000000
00000000
00000000
01003000
00000000
01000000
00010000
,
01000000
00000000
00200000
00000000
00000000
00000000
10300000
00000000
00100000
00000000
01000000
00000000
00100000
00000000
00010000
00001000
,
00010000
00002000
00000000
00003100
00000001
00000100
00001000
00000100
,
00000001
00000000
00000100
00000000
00000010
00000000
00010000
00001000
00010000
00000000
00001000
00100000
00000000
00100000
01000000
00000000
,
MMMMMMMM
00000000
00000000
00000000
MMMMMMMM
00000000
10000000
00000000
00200000
00000000
00000000
00000000
00310000
00000000
00010000
00001000
,
00010000
00000000
00000020
00000000
00000000
00000000
00001030
00000000
00000100
00000000
00000010
00000000
00000001
00000000
00000100
00000010
,
00000100
00002000
00000000
00013000
00001000
01000000
00010000
01000000
,
00100000
00000000
10000000
00000000
01000000
00000000
00100000
00010000
00100000
00000000
00001000
00010000
00000000
00010000
00000010
00000000
,
MMMMMMMM
MMMMMMMM
00000002
00000000
00000010
00000000
00001000
00000000
,
00000103
MMMMMMMM
00002000
00000000
00000010
00000000
00010000
00000000
,
00103000
MMMMMMMM
00020000
00000000
00000010
00000000
00001000
00000000
,
00130000
MMMMMMMM
20000000
00000000
01000000
00000000
00010000
00000000
,
30100000
00000000
MMMMMMMM
00000000
00100000
01000000
00000000
01000000
00020000
00000000
00000000
00000000
00100000
00000000
00000000
00000000
,
00031000
00000000
MMMMMMMM
00000000
00001000
00000000
00000010
00000100
00000000
00000100
00000002
00000000
00000010
00000000
00000000
00000000
,
00001003
00000000
MMMMMMMM
00000000
00001000
00000100
00000000
00000100
00000020
00000000
00000000
00000000
00000001
00000000
00000000
00000000
,
00001030
00000000
MMMMMMMM
00000000
00001000
00000000
00010000
00100000
00000000
00100000
20000000
00000000
01000000
00000000
00000000
00000000
,
30010000
MMMMMMMM
00110000
MMMMMMMM
00101000
00001000
MMMMMMMM
00000000
,
00011000
00010000
MMMMMMMM
00000000
00010100
00000100
MMMMMMMM
00000000
,
00000110
00000010
MMMMMMMM
00000000
00000000
00000000
00000000
00000000
;

//---------------dance-single - ----------------
#NOTEDATA:;
#CHARTNAME:;
#STEPSTYPE:dance-single;
#DESCRIPTION:;
#CHARTSTYLE:;
#DIFFICULTY:Beginner;
#METER:3;
#RADARVALUES:0.138983,0.159890,0.067678,0.025379,0.000000,115.000000,107.000000,8.000000,3.000000,0.000000,0.000000,0.000000,0.000000,0.000000,0.138983,0.159890,0.067678,0.025379,0.000000,115.000000,107.000000,8.000000,3.000000,0.000000,0.000000,0.000000,0.000000,0.000000;
#CREDIT:MILEN;
#NOTES:
0000
0000
0000
0000
,
0000
0000
0000
0000
,
1000
0000
1000
0000
,
0001
0000
0001
0000
,
1000
0000
1000
0000
,
0001
0000
0001
0000
,
0100
0000
0100
0000
,
0010
0000
0010
0000
,
0100
0000
0100
0000
,
0010
0000
0010
0000
,
1000
0000
0100
0000
,
1000
0000
0100
0000
,
0010
0000
0001
0000
,
0010
0000
0001
0000
,
1000
0000
0010
0000
,
1000
0000
0010
0000
,
0100
0000
0001
0000
,
0100
0000
0001
0000
,
1000
0000
1000
0000
,
1000
0000
0000
0000
,
0010
0000
0010
0000
,
0010
0000
0000
0000
,
0001
0000
0001
0000
,
0001
0000
0000
0000
,
0100
0000
0100
0000
,
0100
0000
0000
0000
,
1001
0000
0000
0000
,
1001
0000
0000
0000
,
1001
0000
0000
0000
,
1001
0000
0000
0200
,
0300
0100
0000
0100
,
0000
0010
0000
0010
,
0000
0010
0000
1000
,
0000
0001
0000
0001
,
0000
0100
0000
0100
,
0100
0010
0000
0010
,
0000
1000
0000
0001
,
0000
0001
0000
0010
,
0000
0001
0000
0010
,
0000
0100
0000
1000
,
0000
0100
0000
1000
,
0000
0010
0000
1000
,
0000
0010
0000
1000
,
0000
0001
0000
0100
,
0000
0001
0000
0100
,
0000
0001
0000
0001
,
0000
0001
0000
0000
,
0000
0010
0000
0010
,
0000
0010
0000
0000
,
0000
1000
0000
1000
,
0000
1000
0000
0000
,
0000
0100
0000
0100
,
0000
0100
0000
0000
,
0000
0110
0000
0000
,
0000
0110
0000
0000
,
0000
0110
0000
0000
,
0000
0110
0000
0000
,
0000
0001
0000
0010
,
0000
0100
0000
1000
,
0000
0001
0000
0010
,
0000
0100
0000
1000
,
0000
0020
0000
0030
,
0000
0020
0000
0030
,
0010
0000
0000
0000
;

//---------------dance-single - ----------------
#NOTEDATA:;
#CHARTNAME:;
#STEPSTYPE:dance-single;
#DESCRIPTION:;
#CHARTSTYLE:;
#DIFFICULTY:Easy;
#METER:5;
#RADARVALUES:0.221164,0.320415,0.160736,0.126897,0.000000,183.000000,164.000000,19.000000,15.000000,0.000000,0.000000,0.000000,0.000000,0.000000,0.221164,0.320415,0.160736,0.126897,0.000000,183.000000,164.000000,19.000000,15.000000,0.000000,0.000000,0.000000,0.000000,0.000000;
#CREDIT:MILEN;
#NOTES:
0000
0000
0000
0000
,
0000
0000
0000
0000
,
1000
0000
1000
0000
,
1000
1000
1000
0000
,
0001
0000
0001
0000
,
0001
0001
0001
0000
,
1000
0000
0001
0000
,
1000
0001
1000
0000
,
0001
0000
1000
0000
,
0001
1000
0001
1001
,
0010
0100
0010
0000
,
0010
0100
0001
0000
,
0100
0010
1000
0000
,
0010
0100
0010
0110
,
1000
0001
0100
0000
,
0001
1000
0010
0000
,
1000
0001
0100
0001
,
1000
0010
1000
1001
,
0010
0000
0010
0000
,
0001
0000
0001
0000
,
0100
0000
0100
0000
,
1000
1000
0010
0110
,
0100
0000
0100
0000
,
1000
0000
1000
0000
,
0010
0000
0010
0000
,
0001
0001
0100
0110
,
0020
0000
0000
0030
,
2000
0000
0000
3000
,
0002
0000
0000
0003
,
0200
0000
0000
0020
,
0330
1001
0001
1000
,
0001
1001
1000
1001
,
0001
1000
0001
0100
,
0110
1000
0100
1000
,
1000
0001
0010
0001
,
0100
1000
0010
1000
,
0010
0001
0100
0001
,
1001
1000
0100
0010
,
0000
0001
0010
0100
,
0000
1000
0010
0100
,
0000
0001
0100
0010
,
0110
1000
0010
0001
,
0000
0001
0100
1000
,
0000
2002
0000
0000
,
0000
0000
0000
3003
,
1001
0100
0000
0100
,
0000
1000
0000
1000
,
0000
0010
0000
0010
,
0000
0001
0010
0100
,
0110
0010
0000
0010
,
0000
0001
0000
0001
,
0000
0100
0000
0100
,
0000
1000
0100
0010
,
0110
0002
0000
0003
,
0000
2000
0000
3000
,
0000
0020
0000
0030
,
0000
0200
0000
0300
,
0000
0010
1000
1100
,
0000
0100
0001
0011
,
0000
0100
1000
1010
,
0000
0010
0001
0101
,
0000
2000
3000
0002
,
0003
2000
3000
0002
,
0103
0100
0000
0000
0000
0000
0000
0000
;

//---------------dance-double - ----------------
#NOTEDATA:;
#CHARTNAME:;
#STEPSTYPE:dance-double;
#DESCRIPTION:;
#CHARTSTYLE:;
#DIFFICULTY:Easy;
#METER:5;
#RADARVALUES:0.217538,0.319781,0.160736,0.160736,0.000000,180.000000,161.000000,19.000000,19.000000,0.000000,0.000000,0.000000,0.000000,0.000000,0.217538,0.319781,0.160736,0.160736,0.000000,180.000000,161.000000,19.000000,19.000000,0.000000,0.000000,0.000000,0.000000,0.000000;
#CREDIT:MILEN;
#NOTES:
00000000
00000000
00000000
00000000
,
00000000
00000000
00000000
00000000
,
00001000
00000000
00001000
00000000
,
00001000
00001000
00001000
00000000
,
00010000
00000000
00010000
00000000
,
00010000
00010000
00010000
00000000
,
00001000
00000000
00010000
00000000
,
00001000
00010000
00001000
00000000
,
00010000
00000000
00001000
00000000
,
00010000
00001000
00010000
00011000
,
00001000
01000000
00001000
00000000
,
00010000
00000010
00010000
00000000
,
00001000
00100000
00001000
00000000
,
00010000
00000100
00010000
00011000
,
00001000
01000000
00010000
00000000
,
01000000
00001000
00010000
00000000
,
00000010
00010000
00001000
00000000
,
00010000
00000010
00001000
00001001
,
00000001
00000000
00000001
00000000
,
00000100
00000000
00000100
00000000
,
00001000
00000000
00001000
00000000
,
00010000
00100000
00100000
10010000
,
10000000
00000000
10000000
00000000
,
01000000
00000000
01000000
00000000
,
00010000
00000000
00010000
00000000
,
00001000
00001000
00000010
00001001
,
00000002
00000000
00000000
00000003
,
00000200
00000000
00000000
00000300
,
00000020
00000000
00000000
00000030
,
00020000
00000000
00000000
00002000
,
00033000
00011000
00010000
00001000
,
00010000
00011000
01000000
00011000
,
00000010
00010000
00001000
00010000
,
00011000
00001000
00100000
01000000
,
00010000
00001000
00000010
00000100
,
00000100
00000010
00000001
00000100
,
00001000
00010000
00100000
10000000
,
10010000
00010000
01000000
00001000
,
00000000
00010000
00001000
00100000
,
00000000
00001000
00010000
00000100
,
00000000
00010000
00000010
00001000
,
00001001
00000001
00000100
00001000
,
00000000
00010000
00100000
10000000
,
00000000
20020000
00000000
00000000
,
00000000
00000000
00000000
30030000
,
10010000
10000000
00000000
00100000
,
00000000
00010000
00000000
00001000
,
00000000
00000100
00000000
00000001
,
00000000
00000010
00000100
00000010
,
00000110
00000001
00000000
00000100
,
00000000
00001000
00000000
00010000
,
00000000
00100000
00000000
10000000
,
00000000
01000000
00100000
01000000
,
01100000
20000000
00000000
30000000
,
00000000
00020000
00000000
00030000
,
00000000
00002000
00000000
00003000
,
00000000
00000002
00000000
00000003
,
00000000
00000010
00001000
00010000
,
00000000
00100000
00010000
00001000
,
00000000
00000100
00001000
00010000
,
00000000
01000000
00010000
00001000
,
00000000
00022000
00033000
00022000
,
00033000
00022000
00033000
00022000
,
00033000
00000000
00000000
00000000
;

//---------------dance-single - ----------------
#NOTEDATA:;
#CHARTNAME:;
#STEPSTYPE:dance-single;
#DESCRIPTION:;
#CHARTSTYLE:;
#DIFFICULTY:Medium;
#METER:8;
#RADARVALUES:0.338392,0.453921,0.093058,0.101518,0.000000,280.000000,269.000000,11.000000,12.000000,0.000000,0.000000,0.000000,0.000000,0.000000,0.338392,0.453921,0.093058,0.101518,0.000000,280.000000,269.000000,11.000000,12.000000,0.000000,0.000000,0.000000,0.000000,0.000000;
#CREDIT:MILEN;
#NOTES:
0000
0000
0000
0000
,
0000
0000
0000
0000
,
1000
0100
1000
1000
,
0001
0100
0001
0001
,
1000
0010
1000
1000
,
0001
0010
0001
1001
,
1000
0100
0010
0010
,
0001
0100
0010
0010
,
1000
0010
0100
0100
,
0001
0010
0100
1001
,
1000
0000
0010
0000
1000
0100
1000
0000
,
0001
0000
0100
0000
0001
0010
0001
0000
,
1000
0000
0010
0000
0100
0010
0100
0000
,
0001
0000
0100
0000
0010
0100
0010
0000
,
1000
0000
0010
0000
0001
0100
0001
0000
,
0001
0000
0100
0000
1000
0010
1000
0000
,
1000
0000
0001
0000
0010
0100
0010
0000
,
0001
0000
1000
0000
0100
0010
0100
0000
,
1000
0000
0001
0000
1000
0010
1000
1000
,
0000
0000
0001
0000
1000
0100
1000
1000
,
0000
0010
0001
0100
,
1000
0000
0010
0100
0010
0000
0110
0000
,
0001
0000
1000
0000
0001
0100
0001
0001
,
0000
0000
1000
0000
0001
0010
0001
0001
,
0000
0100
1000
0010
,
0001
0000
0100
0010
0100
0000
0110
0000
,
2000
0000
0000
3000
,
0020
0000
0000
0030
,
0002
0000
0000
0003
,
0200
0000
0020
0000
,
0330
0000
1000
0100
0010
0000
0010
0001
,
0100
0000
0010
1000
0010
0000
0100
0001
,
0100
0000
0010
1000
0010
0100
0001
0100
,
0001
0000
1000
0010
0100
0000
0100
0001
,
0010
0000
0010
0100
1000
0000
1010
0000
,
0101
0000
0001
1000
0100
1000
0001
1000
,
0100
0000
1000
0001
0010
0001
1000
0001
,
1001
0000
1000
0000
0100
0000
0001
0010
,
0001
0000
0001
0000
0010
0000
1000
0100
,
1000
0000
1000
0000
0001
0000
0010
0100
,
0010
0000
0001
0000
1000
0000
0100
0010
,
0100
0000
1000
0000
0010
0000
0001
0100
,
1000
0000
0001
0000
0010
0000
1000
0100
,
0001
2000
0000
3002
,
0000
0203
0000
0310
,
0110
0000
0001
0000
0100
0000
1000
0010
,
0100
0100
0000
0000
0010
0000
0100
0001
,
0010
0010
0000
0000
1000
0000
0100
0000
,
0001
0000
0010
0000
1000
0001
1000
0000
,
0110
0000
1000
0000
0010
0000
0001
0100
,
0010
0010
0000
0000
0100
0000
0010
1000
,
0100
0100
0000
0000
0001
0000
0010
0000
,
1000
0000
0100
0000
0001
1000
0001
0000
,
0110
2000
0000
0000
,
3000
0020
0000
0000
,
0030
0002
0000
0000
,
0003
0200
0000
0000
,
0300
0000
1000
0010
0100
0000
0010
1000
,
0100
0000
1000
0001
0010
0000
0001
1000
,
0010
0000
0100
0001
0010
0000
0001
0100
,
0010
0000
1000
0001
0100
0000
0001
1000
,
0100
0000
0110
0000
0010
0001
0000
0000
,
0001
0100
0000
0000
0100
1000
0000
0000
,
1000
0010
0000
0000
0000
0000
0000
0000
;

//---------------dance-double - ----------------
#NOTEDATA:;
#CHARTNAME:;
#STEPSTYPE:dance-double;
#DESCRIPTION:;
#CHARTSTYLE:;
#DIFFICULTY:Medium;
#METER:8;
#RADARVALUES:0.329932,0.373818,0.084598,0.101518,0.000000,273.000000,263.000000,10.000000,12.000000,0.000000,0.000000,0.000000,0.000000,0.000000,0.329932,0.373818,0.084598,0.101518,0.000000,273.000000,263.000000,10.000000,12.000000,0.000000,0.000000,0.000000,0.000000,0.000000;
#CREDIT:MILEN;
#NOTES:
// measure 0
00000000
00000000
00000000
00000000
,  // measure 1
00000000
00000000
00000000
00000000
,  // measure 2
00001000
01000000
00001000
00001000
,  // measure 3
00010000
00000100
00010000
00010000
,  // measure 4
00001000
00100000
00001000
00001000
,  // measure 5
00010000
00000010
00010000
00011000
,  // measure 6
00001000
00100000
00010000
00010000
,  // measure 7
01000000
00001000
00100000
00100000
,  // measure 8
00010000
01000000
00001000
00001000
,  // measure 9
00010000
00000100
00001000
00001001
,  // measure 10
00000001
00000000
00000100
00000000
00001000
00010000
00001000
00000000
,  // measure 11
00000100
00000000
00000001
00000000
00000010
00000100
00000010
00000000
,  // measure 12
00000001
00000000
00000100
00000000
00001000
00010000
00001000
00000000
,  // measure 13
00000100
00000000
00000001
00000000
00000010
00001000
00000010
00000000
,  // measure 14
00000001
00000000
00000100
00000000
00001000
00010000
00001000
00000000
,  // measure 15
00010000
00000000
01000000
00000000
10000000
00010000
10000000
00000000
,  // measure 16
00100000
00000000
00010000
00000000
00001000
00010000
00001000
00000000
,  // measure 17
00000010
00000000
00000001
00000000
00001000
00000100
00001000
00000000
,  // measure 18
00000001
00000000
00000100
00000000
00001000
00010000
00001000
00001000
,  // measure 19
00000000
00000000
01000000
00000000
00001000
00010000
00001000
00001000
,  // measure 20
00000000
00100000
00010000
01000000
,  // measure 21
00001000
00100000
01000000
01100000
,  // measure 22
10000000
00000000
00100000
00000000
00010000
00001000
00010000
00010000
,  // measure 23
00000000
00000000
00000010
00000000
00010000
00001000
00010000
00010000
,  // measure 24
00000000
00000100
00001000
00000010
,  // measure 25
00010000
00000100
00000010
00000110
,  // measure 26
00000002
00000000
00000000
00000003
,  // measure 27
00000020
00000000
00000000
00000030
,  // measure 28
00000200
00000000
00000000
00000300
,  // measure 29
00020000
00000000
00002000
00000000
,  // measure 30
00033000
00000000
00001000
00100000
00010000
00000000
00010000
01000000
,  // measure 31
00100000
00000000
00100000
10000000
00100000
00000000
01000000
00010000
,  // measure 32
01000000
00000000
00001000
00010000
00001000
00010000
00000100
00001000
,  // measure 33
00000100
00000000
00000100
00000010
00000001
00000000
00000001
00000100
,  // measure 34
00001000
00000000
00001000
00010000
00100000
00000000
01100000
00000000
,  // measure 35
10010000
00000000
10000000
01000000
00100000
00000000
01000000
00010000
,  // measure 36
00001000
00000000
00010000
00001000
00000010
00000000
00000100
00000010
,  // measure 37
00000001
00000000
00000100
00000000
00001000
00000000
00010000
00001000
,  // measure 38
00010000
00000000
01000000
00000000
00010000
00000000
00001000
00010000
,  // measure 39
00001000
00000000
00000010
00000000
00001000
00000000
00010000
00001000
,  // measure 40
00010000
00000000
00100000
00000000
00010000
00000000
00001000
00010000
,  // measure 41
00001000
00000000
00000010
00000000
00000001
00000000
00000100
00001000
,  // measure 42
00010000
00000000
01000000
00000000
10000000
00000000
00100000
00010000
,  // measure 43
00001000
00000020
00000000
00002030
,  // measure 44
00000000
00023000
00000000
00130000
,  // measure 45
01100000
00000000
10000000
00000000
00100000
00000000
00010000
00001000
,  // measure 46
00010000
00010000
00000000
00000000
00000100
00000000
00010000
00001000
,  // measure 47
00010000
00010000
00000000
00000000
00000010
00000000
00001000
00000000
,  // measure 48
00000100
00000010
00000001
00001000
,  // measure 49
00000110
00000000
00000001
00000000
00000100
00000000
00001000
00010000
,  // measure 50
00001000
00001000
00000000
00000000
00100000
00000000
00001000
00010000
,  // measure 51
00001000
00001000
00000000
00000000
01000000
00000000
00010000
00000000
,  // measure 52
00100000
01000000
10000000
00010000
,  // measure 53
01100000
20000000
00000000
00000000
,  // measure 54
30000000
00200000
00000000
00000000
,  // measure 55
00300000
00020000
00000000
00000000
,  // measure 56
00030000
00002000
00000000
00000000
,  // measure 57
00003000
00000000
00000100
00000001
00000010
00000000
00000001
00000100
,  // measure 58
00000010
00000000
00001000
00000100
00010000
00000000
00001000
00100000
,  // measure 59
00010000
00000000
00100000
01000000
10000000
00000000
00010000
00100000
,  // measure 60
01000000
00000000
00010000
00001000
00000010
00000000
00001000
00010000
,  // measure 61
00100000
00000000
01100000
00000000
10000000
01000000
00000000
00000000
,  // measure 62
01000000
00010000
00000000
00000000
00010000
00001000
00000000
00000000
,  // measure 63
00001000
00000010
00000000
00000000
00000000
00000000
00000000
00000000
;
