#VERSION:0.83;
#TITLE:Binary Star;
#SUBTITLE:;
#ARTIST:Synthwulf;
#TITLETRANSLIT:;
#SUBTITLETRANSLIT:;
#ARTISTTRANSLIT:;
#GENRE:VARIETY;
#ORIGIN:;
#CREDIT:MUINELIM;
#BANNER:Binary Star.png;
#BACKGROUND:Binary Star-bg.png;
#PREVIEWVID:;
#JACKET:Binary Star-jacket.png;
#CDIMAGE:;
#DISCIMAGE:;
#LYRICSPATH:;
#CDTITLE:;
#MUSIC:Binary Star.mp3;
#OFFSET:-0.088000;
#SAMPLESTART:46.600243;
#SAMPLELENGTH:12.312939;
#SELECTABLE:YES;
#BPMS:0.000=170.000;
#STOPS:;
#DELAYS:;
#WARPS:;
#TIMESIGNATURES:0.000=4=4;
#TICKCOUNTS:0.000=4;
#COMBOS:0.000=1;
#SPEEDS:0.000=1.000=0.000=0;
#SCROLLS:0.000=1.000;
#FAKES:;
#LABELS:0.000=Song Start;
#BGCHANGES:;
#KEYSOUNDS:;
#ATTACKS:
;

//---------------dance-single - ----------------
#NOTEDATA:;
#CHARTNAME:;
#STEPSTYPE:dance-single;
#DESCRIPTION:;
#CHARTSTYLE:;
#DIFFICULTY:Hard;
#METER:16;
#RADARVALUES:0.825772,0.991662,0.318531,0.131160,0.697958,617.000000,583.000000,34.000000,14.000000,0.000000,0.000000,0.000000,0.000000,0.000000,0.825772,0.991662,0.318531,0.131160,0.697958,617.000000,583.000000,34.000000,14.000000,0.000000,0.000000,0.000000,0.000000,0.000000;
#CREDIT:MILEN;
#NOTES:
0000
0000
0000
0000
,
0000
0000
0000
0000
,
0000
0000
0000
0000
,
0000
0000
0000
0000
,
0000
0000
0000
0000
,
0000
0000
0000
0000
,
0000
0000
0000
0000
,
0000
0000
0000
0000
,
0000
0000
0000
0000
,
1010
0000
0101
0000
,
0000
0011
0000
0000
1100
0000
0000
0000
,
1010
0000
0101
0000
,
0000
0011
0000
0000
1100
0000
0000
0000
,
0110
0000
1001
0000
,
0000
0101
0000
0000
1010
0000
0000
0000
,
1100
1000
0001
0011
0000
0010
0110
0100
,
1000
0010
1000
0010
1000
0001
1000
0001
0100
0001
0100
0001
0020
0000
0030
0000
,
0010
0001
0010
0000
0001
0100
0001
0000
1000
0010
1000
0000
0100
1000
0100
0000
,
0010
0100
0010
0000
0001
0100
0001
0000
0010
0001
0010
0000
0100
1000
0100
0000
,
1000
0010
1000
0000
0001
1000
0001
0000
0100
0010
1000
0000
0010
0100
0001
0000
,
0100
0010
1000
0000
0010
0100
0001
0000
1000
0100
0010
0000
0001
0010
0100
0000
,
1100
0000
0000
1000
0010
0000
0100
0000
0100
0000
0000
1000
0001
0000
0100
0000
,
0100
0000
0000
1000
0010
0000
0100
0000
0100
0000
0000
1000
0001
0000
0100
0000
,
0101
0000
0000
0001
1000
0000
0010
0000
0010
0000
0000
0001
0100
0000
0010
0000
,
0010
1000
0010
1000
0100
0010
0100
0010
0001
0000
0100
0010
2000
0000
3000
0000
,
0001
0010
0001
0010
0100
0000
1000
0000
0010
0000
0100
0000
0001
0000
1000
0000
,
0001
0010
0001
0010
0100
0000
1000
0000
0010
0000
0100
0000
0110
0000
0000
0000
,
0010
1000
0010
1000
0100
0000
0010
0000
0001
0000
1000
0000
0010
0000
0100
0000
,
0010
1000
0010
1000
0100
0000
0010
0000
0001
0000
0100
0000
0110
0000
0000
0000
,
0010
0100
0010
0100
0001
0000
1000
0000
0100
0000
0010
0000
0001
0000
0100
0000
,
0010
0100
0010
0100
0001
0000
1000
0000
0100
0000
0010
0000
0001
0000
0100
0000
,
0010
1000
0010
1000
0001
0000
0100
0000
0010
1000
0010
1000
0001
0000
0100
0000
,
0120
0000
0000
0001
0001
0000
1000
1030
,
1000
0100
1000
0100
0020
0000
0030
0000
0001
0010
0100
0000
1000
0010
0100
0000
,
0001
0010
0100
0000
1000
0010
0100
0000
0001
1000
0100
0000
0010
0000
0100
0000
,
0110
0010
0100
1000
1100
0100
0010
0001
,
0011
0010
0100
1000
1001
0001
0100
0010
,
1000
0001
0010
0000
0001
1000
0100
0000
1000
0001
0100
0000
0001
1000
0010
0000
,
1000
0100
0010
0000
0001
0100
0010
0000
1000
0100
0010
0000
0001
0100
0010
0000
,
1000
0001
0100
0001
1000
0000
0010
0000
0100
0001
0010
0001
0100
0000
0010
0000
,
1000
0100
1000
0100
0010
0100
0010
0100
0010
0001
0010
0001
2000
0000
3000
0000
,
0001
0100
0001
0100
0020
0000
0030
0000
1000
0010
0100
0000
0001
0010
0100
0000
,
1000
0010
0100
0000
0001
0010
0100
0000
1000
0001
0100
0000
0010
0000
0100
0000
,
0110
0010
0100
0001
0101
0100
0010
1000
,
1010
0010
0100
0001
1001
1000
0100
0010
,
0001
1000
0010
0000
1000
0001
0100
0000
0001
1000
0100
0000
1000
0001
0010
0000
,
0001
0100
0010
0000
1000
0100
0010
0000
0001
0100
0010
0000
1000
0100
0010
0000
,
0001
0010
0100
0010
0001
0000
0100
0000
0001
1000
0010
1000
0001
0000
0100
0000
,
0010
1000
0010
1000
0100
0010
0100
0010
0001
0100
0001
0100
0020
0000
0030
0000
,
1000
1000
0100
0100
,
0001
0001
0010
0010
,
1000
0010
0001
0100
,
1000
0010
0100
1001
,
0001
0100
0010
0100
1000
0100
0010
0100
,
0001
0010
0100
0010
1000
0010
0100
0010
,
0001
0100
1000
0001
0010
1000
0100
0010
,
0001
0100
0001
0100
0010
1000
0010
1000
0001
0010
0100
1000
0020
0000
0030
0000
,
0100
0001
0010
0000
0001
0000
0100
0000
0010
0100
0001
0000
0010
0000
0001
0000
,
0100
0010
1000
0000
0100
0010
0001
0000
0100
0010
1000
0001
0200
0000
0300
0000
,
0010
1000
0100
0000
1000
0000
0010
0000
0100
0010
1000
0000
0100
0000
1000
0000
,
0010
0100
0001
0000
0010
0100
1000
0000
0010
0100
0001
1000
0020
0000
0030
0000
,
0100
0100
0001
0001
0010
0010
1000
1000
,
0001
0001
0100
0100
1000
1000
0010
0010
,
0110
0000
0101
1000
1010
0000
2002
3003
,
0001
0010
0100
0010
0100
1000
0100
0010
0200
0000
0000
0000
0301
0000
0000
0000
,
0001
0100
1000
0000
0010
0000
0100
0000
1000
0100
0001
0000
0010
0000
0100
0000
,
1000
0010
0001
0000
0010
0000
0100
0000
0001
0010
1000
0000
0010
0000
0100
0000
,
1000
0010
0100
0000
1000
0000
0100
0000
0001
0100
0010
0000
0001
0000
0010
0000
,
1000
0100
0010
0000
1000
0000
0010
0000
0001
0010
0100
1000
0020
0000
0030
0000
,
0010
0100
0001
0000
0010
0100
1000
0000
0001
0010
0100
0000
1000
0010
0100
0000
,
0001
1000
0100
0000
0010
0100
1000
0000
0001
1000
0010
0000
0100
0010
0001
0000
,
0010
0100
0001
1000
0100
0000
0010
0000
0100
1000
0001
0100
0010
0000
0100
0000
,
0001
0010
0001
0010
0001
0100
0001
0100
0010
1000
0010
1000
0100
0010
0001
0000
,
0110
0000
0000
0000
;

//---------------dance-double - ----------------
#NOTEDATA:;
#CHARTNAME:;
#STEPSTYPE:dance-double;
#DESCRIPTION:;
#CHARTSTYLE:;
#DIFFICULTY:Hard;
#METER:16;
#RADARVALUES:0.788297,0.923272,0.327900,0.103054,0.552745,589.000000,554.000000,35.000000,11.000000,0.000000,0.000000,0.000000,0.000000,0.000000,0.788297,0.923272,0.327900,0.103054,0.552745,589.000000,554.000000,35.000000,11.000000,0.000000,0.000000,0.000000,0.000000,0.000000;
#CREDIT:MILEN;
#NOTES:
00000000
00000000
00000000
00000000
,
00000000
00000000
00000000
00000000
,
00000000
00000000
00000000
00000000
,
00000000
00000000
00000000
00000000
,
00000000
00000000
00000000
00000000
,
00000000
00000000
00000000
00000000
,
00000000
00000000
00000000
00000000
,
00000000
00000000
00000000
00000000
,
00000000
00000000
00000000
00000000
,
01001000
00000000
00011000
00000000
,
00000000
00010100
00000000
00000000
00001100
00000000
00000000
00000000
,
00001010
00000000
00010010
00000000
,
00000000
00011000
00000000
00000000
00101000
00000000
00000000
00000000
,
00110000
00000000
01010000
00000000
,
00000000
01100000
00000000
00000000
10010000
00000000
00000000
00000000
,
10000000
01000000
00010000
00001000
00000000
00010000
00011000
00001000
,
00100000
00010000
00100000
00010000
00100000
00001000
00100000
00001000
00010000
00001000
00010000
00001000
00020000
00000000
00030000
00000000
,
00001000
00010000
00001000
00000000
00010000
00000000
00100000
00000000
10000000
00100000
10000000
00000000
00100000
00000000
10000000
00000000
,
01000000
10000000
01000000
00000000
10000000
00000000
01000000
00000000
00010000
01000000
00010000
00000000
01000000
00000000
00010000
00000000
,
00001000
00010000
00001000
00000000
00010000
00000000
00001000
00000000
00000010
00001000
00000010
00000000
00001000
00000000
00000010
00000000
,
00000001
00000010
00000001
00000000
00000010
00000000
00000001
00000000
00000100
00000001
00000100
00000000
00000001
00000000
00000100
00000000
,
00001100
00000000
00000000
00001000
00010000
00000000
01000000
00000000
10000000
00000000
00000000
01000000
00010000
00000000
00001000
00000000
,
00000010
00000000
00000000
00001000
00010000
00000000
01000000
00000000
10000000
00000000
00000000
01000000
00010000
00000000
00001000
00000000
,
00011000
00000000
00000000
00010000
00001000
00000000
00000010
00000000
00000001
00000000
00000000
00000010
00001000
00000000
00010000
00000000
,
00001000
00100000
00001000
00100000
00010000
00100000
00010000
00100000
01000000
00000000
10000000
00100000
02000000
00000000
03000000
00000000
,
00010000
10000000
00010000
10000000
00010000
00000000
01000000
00000000
00001000
00000000
00010000
00000000
00000100
00000000
00000010
00000000
,
00000001
00001000
00000001
00001000
00000001
00000000
00000100
00000000
00001000
00000000
00010000
00000000
00011000
00000000
00000000
00000000
,
00001000
00100000
00001000
00100000
00001000
00000000
00010000
00000000
00000100
00000000
00000010
00000000
00000001
00000000
00000100
00000000
,
00001000
01000000
00001000
01000000
00001000
00000000
00010000
00000000
00100000
00000000
10000000
00000000
10010000
00000000
00000000
00000000
,
00010000
01000000
00010000
01000000
00010000
00000000
10000000
00000000
01000000
00000000
00100000
00000000
00001000
00000000
00010000
00000000
,
00000100
00001000
00000100
00001000
00000100
00000000
00000010
00000000
00000001
00000000
00000100
00000000
00001000
00000000
00010000
00000000
,
00100000
10000000
00100000
00000000
00010000
00000000
00001000
00000000
00000100
00000001
00000100
00000000
00001000
00000000
00010000
00000000
,
00012000
00000000
00000000
00000010
00000010
00000000
00100000
00103000
,
00100000
00010000
00100000
01000000
20000000
00000000
30000000
00000000
01000000
00100000
00010000
00000000
00100000
00000000
00001000
00000000
,
00010000
00001000
00000100
00000000
00001000
00000000
00000100
00000000
00000001
00000010
00000100
00000000
00010000
00000000
00001000
00000000
,
00011000
00010000
00000100
00000010
00000110
00000010
00000100
00010000
,
00011000
00001000
00100000
01000000
01100000
01000000
00100000
00001000
,
00010000
00001000
00000100
00000000
00001000
00000000
00000100
00000000
00001000
00000100
00000010
00000000
00000100
00000000
00000010
00000000
,
00000100
00000010
00000001
00000000
00001000
00000000
00000100
00000000
00000001
00000000
00000010
00000000
00001000
00000000
00010000
00000000
,
00100000
10000000
00100000
00000000
01000000
00010000
01000000
00000000
00001000
00010000
00001000
00000000
00000010
00000001
00000010
00000000
,
00000100
00001000
00000100
00001000
00000001
00000000
00000100
00000000
00000010
00001000
00000010
00001000
00000001
00000000
00001000
00000000
,
00000010
00001000
00000010
00000100
00000002
00000000
00000003
00000000
00000100
00000010
00001000
00000000
00000010
00000000
00010000
00000000
,
00001000
00010000
01000000
00000000
00010000
00000000
01000000
00000000
10000000
00100000
01000000
00000000
00001000
00000000
00010000
00000000
,
00011000
00001000
01000000
00100000
01100000
00100000
01000000
00001000
,
00011000
00010000
00000010
00000100
00000110
00000100
00000010
00010000
,
00001000
00010000
01000000
00000000
00010000
00000000
01000000
00000000
00010000
01000000
00100000
00000000
01000000
00000000
00100000
00000000
,
01000000
00100000
10000000
00000000
00010000
00000000
01000000
00000000
10000000
00000000
00100000
00000000
00010000
00000000
00001000
00000000
,
00000010
00000001
00000010
00000000
00000100
00001000
00000100
00000000
00010000
00001000
00010000
00000000
00100000
10000000
00100000
00000000
,
01000000
00010000
01000000
00010000
10000000
00000000
01000000
00000000
00100000
00010000
00100000
00010000
10000000
00000000
00010000
00000000
,
10000000
10000000
00100000
00100000
,
00010000
00010000
00001000
00001000
,
00000100
00000100
00000001
00000001
,
00000010
00001000
00010000
00011000
,
00001000
00010000
01000000
00010000
00001000
00010000
00100000
00010000
,
00001000
00000010
00001000
00010000
00001000
00000100
00001000
00010000
,
00100000
10000000
01000000
00010000
00001000
00000010
00000001
00000100
,
00001000
00010000
00001000
00010000
00001000
00100000
00001000
00100000
00010000
00100000
00010000
00100000
02000000
00000000
03000000
00000000
,
10000000
00100000
01000000
00000000
00100000
00000000
10000000
00000000
01000000
10000000
00100000
00000000
01000000
00000000
00100000
00000000
,
10000000
01000000
00100000
00000000
01000000
00100000
00010000
00000000
00100000
00001000
00010000
00001000
00000020
00000000
00000030
00000000
,
00000001
00000010
00000100
00000000
00000010
00000000
00000001
00000000
00000100
00000001
00000010
00000000
00000100
00000000
00000010
00000000
,
00000001
00000100
00000010
00000000
00000100
00000010
00001000
00000000
00000010
00010000
00001000
00010000
00200000
00000000
00300000
00000000
,
10000000
01000000
00010000
00001000
00000010
00000001
00000100
00001000
,
00010000
01000000
10000000
00100000
00010000
00001000
00000010
00000001
,
00001001
00000000
00001100
00010000
00011000
00000000
02002000
03003000
,
01000000
00010000
01000000
00001000
00010000
00001000
00010000
00000100
00000010
00000000
00000000
00000000
00001001
00000000
00000000
00000000
,
00000001
00000100
00001000
00000000
00010000
00000000
00001000
00000000
00010000
01000000
10000000
00000000
00100000
00000000
00010000
00000000
,
00001000
00100000
00001000
00000000
00010000
00000010
00010000
00000000
00001000
01000000
00001000
00000000
00010000
00000100
00010000
00000000
,
00001000
00010000
01000000
00000000
10000000
00000000
00100000
00000000
00010000
00001000
00000100
00000000
00000001
00000000
00000010
00000000
,
00001000
00010000
00000100
00000000
00010000
00001000
01000000
00000000
00001000
00010000
00000010
00000000
00010000
00001000
00100000
00000000
,
01000000
00100000
00010000
00000000
10000000
01000000
00100000
00000000
00001000
00000000
00010000
00000000
00001000
00000000
00011000
00000000
,
00000100
00000010
00000001
00000000
00001000
00000100
00000010
00000000
00001000
00000000
00010000
00000000
00001000
00000000
00011000
00000000
,
00010000
00001000
00010000
01000000
10000000
00000000
01000000
00000000
00010000
00001000
00010000
00000100
00000010
00000000
00000001
00000000
,
00000100
00001000
00000100
00001000
00010000
00001000
00010000
00001000
00010000
00100000
20000000
00000000
30000000
00000000
00010000
00000000
,
00011000
00000000
00000000
00000000
;

//---------------dance-single - ----------------
#NOTEDATA:;
#CHARTNAME:;
#STEPSTYPE:dance-single;
#DESCRIPTION:;
#CHARTSTYLE:;
#DIFFICULTY:Medium;
#METER:13;
#RADARVALUES:0.584866,0.649710,0.356005,0.009369,0.000000,437.000000,399.000000,38.000000,1.000000,0.000000,0.000000,0.000000,0.000000,0.000000,0.584866,0.649710,0.356005,0.009369,0.000000,437.000000,399.000000,38.000000,1.000000,0.000000,0.000000,0.000000,0.000000,0.000000;
#CREDIT:MILEN;
#NOTES:
0000
0000
0000
0000
,
0000
0000
0000
0000
,
0000
0000
0000
0000
,
0000
0000
0000
0000
,
0000
0000
0000
0000
,
0000
0000
0000
0000
,
0000
0000
0000
0000
,
0000
0000
0000
0000
,
0000
0000
0000
0000
,
1001
0000
0110
0000
,
0000
1010
0000
0000
0101
0000
0000
0000
,
0011
0000
1100
0000
,
0000
0110
0000
0000
1001
0000
0000
0000
,
0011
0000
1100
0000
,
0000
1010
0000
0000
0101
0000
0000
0000
,
1001
0001
0100
0020
0000
1030
1001
0000
,
0001
0100
0010
1000
0100
0010
0001
0000
,
1000
0010
1000
0000
0010
0001
0010
0000
,
0001
0100
0001
0000
1000
0100
1000
0000
,
0001
0010
0001
0000
0010
1000
0010
0000
,
1000
0100
1000
0000
0100
0001
0100
0000
,
0010
1000
0010
0100
0001
1000
0001
0000
,
0100
0001
0100
0010
1000
0001
1000
0000
,
0001
0010
0001
0100
0010
1000
0010
0000
,
1000
0100
1000
0010
0100
0001
0100
0000
,
0001
0010
0001
0010
0100
1000
0100
1000
,
0001
0100
0010
1000
0001
0010
0100
0000
,
1000
0010
1000
0010
0100
0001
0100
0001
,
1000
0100
0010
0001
1000
0010
0100
0000
,
0010
1000
0010
1000
0001
0100
0001
0100
,
0010
1000
0001
0010
0100
1000
0010
0000
,
0100
0001
1000
0100
0010
0001
0100
0010
,
0110
0000
1000
1000
,
1001
0000
0110
0000
0001
0100
0001
0100
,
1000
0100
1000
0100
0001
0010
0100
0000
,
1001
0000
0110
0000
1000
0010
1000
0010
,
0001
0010
0001
0010
1000
0100
0010
0000
,
1001
0000
1000
0100
0001
0000
0001
0010
,
1000
0000
1000
0100
0001
0000
0001
0010
,
1000
0100
0001
0100
1000
0010
0001
0010
,
1000
0100
0001
1000
0010
0001
0100
0000
,
0110
0000
1001
0000
0001
0010
1000
0010
,
0001
0010
1000
0010
0001
0100
0010
0000
,
0110
0000
1001
0000
1000
0100
0001
0100
,
1000
0100
0001
0100
1000
0010
0100
0000
,
0110
0000
1000
0010
0001
0000
0001
0100
,
1000
0000
1000
0010
0001
0000
0001
0100
,
1000
0010
0001
0010
1000
0100
0001
0100
,
1000
0010
0001
1000
0100
0001
0010
0000
,
0110
0000
1000
0010
0000
0010
0001
0000
,
0100
0010
1000
0001
,
0110
0000
0001
0100
0000
0100
1000
0000
,
0010
0100
0001
1000
,
0110
0000
0010
1000
0010
0000
0100
0001
,
0100
0000
0010
1000
0010
0100
1000
0100
,
0010
0000
0100
1000
0100
0000
0010
0001
,
0010
0000
0100
0010
1000
0001
1001
0000
,
1000
0100
0010
1000
0010
0100
1000
0000
,
0001
0010
0100
0001
0100
0010
0001
0000
,
1000
0010
0001
1000
0001
0010
1000
0000
,
0001
0100
1000
0001
1000
0100
0001
0000
,
0010
0100
0010
0100
1000
0001
1000
0001
,
0010
0100
1000
0010
0001
0100
1000
0000
,
1010
0000
0001
0101
0000
1000
1100
0000
,
0011
1100
0110
1001
,
0001
0010
0100
1000
0001
0010
0100
1000
,
0010
0001
0100
1000
0010
0001
0100
0100
,
1000
0010
0100
0001
1000
0010
0100
0001
,
0010
1000
0100
0001
0010
1000
0100
0100
,
0001
0010
0100
0001
1000
0010
0100
1000
,
0010
0001
0100
1000
0001
0100
0010
0010
,
1000
0100
0001
0010
1000
0001
0100
1000
,
0010
0010
0100
1000
0001
0010
0100
0110
,
1001
0000
0000
0000
;

//---------------dance-double - ----------------
#NOTEDATA:;
#CHARTNAME:;
#STEPSTYPE:dance-double;
#DESCRIPTION:;
#CHARTSTYLE:;
#DIFFICULTY:Medium;
#METER:12;
#RADARVALUES:0.535346,0.615514,0.393479,0.018737,0.000000,400.000000,358.000000,42.000000,2.000000,0.000000,0.000000,0.000000,0.000000,0.000000,0.535346,0.615514,0.393479,0.018737,0.000000,400.000000,358.000000,42.000000,2.000000,0.000000,0.000000,0.000000,0.000000,0.000000;
#CREDIT:MILEN;
#NOTES:
00000000
00000000
00000000
00000000
,
00000000
00000000
00000000
00000000
,
00000000
00000000
00000000
00000000
,
00000000
00000000
00000000
00000000
,
00000000
00000000
00000000
00000000
,
00000000
00000000
00000000
00000000
,
00000000
00000000
00000000
00000000
,
00000000
00000000
00000000
00000000
,
00000000
00000000
00000000
00000000
,
00011000
00000000
01001000
00000000
,
00000000
01010000
00000000
00000000
00110000
00000000
00000000
00000000
,
00101000
00000000
00011000
00000000
,
00000000
00010010
00000000
00000000
00001010
00000000
00000000
00000000
,
00001100
00000000
00010100
00000000
,
00000000
00011000
00000000
00000000
00011000
00000000
00000000
00000000
,
00011000
00010000
00001000
00010000
00000000
00001000
00011000
00000000
,
00010000
00000010
00010000
00001000
01000000
00001000
00011000
00000000
,
00010000
00001000
00000100
00000001
,
00000010
00001000
00010000
01000000
,
10000000
00100000
00010000
00001000
,
00000010
00000001
00000100
00001000
,
00010000
00000100
00001000
00000000
00000100
00010000
00001000
00000000
,
01000000
00001000
00010000
00000000
00001000
01000000
00010000
00000000
,
10000000
01000000
00100000
01000000
00010000
00001000
00000010
00000000
,
00000001
00000100
00000010
00000100
00001000
00010000
01000000
00000000
,
10000000
00100000
01000000
00010000
10000000
00100000
01000000
00010000
,
10000000
01000000
00010000
00011000
,
00000001
00000100
00000010
00001000
00000001
00000100
00000010
00001000
,
00000001
00000010
00001000
00011000
,
10000000
01000000
00100000
00010000
10000000
01000000
00100000
00010000
,
01000000
10000000
00010000
00011000
,
00000001
00000010
00000100
00001000
00000001
00000010
00000100
00001000
,
00000110
00000000
00000000
00010000
00010000
00000000
00001000
00000000
,
00011000
00000000
01010000
00000000
01000000
10000000
00100000
00010000
,
00100000
10000000
01000000
00000000
00010000
00000000
00001000
00000000
,
00011000
00000000
00001010
00000000
00000010
00000001
00000100
00001000
,
00000100
00000001
00000010
00000000
00001000
00000000
00010000
00000000
,
00011000
00000000
00001000
00100000
01000000
00000000
00100000
01000000
,
10000000
00000000
01000000
10000000
00100000
00000000
10000000
00100000
,
00010000
00001000
00100000
01000000
10000000
00100000
00010000
00001000
,
00100000
01000000
10000000
00100000
00010000
00001000
00010000
00000000
,
00011000
00000000
00001100
00000000
00000100
00000001
00000010
00001000
,
00000001
00000100
00001000
00000000
00000010
00000000
00010000
00000000
,
00011000
00000000
00110000
00000000
00100000
10000000
01000000
00010000
,
10000000
00100000
00010000
00000000
01000000
00000000
00001000
00000000
,
00011000
00000000
00010000
00000100
00000010
00000000
00000100
00000010
,
00000001
00000000
00000010
00000001
00000100
00000000
00000001
00000100
,
00001000
00010000
00001000
00000010
00000001
00000100
00001000
00010000
,
00001000
00000010
00000001
00000100
00001000
00010000
00001000
00000000
,
00011000
00010000
00010000
00010000
,
01001000
00001000
00001000
00001000
,
00010100
00010000
00010000
00010000
,
00010010
00001000
00001000
00001000
,
00101000
00100000
01000000
10000000
,
00100000
00010000
00001000
00000100
,
00000001
00000010
00000100
00001000
,
00000010
00000000
00010000
00001000
00010000
00001000
00010000
00000000
,
01000000
10000000
00100000
10000000
01000000
00010000
00001000
00000000
,
00000010
00000001
00000100
00000001
00000010
00001000
00010000
00000000
,
00100000
10000000
01000000
10000000
00100000
00010000
00001000
00000000
,
00000100
00000001
00000010
00000001
00000100
00001000
00010000
00000000
,
00100000
10000000
01000000
00010000
00001000
00000010
00000001
00000000
,
00000100
00000001
00000010
00001000
00010000
01000000
10000000
00000000
,
10100000
00000000
00010000
00011000
00001000
00000000
00000011
00000000
,
00002002
00003003
00001001
00000110
,
00000001
00000100
00001000
00010000
00100000
10000000
01000000
00100000
,
01000000
00010000
00001000
00010000
01000000
00100000
00010000
00000000
,
10000000
00100000
00010000
00001000
00000100
00000001
00000010
00000100
,
00000010
00001000
00010000
00001000
00000010
00000100
00001000
00000000
,
00000010
00000100
00001000
00000100
00000001
00000010
00000100
00010000
,
00001000
00100000
01000000
00010000
01000000
10000000
00010000
00000000
,
01000000
00100000
00010000
00100000
10000000
01000000
00100000
00001000
,
00010000
00000100
00000010
00001000
00000010
00000011
00000000
00000100
,
00010100
00000000
00000000
00000000
;

//---------------dance-single - ----------------
#NOTEDATA:;
#CHARTNAME:;
#STEPSTYPE:dance-single;
#DESCRIPTION:;
#CHARTSTYLE:;
#DIFFICULTY:Beginner;
#METER:3;
#RADARVALUES:0.129821,0.205171,0.000000,0.000000,0.000000,97.000000,97.000000,0.000000,0.000000,0.000000,0.000000,0.000000,0.000000,0.000000,0.129821,0.205171,0.000000,0.000000,0.000000,97.000000,97.000000,0.000000,0.000000,0.000000,0.000000,0.000000,0.000000,0.000000;
#CREDIT:MILEN;
#NOTES:
0000
0000
0000
0000
,
0000
0000
0000
0000
,
0000
0000
0000
0000
,
0000
0000
0000
0000
,
0000
0000
0000
0000
,
0000
0000
0000
0000
,
0000
0000
0000
0000
,
0000
0000
0000
0000
,
0000
0000
0000
0000
,
1000
0000
0000
0000
,
1000
0000
0000
0000
,
0001
0000
0000
0000
,
0001
0000
0000
0000
,
1000
0000
0000
0000
,
0001
0000
0000
0000
,
1000
0000
1000
0000
,
1000
1000
1000
0000
,
1000
0000
0000
0000
,
0000
0000
0000
0000
,
0100
0000
0000
0000
,
0000
0000
0000
0000
,
0010
0000
0000
0000
,
0000
0000
0000
0000
,
0001
0000
0000
0000
,
0001
0000
0001
0001
,
0001
0000
0100
0000
,
0001
0000
0000
0000
,
1000
0000
0010
0000
,
1000
0000
0000
0000
,
0001
0000
0010
0000
,
0001
0000
0000
0000
,
1000
0000
0100
0000
,
1000
0000
0000
0000
,
0010
0000
0000
0010
,
0010
0000
0000
0000
,
0100
0000
0000
0100
,
0100
0000
0000
0000
,
0010
0000
0100
0000
,
0010
0000
0100
0000
,
0010
0000
0000
0010
,
0010
0000
0000
0000
,
1000
0000
0000
0001
,
0001
0000
0001
0000
,
0001
0000
0000
1000
,
1000
0000
1000
0000
,
1000
0000
0001
0000
,
1000
0000
0001
0000
,
1000
0000
0000
0001
,
0001
0000
0000
1000
,
1000
0000
0000
0000
,
0100
0000
0000
0000
,
0001
0000
0000
0000
,
0010
0000
0000
0000
,
1000
0000
0000
0000
,
0100
0000
0000
0000
,
0001
0000
0000
0000
,
0010
0000
0000
0000
,
1000
0000
1000
0000
,
1000
0000
1000
0000
,
0100
0000
0100
0000
,
0100
0000
0100
0000
,
0010
0000
0010
0000
,
0010
0000
0010
0000
,
0001
0000
0000
0001
,
0001
0000
0000
0000
,
0001
0000
0100
0000
,
0010
0000
0000
0000
,
1000
0000
0010
0000
,
0100
0000
0000
0000
,
0001
0000
0100
0000
,
0010
0000
1000
0000
,
0010
0000
0100
0000
,
0001
0000
0010
0000
,
1000
0000
0000
0000
;

//---------------dance-single - ----------------
#NOTEDATA:;
#CHARTNAME:;
#STEPSTYPE:dance-single;
#DESCRIPTION:;
#CHARTSTYLE:;
#DIFFICULTY:Easy;
#METER:7;
#RADARVALUES:0.301132,0.341952,0.140528,0.009369,0.000000,225.000000,210.000000,15.000000,1.000000,0.000000,0.000000,0.000000,0.000000,0.000000,0.301132,0.341952,0.140528,0.009369,0.000000,225.000000,210.000000,15.000000,1.000000,0.000000,0.000000,0.000000,0.000000,0.000000;
#CREDIT:MILEN;
#NOTES:
0000
0000
0000
0000
,
0000
0000
0000
0000
,
0000
0000
0000
0000
,
0000
0000
0000
0000
,
0000
0000
0000
0000
,
0000
0000
0000
0000
,
0000
0000
0000
0000
,
0000
0000
0000
0000
,
0000
0000
0000
0000
,
1000
0000
1100
0000
,
0001
0000
0101
0000
,
1000
0000
1010
0000
,
0001
0000
0011
0000
,
0100
0000
0110
0000
,
1000
0000
1001
0000
,
0001
0100
0001
0100
,
0010
1000
0001
1001
,
1000
0100
1000
0100
,
1000
0100
1000
0100
,
0001
0100
1000
0100
,
0001
0100
1000
0100
,
0100
0010
0001
1000
,
0100
0010
0001
1000
,
0100
0010
0001
1000
,
0010
0010
0010
0011
,
0001
0100
0010
1000
,
0001
0010
0100
1000
,
1000
0010
0100
0001
,
1000
0100
0010
0001
,
0001
0100
1000
0100
,
0001
0010
1000
0010
,
0001
0100
1000
0010
,
0001
0000
1000
1000
,
1001
0000
0010
0100
,
0001
1000
0010
0100
,
1001
0000
0100
0010
,
1000
0001
0100
0010
,
1001
0000
0010
0100
,
0001
1000
0010
0100
,
0010
0010
0001
0001
,
0100
0100
1000
0001
,
1001
0000
1000
0100
,
0010
0001
1000
0100
,
0110
0000
0001
0010
,
0100
1000
0001
0010
,
0110
0000
1000
1000
,
0010
0010
0001
0001
,
0100
0100
1000
0001
,
0100
0010
0010
0010
,
1000
0000
1000
0000
,
1000
0000
0000
0000
,
0100
0000
0100
0000
,
0100
0000
0000
0000
,
0001
0000
0001
0000
,
0001
0000
0000
0000
,
0010
0000
0010
0000
,
0010
0000
0000
0000
,
1000
0100
1000
0000
,
0100
0001
0100
0000
,
0001
0010
0001
0000
,
0010
1000
0010
0000
,
0100
0001
0100
0000
,
1000
0100
1000
0000
,
0010
1000
0010
0000
,
0001
0010
0002
0003
,
1000
0100
0010
0001
,
1000
0100
0010
0010
,
0001
0010
0100
1000
,
0001
0010
0100
0100
,
1000
0010
0001
1000
,
0100
0001
1000
1000
,
0001
0010
1000
0001
,
0100
1000
0001
0001
,
1001
0000
0000
0000
;

//---------------dance-double - ----------------
#NOTEDATA:;
#CHARTNAME:;
#STEPSTYPE:dance-double;
#DESCRIPTION:;
#CHARTSTYLE:;
#DIFFICULTY:Easy;
#METER:7;
#RADARVALUES:0.275703,0.341952,0.112423,0.000000,0.000000,206.000000,194.000000,12.000000,0.000000,0.000000,0.000000,0.000000,0.000000,0.000000,0.275703,0.341952,0.112423,0.000000,0.000000,206.000000,194.000000,12.000000,0.000000,0.000000,0.000000,0.000000,0.000000,0.000000;
#CREDIT:MILEN;
#NOTES:
// measure 0
00000000
00000000
00000000
00000000
,  // measure 1
00000000
00000000
00000000
00000000
,  // measure 2
00000000
00000000
00000000
00000000
,  // measure 3
00000000
00000000
00000000
00000000
,  // measure 4
00000000
00000000
00000000
00000000
,  // measure 5
00000000
00000000
00000000
00000000
,  // measure 6
00000000
00000000
00000000
00000000
,  // measure 7
00000000
00000000
00000000
00000000
,  // measure 8
00000000
00000000
00000000
00000000
,  // measure 9
00001000
00000000
01001000
00000000
,  // measure 10
00010000
00000000
00010010
00000000
,  // measure 11
00001000
00000000
01001000
00000000
,  // measure 12
00010000
00000000
00010100
00000000
,  // measure 13
00001000
00000000
00101000
00000000
,  // measure 14
00010000
00000000
00010100
00000000
,  // measure 15
00000100
00001000
00000100
00001000
,  // measure 16
00000100
00000010
00000001
00001001
,  // measure 17
00001000
00000000
00000010
00000000
,  // measure 18
00010000
00000000
00001000
00000000
,  // measure 19
00100000
00000000
00010000
00000000
,  // measure 20
01000000
00000000
00001000
00000000
,  // measure 21
00011000
00010000
00000100
00000010
,  // measure 22
00000001
00001000
00000100
00000010
,  // measure 23
00001000
00010000
01000000
00100000
,  // measure 24
00010000
10000000
01000000
00100000
,  // measure 25
00100000
00010000
01000000
00010000
,  // measure 26
00100000
00001000
00010000
00010000
,  // measure 27
00000100
00001000
00000010
00001000
,  // measure 28
00000100
00010000
00001000
00001000
,  // measure 29
00100000
01000000
10000000
00100000
,  // measure 30
00010000
00001000
00000100
00000001
,  // measure 31
00000010
00000100
00010000
00001000
,  // measure 32
00011000
00000000
00001000
00010000
,  // measure 33
00011000
00000000
00001000
00100000
,  // measure 34
01000000
10000000
00100000
00010000
,  // measure 35
00001000
00000000
00010000
00000100
,  // measure 36
00000010
00000001
00000100
00001000
,  // measure 37
00010000
00000000
00001000
00010000
,  // measure 38
01000000
10000000
00100000
01000000
,  // measure 39
00010000
00100000
01000000
00010000
,  // measure 40
00001000
00000010
00000001
00001000
,  // measure 41
00001001
00000000
00000001
00000100
,  // measure 42
00001000
00010000
00100000
10000000
,  // measure 43
00010000
00000000
10000000
01000000
,  // measure 44
00010000
00001000
00000010
00000001
,  // measure 45
00001000
00000000
00000010
00000010
,  // measure 46
00010000
00010000
00001000
00001000
,  // measure 47
00100000
00100000
01000000
10000000
,  // measure 48
00100000
00010000
00001000
00000010
,  // measure 49
00000001
00000000
00000000
00000000
,  // measure 50
00000001
00000000
00000000
00000000
,  // measure 51
00001000
00000000
00000000
00000000
,  // measure 52
00001000
00000000
00000000
00000000
,  // measure 53
00010000
00000000
00000000
00000000
,  // measure 54
00010000
00000000
00000000
00000000
,  // measure 55
10000000
00000000
00000000
00000000
,  // measure 56
10000000
00000000
00000000
00000000
,  // measure 57
01000000
00100000
00010000
00000000
,  // measure 58
00100000
00001000
00010000
00000000
,  // measure 59
00001000
00010000
00000010
00000000
,  // measure 60
00001000
00000010
00000100
00000000
,  // measure 61
00000001
00000010
00001000
00000000
,  // measure 62
00010000
01000000
10000000
00000000
,  // measure 63
10000000
00100000
00010000
00000000
,  // measure 64
00001000
00000100
00000001
00000000
,  // measure 65
00000001
00000010
00000100
00001000
,  // measure 66
00000010
00010000
00100000
00000000
,  // measure 67
10000000
01000000
00100000
00010000
,  // measure 68
01000000
00001000
00000100
00000000
,  // measure 69
00000001
00000010
00001000
00100000
,  // measure 70
00010000
10000000
01000000
00000000
,  // measure 71
10000000
00100000
00010000
00000010
,  // measure 72
00001000
00000001
00000100
00000000
,  // measure 73
00011000
00000000
00000000
00000000
;
