#TITLE:Bestest Frenemy!;
#SUBTITLE:;
#ARTIST:MYUKKE.;
#TITLETRANSLIT:;
#SUBTITLETRANSLIT:;
#ARTISTTRANSLIT:;
#GENRE:VARIETY;
#CREDIT:MUINELIM;
#BANNER:Bestest Frenemy.png;
#BACKGROUND:Bestest Frenemy!-bg.png;
#LYRICSPATH:;
#CDTITLE:;
#MUSIC:Bestest Frenemy!.mp3;
#OFFSET:-0.050000;
#SAMPLESTART:29.146999;
#SAMPLELENGTH:11.939999;
#SELECTABLE:YES;
#BPMS:0.000000=140
;
#STOPS:
;
#BGCHANGES:;
#KEYSOUNDS:;
#ATTACKS:;

//---------------dance-single - ----------------
#NOTES:
     dance-single:
     :
     Beginner:
     3:
     0.138431,0.200342,0.008575,0.034301,0.000000,113.000000,112.000000,1.000000,4.000000,0.000000,0.000000,0.138431,0.200342,0.008575,0.034301,0.000000,113.000000,112.000000,1.000000,4.000000,0.000000,0.000000:
0000
0000
0000
0000
,
0000
0000
0000
0000
,
0000
0000
0000
0000
,
0000
0000
0000
0000
,
0000
0000
0000
0000
,
0010
0000
0010
0000
,
0010
0000
0010
0000
,
0010
0010
0010
0010
,
0020
0000
0000
0030
,
0010
0000
0000
0000
,
1000
0000
0000
0000
,
0001
0000
0000
0000
,
0100
0000
0000
0000
,
0010
0000
0000
0000
,
1000
0000
0000
0000
,
0001
0000
0000
0000
,
0100
0000
0000
0000
,
0001
0000
0001
0000
,
0010
0000
0010
0000
,
0100
0000
0100
0000
,
1000
0000
1000
0000
,
0010
0010
0000
0000
,
0100
0100
0000
0000
,
0010
0000
1000
0000
,
0001
0000
0200
0300
,
0010
0010
0000
0010
,
0000
0010
0000
0000
,
1000
1000
0000
1000
,
0000
1000
0000
0000
,
0100
0100
0000
0100
,
0000
0100
0000
0000
,
0001
0001
0000
0001
,
0000
0001
0000
0000
,
0010
0000
0100
0000
,
0010
0010
0020
0030
,
1000
0000
0000
0000
,
0100
0000
0000
0000
,
0010
0000
0000
0000
,
0001
0000
0000
0000
,
1000
0000
0100
0000
,
0010
0000
0001
0000
,
0100
0000
0010
0000
,
0100
0100
0100
0100
,
0100
0000
0001
0000
,
1000
0000
0010
0000
,
0100
0000
0001
0000
,
1000
0000
0010
0000
,
1000
0000
0100
0000
,
0010
0000
0001
0000
,
1000
0000
0100
0000
,
0010
0000
0001
0000
,
0100
0000
1000
0000
,
0010
0000
0001
0000
,
0100
0000
1000
0000
,
0010
0000
0001
0000
,
1000
0000
0100
0000
,
0001
0000
0010
0000
,
1000
0000
0100
0000
,
0001
0000
0010
0000
,
1001
0000
0000
0000
,
0000
0000
0000
0000
,
0000
0000
0000
0000
,
0000
0000
0000
0000
,
1000
0000
0001
0000
,
1000
0000
0001
0000
,
1000
1000
1000
1000
,
2000
3000
0001
0001
;

//---------------dance-single - ----------------
#NOTES:
     dance-single:
     :
     Easy:
     7:
     0.294013,0.314823,0.051452,0.034301,0.000000,240.000000,234.000000,6.000000,4.000000,0.000000,0.000000,0.294013,0.314823,0.051452,0.034301,0.000000,240.000000,234.000000,6.000000,4.000000,0.000000,0.000000:
0000
0000
0000
0000
,
0000
0000
0000
0000
,
0000
0000
0000
0000
,
0000
0000
0000
0000
,
0000
0000
0000
0000
,
1000
1000
0001
0001
,
1000
0001
2000
3000
,
0010
0100
0010
0100
,
0010
1000
0001
1001
,
1000
0100
0010
0010
,
0001
0010
0100
0100
,
1000
0010
0100
0100
,
0001
0000
0100
0000
0010
0010
0010
0000
,
1000
0001
0100
0100
,
0001
1000
0010
0010
,
0100
0001
1000
0010
,
0100
0000
0001
0000
1000
1000
1000
0000
,
0100
0001
0100
1000
,
0100
0001
0100
1000
,
0010
0001
0010
1000
,
0010
0001
0020
0030
,
0100
0110
0010
1000
,
0010
0110
0100
0001
,
0100
0010
1000
0001
,
0010
0100
2000
3000
,
0001
0000
0100
0000
0000
0100
0100
0000
,
0001
0000
0100
0000
0000
0100
0100
0000
,
0010
0000
1000
0000
0000
0010
0010
0000
,
1000
0000
0010
0000
0000
1000
1000
0000
,
0001
0000
0010
0000
0000
0001
0001
0000
,
0010
0000
0001
0000
0000
0010
0010
0000
,
0100
0000
1000
0000
0000
0100
0100
0000
,
1000
0000
0100
0000
0000
1000
1000
0000
,
0100
0010
0001
1000
,
0100
0010
0002
0003
,
0100
0001
0100
0000
,
1000
0100
1000
0000
,
0010
1000
0010
0000
,
0001
0010
0001
0000
,
0001
0000
0100
0000
,
1000
0000
0010
0000
,
0001
0100
1000
0010
,
0001
0100
0010
1001
,
1000
0000
0001
0000
0100
0100
0100
0000
,
0001
1000
0010
0100
,
0001
0000
1000
0000
0010
0010
0010
0000
,
1000
0001
0100
0010
,
0100
0000
0001
0000
0010
0010
0010
0000
,
0100
1000
0010
0100
,
0010
0000
1000
0000
0100
0100
0100
0000
,
0010
0001
0100
0001
,
0010
0000
0001
0000
0100
0010
0100
0000
,
0001
0010
0100
1000
,
0010
0000
0100
0000
0010
1000
0010
0000
,
0100
0001
1000
0100
,
0010
0000
0001
0000
1000
0010
0100
0000
,
0010
1000
0001
0010
,
0100
0000
1000
0000
0010
0100
0001
0000
,
0100
0010
1000
0001
,
1001
0000
0000
0000
,
0000
0000
0000
0000
,
0000
0000
0000
0000
,
0000
0000
0010
0010
,
0100
0001
0010
1000
,
0100
0001
0010
1000
,
0100
0100
0010
0010
,
1000
0000
0001
0000
0100
0010
0110
0000
;

//---------------dance-single - ----------------
#NOTES:
     dance-single:
     :
     Medium:
     11:
     0.447144,0.486545,0.231535,0.145781,0.042877,365.000000,338.000000,27.000000,17.000000,0.000000,0.000000,0.447144,0.486545,0.231535,0.145781,0.042877,365.000000,338.000000,27.000000,17.000000,0.000000,0.000000:
0000
0000
0000
0000
,
0000
0000
0000
0000
,
0000
0000
0000
0000
,
0000
0000
0000
0000
,
0000
0000
0000
0000
,
1000
0000
0010
1000
0010
0000
0100
0001
,
0100
0000
0000
0000
0010
0000
1000
0000
0010
0000
0000
0010
0000
0000
0010
0000
,
0100
0010
1000
0001
,
0010
0100
1000
0001
0100
0100
0110
0000
,
1010
0000
1000
0000
0001
0001
0001
0000
,
0101
0000
0001
0000
1000
1000
1000
0000
,
1100
0000
1000
0000
0100
0100
0100
0000
,
0011
0000
0010
0000
0100
0100
1001
0000
,
1010
0000
0010
0000
0100
0001
0010
0000
,
0011
0000
0001
0000
0100
0010
1000
0000
,
0010
0000
0000
0010
0000
0000
0010
0000
0100
0000
0000
0100
0000
0000
0100
0000
,
0001
1000
0010
0100
0010
0010
0110
0000
,
2000
3100
0002
0103
,
2000
3010
0002
0013
,
2000
3100
0020
0031
,
0200
0000
0000
0000
0310
0000
0000
0000
0010
0000
0000
1000
0000
0000
0001
0000
,
0101
1000
1100
0001
,
0011
0000
0000
0000
1000
0000
0000
0000
1010
0000
0000
0010
0000
0000
0100
0000
,
0001
0000
0000
0010
0000
0000
0100
0000
1000
0000
0010
0000
1000
0000
0100
0000
,
1000
0000
0000
0010
0000
0000
0100
0000
0002
0000
0000
0000
1003
0000
0000
0000
,
0100
0000
1001
0000
0000
0010
0010
0000
,
0010
0000
1001
0000
0000
0100
0100
0000
,
0100
0000
1010
0000
0000
0001
0001
0000
,
0001
0000
0101
0000
0000
1000
1000
0000
,
1000
0000
1100
0000
0000
0001
0001
0000
,
0001
0000
0011
0000
0000
1000
1000
0000
,
1000
0000
0110
0000
0000
0010
0010
0000
,
1000
0000
0101
0000
0000
0100
0100
0000
,
0001
0010
0100
0000
0010
0100
1000
0000
,
0010
0100
0001
1000
0010
0010
0110
0000
,
0002
0013
2000
3010
,
0002
0000
0103
0000
1000
0010
0110
0000
,
2000
3100
0002
0103
,
2000
0010
0002
3003
,
1001
0000
0110
0000
0010
1000
0100
0000
,
0010
0001
0010
0001
0010
0100
0100
0000
,
1000
0010
0100
0001
0010
0100
1000
0020
,
0200
0000
0000
0330
,
0100
0001
0100
0001
1000
1000
1000
0000
,
0100
1000
0100
1000
0010
0010
0010
0000
,
0100
0001
0100
0001
0010
0010
0010
0000
,
0100
1000
0100
1000
0001
0001
0001
0000
,
0100
0010
0100
0010
1000
1000
1000
0000
,
0001
0010
0001
0010
0100
0100
0100
0000
,
1000
0010
1000
0010
0001
0001
0001
0000
,
0001
0100
0001
0100
1000
1000
0001
0001
,
0100
0010
1000
0001
0010
0010
0100
0100
,
1000
0010
0100
0001
1000
1000
0100
0100
,
0010
0001
0100
0010
1000
1000
0001
0001
,
0010
0100
1000
0010
0100
0100
0001
0001
,
1000
0100
0001
0100
0010
0010
0001
0001
,
0100
1000
0100
0010
1000
1000
0001
0001
,
0010
1000
0010
0100
1000
1000
0010
0010
,
0100
0000
0001
0000
1000
0000
0100
0000
0010
0000
0000
0010
0000
0000
0010
0000
,
1001
0000
0000
0000
,
0000
0000
0000
0000
,
0000
0000
0000
0000
,
0000
0000
0000
0000
0000
0000
0000
0000
0100
0000
0000
0100
0000
0000
0100
0000
,
1000
0010
0100
0000
0001
0100
0010
0000
,
1000
0000
0100
0000
0010
0000
0001
0000
0100
0000
0000
0100
0000
0000
0100
0000
,
0010
1000
0010
1000
0100
0001
0100
0001
,
0010
1000
0100
0010
0001
1000
1001
0000
;

//---------------dance-single - ----------------
#NOTES:
     dance-single:
     :
     Hard:
     16:
     0.715431,0.801369,0.694605,0.308713,0.527385,584.000000,503.000000,81.000000,36.000000,0.000000,0.000000,0.715431,0.801369,0.694605,0.308713,0.527385,584.000000,503.000000,81.000000,36.000000,0.000000,0.000000:
0000
0000
0000
0000
,
0000
0000
0000
0000
,
0000
0000
0000
0000
,
0000
0000
0000
0000
,
0000
0000
0000
0000
,
0001
0000
0100
0000
1000
0000
0010
0100
0010
0000
0100
0000
0001
0000
0010
0100
,
0010
0000
0100
0000
1000
0000
0010
0100
0010
0000
0000
1010
0000
0000
0101
0000
,
0001
0010
0001
0000
1000
0010
1000
0000
0001
0100
0001
0000
1000
0100
1000
0000
,
0010
0100
0010
0100
0000
0101
0000
0001
1000
0000
1100
0000
0011
0000
0000
0000
,
0110
0000
0000
0100
1000
0000
0010
0000
0100
0001
0100
0001
0010
0000
0001
0000
,
0100
0000
0010
1000
0000
0010
0100
0000
0102
0000
0000
0000
1003
0100
0010
0000
,
0200
0000
0300
0000
1100
0000
0101
0000
0001
0000
1000
0010
0000
1000
0100
0000
,
0010
0000
0001
0100
0010
0100
0010
0100
0001
0000
1000
0000
0020
0000
0030
0000
,
0110
0000
0000
0100
0001
0000
1000
0000
0100
0010
0100
0010
0001
0000
0100
0000
,
0010
0000
1000
0100
0000
0001
0100
0000
0020
0000
0000
0031
1000
0000
0010
0000
,
0110
0000
0100
0001
0000
0010
0001
0000
0100
0000
1000
0100
0000
0010
1000
0000
,
0100
0000
0020
0000
0031
0100
0000
1000
0100
0000
0110
0000
1001
0000
0000
0000
,
0002
0103
0200
0310
0020
1030
2000
3100
,
0200
0310
0020
0031
0002
0103
0200
0310
,
0020
1030
0200
0310
0002
0103
2000
3010
,
0002
0000
0013
0000
0200
0000
1300
0000
1010
0000
0000
0110
0000
0000
0101
0000
,
0011
0010
0110
0100
1100
1000
1010
0010
,
0011
0000
0001
0000
0101
0000
0100
0000
1100
0000
0000
1010
0000
0000
0110
0000
,
0101
0000
0000
0110
0000
0000
1001
0000
0001
0000
0010
0000
0100
0000
1000
0000
,
1100
0000
0000
0110
0000
0000
0011
0000
2002
0000
3003
0000
0010
0100
0001
0000
,
0011
0000
0000
0000
1100
0000
0000
1000
0000
0000
0010
0000
0010
0000
0100
0000
,
0101
0000
0000
0000
1010
0000
0000
1000
0000
0001
0010
0000
0011
0000
0100
0000
,
1100
0000
0000
0000
0011
0000
0000
0001
0000
0000
0100
0000
0100
0000
0010
0000
,
1010
0000
0000
0000
0101
0000
0000
0001
0000
1000
0100
0000
1100
0000
0010
0000
,
0101
0000
0000
0000
1010
0000
0000
0010
0000
0000
0100
0000
0100
0000
0001
0000
,
0011
0000
0000
0000
1100
0000
0000
1000
0000
0010
0100
0000
0101
0000
0010
0000
,
1010
0000
0000
0000
0101
0000
0000
0100
0000
0000
0010
0000
0010
0000
1000
0000
,
1100
0000
0000
0000
0011
0000
0000
0001
0000
0100
0010
0000
1010
0000
0100
0000
,
0001
0010
0001
2000
0000
3010
0100
0010
1000
0100
1000
0100
0010
0001
0010
0001
,
0100
0010
1000
0001
0000
0010
0000
0100
2000
0000
3002
0000
1003
0000
0000
0000
,
1020
0031
0021
1030
,
1020
0000
0031
0000
0011
0010
1000
0001
,
0201
1300
1200
0301
,
0011
0000
0000
0010
1000
0000
0010
0000
0001
0000
0100
0000
0100
0000
0010
1000
,
0010
0000
0000
0000
0011
0000
0000
0000
0100
0000
0000
0000
1100
0000
0001
0010
,
0001
0000
0000
0000
0101
0000
0000
0000
1000
0000
0000
0000
1010
0000
0010
0100
,
0001
0000
0001
0000
1000
0000
1000
0000
0100
0010
0100
0010
0001
1000
0100
0010
,
0002
0203
0320
2030
3002
0000
2000
3003
,
1001
0000
0010
0010
0100
0000
0010
0010
0100
0000
0010
0000
1000
0000
0000
0000
,
1001
0000
0100
0100
0010
0000
0100
0100
0010
0000
0100
0000
0001
0000
0000
0000
,
0011
0000
0001
0001
0100
0000
0010
0010
1000
0000
0001
0000
0100
0000
0000
0000
,
1100
0000
1000
1000
0010
0000
0100
0100
0001
0000
1000
0000
0010
0000
0000
0000
,
0110
0000
1000
0010
0010
0000
0001
0010
0010
0000
1000
0000
0100
0000
0000
0000
,
0110
0000
1000
0100
0100
0000
0001
0100
0100
0000
1000
0000
0010
0000
0000
0000
,
1010
0000
1000
0100
0100
0000
0010
0001
0001
0000
1000
0000
0100
0000
0000
0000
,
0101
0000
0001
0010
0010
0000
0100
1000
1000
0000
0010
0000
0001
0000
0100
0000
,
1000
0000
0010
0100
0001
0000
0010
0100
0001
0000
0010
0000
0100
0000
1000
0000
,
0010
0000
0100
0100
0001
0000
0100
0100
1000
0000
0010
0000
0100
0000
0001
0000
,
0010
0000
0100
1000
0010
0000
0100
1000
0010
0000
0100
0000
1000
0000
0100
0000
,
0001
0000
0010
0010
1000
0000
0010
0010
0001
0000
0101
0000
1010
0000
1001
0000
,
0001
0000
0100
0100
1000
0000
0010
0010
0001
0000
0100
0000
0010
0000
1000
0000
,
0001
0000
0010
0010
1000
0000
0100
0100
0001
0000
0010
0000
0100
0000
1000
0000
,
0001
0000
0100
0100
0100
0000
0010
0010
0010
0000
1000
0000
0100
0000
0001
0000
,
0010
0000
1000
0001
0100
0010
0100
0000
0020
0000
1030
0100
0000
0100
0001
0000
,
1001
0000
0000
0000
,
0000
0000
0000
0000
,
0000
0000
0000
0000
,
0000
0000
0000
0000
0000
0000
0000
0000
1100
0000
0000
0011
0000
0000
0110
0000
,
1000
0000
0100
0000
0001
0000
0010
0100
0010
0000
0100
0000
1000
0000
0010
0100
,
0010
0000
0100
0000
0001
0000
0010
0100
0010
0000
0000
0011
0000
0000
1100
0000
,
1000
0010
1000
0010
0100
0001
0100
0001
0010
0100
0010
0100
1000
0010
0100
0001
,
1000
0100
0100
0100
0000
0010
0000
0001
0001
0000
1000
0000
1001
0000
0000
0000
;

//---------------dance-double - ----------------
#NOTES:
     dance-double:
     :
     Easy:
     7:
     0.305038,0.343444,0.094329,0.060028,0.000000,249.000000,238.000000,11.000000,7.000000,0.000000,0.000000,0.305038,0.343444,0.094329,0.060028,0.000000,249.000000,238.000000,11.000000,7.000000,0.000000,0.000000:
00000000
00000000
00000000
00000000
,
00000000
00000000
00000000
00000000
,
00000000
00000000
00000000
00000000
,
00000000
00000000
00000000
00000000
,
00000000
00000000
00000000
00000000
,
00001000
00001000
00010000
00010000
,
00001000
00010000
00002000
00003000
,
00010000
00000010
00010000
00001000
,
01000000
00001000
00010000
00011000
,
00001000
00100000
01000000
01000000
,
00100000
00001000
00010000
00010000
,
00001000
00000010
00000100
00000100
,
00000010
00000000
00001000
00000000
00010000
00001000
00010000
00000000
,
01000000
10000000
00100000
00100000
,
00010000
00001000
00000100
00000100
,
00000001
00000010
00001000
00010000
,
01000000
00000000
10000000
00000000
00100000
00100000
00100000
00000000
,
01000000
00010000
00100000
01000000
,
00010000
00001000
00000010
00000100
,
00001000
00000010
00000001
00001000
,
00000100
00000010
00000220
00000330
,
00001000
00001001
00000000
00000000
,
00010000
10010000
01000000
01000000
,
01000000
00100000
00010000
00001000
,
00000100
00000010
00002002
00003003
,
00001000
00000000
00000100
00000000
00000000
00001000
00000100
00000000
,
00010000
00000000
00001000
00000000
00000000
00010000
00001000
00000000
,
01000000
00000000
00010000
00000000
00000000
01000000
00010000
00000000
,
00100000
00000000
00001000
00000000
00000000
00100000
00001000
00000000
,
00010000
00000000
00000100
00000000
00000000
00010000
00000100
00000000
,
00001000
00000000
00000010
00000000
00000000
00001000
00000010
00000000
,
00010000
00000000
00001000
00000000
00000000
00010000
00001000
00000000
,
00100000
00000000
00010000
00000000
00000000
00100000
00010000
00000000
,
01000000
10000000
01000000
00100000
,
00010000
00001000
00022000
00033000
,
00010000
01000000
00010000
00000000
,
00001000
00000100
00001000
00000000
,
00010000
00100000
00010000
00000000
,
00001000
00000010
00001000
00000000
,
00001000
00000000
00010000
00000000
,
01000000
00000000
10000000
00000000
,
00100000
00010000
00001000
00000100
,
00000001
00000010
00001000
00010000
,
00011000
00000000
00001000
00000000
01000000
01000000
01000000
00000000
,
00001000
00010000
00100000
00010000
,
00001000
00000000
00010000
00000000
00000010
00000010
00000010
00000000
,
00010000
00001000
00000100
00001000
,
00010000
00000000
00001000
00000000
00100000
00100000
00100000
00000000
,
00001000
00010000
01000000
00010000
,
00001000
00000000
00010000
00000000
00000100
00000100
00000100
00000000
,
00010000
00001000
00000010
00001000
,
00010000
00000000
00100000
00000000
10000000
01000000
00100000
00000000
,
01000000
00010000
00001000
00000100
,
00001000
00000000
00000100
00000000
00000001
00000010
00000100
00000000
,
00000010
00001000
00010000
01000000
,
00010000
00000000
01000000
00000000
10000000
00100000
01000000
00000000
,
00100000
00010000
00001000
00000010
,
00001000
00000000
00000010
00000000
00000001
00000100
00000010
00000000
,
00000100
00001000
00010000
00100000
,
10100000
00000000
00000000
00000000
,
00101000
00000000
00000000
00000000
00000000
00000000
00000000
00010000
,
00010010
00000000
00000000
00000000
,
00000101
00000000
00000001
00000001
,
00000100
00001000
00010000
00100000
,
10000000
01000000
00010000
00001000
,
00000010
00000001
00000100
00000000
00000010
00000001
00000100
00000000
,
00001000
00000000
00010000
00000000
01000000
10000000
00100000
00000000
;

//---------------dance-double - ----------------
#NOTES:
     dance-double:
     :
     Medium:
     11:
     0.433669,0.486545,0.240110,0.214384,0.038589,354.000000,326.000000,28.000000,25.000000,0.000000,0.000000,0.433669,0.486545,0.240110,0.214384,0.038589,354.000000,326.000000,28.000000,25.000000,0.000000,0.000000:
00000000
00000000
00000000
00000000
,
00000000
00000000
00000000
00000000
,
00000000
00000000
00000000
00000000
,
00000000
00000000
00000000
00000000
,
00000000
00000000
00000000
00000000
,
00001000
00000000
00010000
00000010
00010000
00000000
00001000
00100000
,
00001000
00000000
00000000
00000000
00010000
00000000
00000100
00000000
00010000
00000000
00000000
00010000
00000000
00000000
00010000
00000000
,
01000000
10000000
00100000
00010000
,
00001000
00010000
00001000
00000100
00000010
00000010
00000110
00000000
,
00001001
00001000
00010000
10000000
,
10010000
00010000
00001000
00000001
,
00000011
00001000
00010000
10000000
,
11000000
00010000
00001000
00000001
,
00000101
00001000
00010000
10000000
,
10100000
00000000
00010000
00000000
00100000
00010000
00001000
00000000
,
00000010
00000000
00000000
00000010
00000000
00000000
00000010
00000000
00000001
00000000
00000000
00000001
00000000
00000000
00000001
00000000
,
00000100
00001000
00010000
00100000
10000000
10000000
10000000
00000000
,
02000000
03200000
00302000
00023000
,
02030000
03200000
00302000
00023000
,
00030200
00000320
00002030
00023000
,
00030200
00000000
00000000
00000000
00000320
00000000
00000000
00000000
00000031
00000000
00000000
00000001
00000000
00000000
00000001
00000000
,
00000101
00001000
00001100
00010000
,
00011000
00000000
00000000
00000000
01000000
00000000
00000000
00000000
01010000
00000000
00000000
10000000
00000000
00000000
10000000
00000000
,
00100000
00000000
00000000
00010000
00000000
00000000
00001000
00000000
00100000
00000000
00001000
00000000
00010000
00000000
00000010
00000000
,
00010000
00000000
00000000
00001000
00000000
00000000
00000100
00000000
00000002
00000000
00000000
00000000
00001003
00000000
00000000
00000000
,
00000100
00000000
00011000
00000000
00000000
01000000
01000000
00000000
,
01000000
00000000
00011000
00000000
00000000
00000010
00000010
00000000
,
00000010
00000000
00011000
00000000
00000000
00100000
00100000
00000000
,
00100000
00000000
00011000
00000000
00000000
00001000
00001000
00000000
,
00000010
00000000
00001001
00000000
00000000
00010000
00010000
00000000
,
01000000
00000000
10010000
00000000
00000000
00001000
00001000
00000000
,
00000100
00000000
00001001
00000000
00000000
00010000
00010000
00000000
,
00100000
00000000
10010000
00000000
00000000
10000000
10000000
00000000
,
01000000
00100000
00010000
00000000
00100000
00010000
00001000
00000000
,
00010000
00001000
00000100
00000001
00000010
00000010
00000010
00000000
,
00002000
00003100
00020000
00031000
,
00200000
00000000
00310000
00000000
10000000
00100000
01000000
00000000
,
00020000
00130000
00002000
00013000
,
00000200
00001300
00002002
00003003
,
00001010
00000000
00000101
00000000
00000001
00000010
00001000
00000000
,
00010000
00001000
00010000
00001000
00100000
01000000
01000000
00000000
,
10000000
00100000
01000000
00010000
00100000
01000000
00010000
00001000
,
00022000
00000000
00000000
00033000
,
00010000
00000000
00001000
00000000
00000010
00000010
00000010
00000000
,
00001000
00000000
00010000
00000000
00100000
00100000
00100000
00000000
,
00010000
00000000
00001000
00000000
00000100
00000100
00000100
00000000
,
00001000
00000000
00010000
00000000
01000000
01000000
01000000
00000000
,
00010000
00000000
00001000
00000000
00000001
00000001
00000001
00000000
,
00001000
00000000
00010000
00000000
10000000
10000000
10000000
00000000
,
00010000
00000000
00001000
00000000
10000000
10000000
10000000
00000000
,
00001000
00000000
00010000
00000000
00000001
00000001
00000001
00000000
,
00010000
00001000
00100000
01000000
10000000
00100000
01000000
00000000
,
00010000
00100000
01000000
00010000
00001000
00000010
00000100
00000000
,
00001000
00000010
00000100
00000001
00000010
00000100
00001000
00000000
,
00000010
00010000
00001000
00100000
01000000
00010000
00001000
00000000
,
00100000
01000000
10000000
00100000
00010000
00001000
00100000
00000000
,
01000000
00010000
00001000
00000010
00000001
00001000
00000100
00000000
,
00000010
00000001
00000100
00001000
00010000
00100000
10000000
00000000
,
01000000
00100000
00010000
00001000
00000100
00000010
00000001
00001000
,
00001001
00000000
00000001
00000000
00000010
00000000
00001000
00010000
,
00011000
00000000
00001000
00000000
00010000
00000000
01000000
10000000
,
10010000
00000000
00010000
00000000
01000000
00000000
00001000
00010000
,
00011000
00000000
00000000
00000000
00001000
00000000
00000000
00000000
00000100
00000000
00000000
00000100
00000000
00000000
00000100
00000000
,
00000001
00000010
00000100
00000000
00000010
00000100
00001000
00000000
,
00000100
00000000
00001000
00000000
00010000
00000000
01000000
00000000
10000000
00000000
00000000
10000000
00000000
00000000
10000000
00000000
,
00100000
01000000
00010000
00100000
01000000
00010000
00001000
00010000
,
00000100
00000010
00000001
00000100
00001000
00010000
00011000
00000000
;

//---------------dance-double - ----------------
#NOTES:
     dance-double:
     :
     Hard:
     15:
     0.714206,0.744128,0.574550,0.351590,0.471646,583.000000,516.000000,67.000000,41.000000,0.000000,0.000000,0.714206,0.744128,0.574550,0.351590,0.471646,583.000000,516.000000,67.000000,41.000000,0.000000,0.000000:
// measure 0
00000000
00000000
00000000
00000000
,  // measure 1
00000000
00000000
00000000
00000000
,  // measure 2
00000000
00000000
00000000
00000000
,  // measure 3
00000000
00000000
00000000
00000000
,  // measure 4
00000000
00000000
00000000
00000000
,  // measure 5
10000000
00000000
01000000
00000000
00010000
00000000
00001000
00010000
00001000
00000000
00000100
00000000
00001000
00000000
00010000
00001000
,  // measure 6
00010000
00000000
01000000
00000000
00010000
00000000
00001000
00010000
00001000
00000000
00000000
00101000
00000000
00000000
00010010
00000000
,  // measure 7
00010000
00001000
00000100
00000001
00000010
00001000
00010000
01000000
,  // measure 8
10000000
00100000
10000000
00100000
00000000
01000000
00000000
00010000
00100000
00000000
00001000
00000000
00011000
00000000
00000000
00000000
,  // measure 9
00010100
00000000
00000000
00000100
00000010
00000000
00000001
00000000
00000100
00001000
00000100
00001000
00010000
00000000
00001000
00000000
,  // measure 10
00100000
00000000
01000000
10000000
00000000
01000000
00100000
00000000
00120000
00000000
00000000
00000000
10030000
00100000
01000000
00000000
,  // measure 11
00200000
00000000
00300000
00000000
01100000
00000000
01000000
00000000
00010000
00000000
00100000
01000000
00000000
00100000
00001000
00000000
,  // measure 12
00010000
00000000
00000100
00001000
00000100
00001000
00000100
00001000
00000100
00000000
00000010
00000000
00000002
00000000
00000003
00000000
,  // measure 13
00000101
00000000
00000000
00000100
00001000
00000000
00010000
00000000
00001000
00100000
00001000
00100000
01000000
00000000
10000000
00000000
,  // measure 14
00100000
00000000
01000000
00010000
00000000
00100000
01000000
00000000
00020000
00000000
00000000
00031000
00100000
00000000
00010000
00000000
,  // measure 15
01010000
00000000
01000000
00001000
00000000
00010000
00001000
00000000
00000010
00000000
00001000
00010000
00000000
00000100
00001000
00000000
,  // measure 16
00000001
00000000
00000200
00000000
00000310
00010000
00000000
00001000
00010000
00000000
00100000
00000000
10100000
00000000
00000000
00000000
,  // measure 17
20000000
31000000
02000000
03100000
00200000
00301000
00002000
00013000
,  // measure 18
00020000
00030100
00000200
00000310
00000020
00000031
00000002
00000103
,  // measure 19
00000200
00001300
00002000
00013000
00020000
00130000
00200000
10300000
,  // measure 20
20000000
00000000
31000000
00000000
02000000
00000000
03100000
00000000
00110000
00000000
00000000
00011000
00000000
00000000
00001010
00000000
,  // measure 21
00000110
00000100
00000101
00000001
00001001
00001000
00001010
00000010
,  // measure 22
00010010
00000000
00010000
00000000
00011000
00000000
00001000
00000000
00101000
00000000
00000000
01100000
00000000
00000000
11000000
00000000
,  // measure 23
10100000
00000000
00000000
01100000
00000000
00000000
01010000
00000000
00010000
00000000
00100000
00000000
01000000
00000000
00010000
00000000
,  // measure 24
00011000
00000000
00000000
00001010
00000000
00000000
00000011
00000000
00000202
00000000
00000303
00000000
00000100
00000010
00001000
00000000
,  // measure 25
00001100
00000000
00000000
00000000
00011000
00000000
00000000
00010000
00000000
00000000
01000000
00000000
01000000
00000000
10000000
00000000
,  // measure 26
10100000
00000000
00000000
00000000
01010000
00000000
00000000
00010000
00000000
00000000
00100000
00000000
01100000
00000000
00000000
00000000
,  // measure 27
00110000
00000000
00000000
00000000
00011000
00000000
00000000
00001000
00000000
00000000
00000010
00000000
00000010
00000000
00000001
00000000
,  // measure 28
00000101
00000000
00000000
00000000
00001010
00000000
00000000
00001000
00000000
00000000
00000100
00000000
00000110
00000000
00000000
00000000
,  // measure 29
00010100
00000000
00000000
00000000
01001000
00000000
00000000
01000000
00000000
00000000
00100000
00000000
00100000
00000000
10000000
00000000
,  // measure 30
11000000
00000000
00000000
00000000
01010000
00000000
00000000
00010000
00000000
00000000
00001000
00000000
00011000
00000000
00000000
00000000
,  // measure 31
00101000
00000000
00000000
00000000
00010010
00000000
00000000
00000010
00000000
00000000
00000100
00000000
00000100
00000000
00000001
00000000
,  // measure 32
00000011
00000000
00000000
00000000
00001010
00000000
00000000
00001000
00000000
00000000
00010000
00000000
00011000
00000000
00000000
00000000
,  // measure 33
00001000
00010000
00001000
00020000
00000000
00130000
10000000
00100000
10000000
00000000
01000000
00010000
01000000
00000000
00010000
00001000
,  // measure 34
00010000
00000000
00000100
00000010
00000000
00000001
00000000
00000100
00001000
00000000
00010000
00000000
00011000
00000000
00000000
00000000
,  // measure 35
00201000
02300000
03020000
00032000
,  // measure 36
00203000
00000000
02300000
00000000
03010000
00001000
00011000
00000000
,  // measure 37
00010020
00000230
00002300
00023000
,  // measure 38
00030020
00000000
00000000
00001030
00000100
00000000
00000010
00000000
00000001
00000000
00000100
00000000
00001000
00000000
00010000
00001000
,  // measure 39
00010000
00000000
00000000
00000000
00010100
00000000
00000000
00000000
00001000
00000000
00000000
00000000
01001000
00000000
00001000
00010000
,  // measure 40
00001000
00000000
00000000
00000000
00101000
00000000
00000000
00000000
00010000
00000000
00000000
00000000
00010010
00000000
00000010
00001000
,  // measure 41
00000100
00000000
00000010
00000000
00000001
00000000
00000100
00000000
00001000
00010000
00001000
00010000
00001000
00010000
00001000
00010000
,  // measure 42
00002000
01003000
00020000
00030100
00002000
00000000
00020000
00033000
,  // measure 43
00011000
00000000
00010000
01000000
10000000
00000000
00100000
01000000
00100000
00000000
10000000
00000000
01000000
00000000
00100000
00000000
,  // measure 44
00001000
00000000
00010000
00000100
00010000
00000000
00001000
01000000
00001000
00000000
00010000
00000000
00001000
00000000
00000100
00000000
,  // measure 45
00000001
00000000
00000010
00000100
00000010
00000000
00000001
00000100
00001000
00000000
00010000
00000000
00100000
00000000
10000000
00000000
,  // measure 46
01000000
00000000
00100000
00010000
00100000
00000000
01000000
10000000
01000000
00000000
00100000
00000000
00001000
00000000
00010000
00000000
,  // measure 47
00000100
00000000
00000010
00000100
00001000
00000000
00000010
00000100
00000010
00000000
00000100
00000000
00000001
00000000
00000010
00000000
,  // measure 48
00001000
00000000
00010000
00000100
00010000
00000000
00001000
01000000
00001000
00000000
00010000
00000000
00100000
00000000
01000000
00000000
,  // measure 49
00100000
00000000
10000000
01000000
00100000
00000000
01000000
00010000
01000000
00000000
00010000
00000000
00001000
00000000
00000010
00000000
,  // measure 50
00000001
00000000
00000100
00001000
00000200
00000000
00000300
00000000
00000110
00000000
00010000
00000000
00011000
00000000
01000000
00000000
,  // measure 51
01100000
00000000
00100000
10000000
01000000
00000000
00100000
10000000
01000000
00000000
00100000
00000000
00010000
00000000
01000000
00000000
,  // measure 52
00001000
00000000
00010000
00001000
00100000
00000000
00010000
00001000
00100000
00000000
00010000
00000000
01000000
00000000
00001000
00000000
,  // measure 53
00010000
00000000
00000100
00001000
00000010
00000000
00000100
00001000
00000010
00000000
00000100
00000000
00000001
00000000
00001000
00000000
,  // measure 54
00000010
00000000
00010000
00000100
00001000
00000000
00010000
00000100
00001000
00000000
00000010
00000000
00010000
00000000
00011000
00000000
,  // measure 55
00001000
00000000
00100000
01000000
10000000
00000000
00100000
01000000
10000000
00000000
00100000
00000000
00010000
00000000
00001000
00000000
,  // measure 56
00000100
00000000
00000001
00000010
00000100
00000000
00000001
00000010
00000100
00000000
00010000
00000000
00001000
00000000
00100000
00000000
,  // measure 57
01000000
00000000
00010000
00001000
00000010
00000000
00010000
00001000
00000010
00000000
00000001
00000000
00000100
00000000
00001000
00000000
,  // measure 58
00010000
00000000
00100000
10000000
00100000
10000000
00100000
00000000
02000000
00000000
03010000
00100000
00000000
00001000
00010000
00000000
,  // measure 59
00001000
00010000
00001000
00000000
00000100
00000000
00000001
00000000
00000100
00001000
00000100
00000000
00001000
00000000
00010000
00000000
,  // measure 60
00100000
10000000
00100000
00000000
10000000
00000000
01000000
00000000
00020000
00000000
00000000
00032000
00000000
00000000
00103000
00000000
,  // measure 61
00100000
01000000
00100000
00000000
01000000
00000000
00010000
00000000
00001000
00010000
00001000
00000000
00000010
00000000
00000100
00000000
,  // measure 62
00000010
00000001
00000010
00000000
00000100
00000000
00010000
00000000
00011000
00000000
00000000
00001100
00000000
00000000
00000101
00000000
,  // measure 63
00000001
00000000
00000010
00000000
00001000
00000000
00010000
00001000
00010000
00000000
00100000
00000000
00010000
00000000
00001000
00010000
,  // measure 64
00001000
00000000
00000010
00000000
00001000
00000000
00010000
00001000
00010000
00000000
00000000
00010100
00000000
00000000
01001000
00000000
,  // measure 65
00001000
00010000
00100000
10000000
01000000
00010000
00001000
00000010
,  // measure 66
00000001
00000100
00000001
00000100
00000000
00001000
00000000
00010000
00100000
00000000
10000000
00000000
10010000
00000000
00000000
00000000
;
