#VERSION:0.83;
#TITLE:Be Mine;
#SUBTITLE:;
#ARTIST:Infinite;
#TITLETRANSLIT:;
#SUBTITLETRANSLIT:;
#ARTISTTRANSLIT:;
#GENRE:K-POP;
#ORIGIN:;
#CREDIT:MUINELIM;
#BANNER:Be Mine.png;
#BACKGROUND:Be Mine-bg.png;
#PREVIEWVID:;
#JACKET:Be Mine-jacket.PNG;
#CDIMAGE:;
#DISCIMAGE:;
#LYRICSPATH:;
#CDTITLE:;
#MUSIC:Be Mine.MP3;
#OFFSET:-0.030000;
#SAMPLESTART:43.763840;
#SAMPLELENGTH:12.000000;
#SELECTABLE:YES;
#BPMS:0.000=130.000;
#STOPS:160.000=1.385;
#DELAYS:;
#WARPS:;
#TIMESIGNATURES:0.000=4=4;
#TICKCOUNTS:0.000=4;
#COMBOS:0.000=1;
#SPEEDS:0.000=1.000=0.000=0;
#SCROLLS:0.000=1.000;
#FAKES:;
#LABELS:0.000=Song Start;
#BGCHANGES:0.000=Be Mine.avi=1.000=1=0=0=StretchNoLoop==CrossFade==,
99999=-nosongbg-=1.000=0=0=0 // don't automatically add -songbackground-
;
#KEYSOUNDS:;
#ATTACKS:
;

//---------------dance-single - ----------------
#NOTEDATA:;
#CHARTNAME:;
#STEPSTYPE:dance-single;
#DESCRIPTION:;
#CHARTSTYLE:;
#DIFFICULTY:Beginner;
#METER:3;
#RADARVALUES:0.119457,0.179086,0.007964,0.007964,0.000000,105.000000,104.000000,1.000000,1.000000,0.000000,0.000000,0.000000,0.000000,0.000000,0.119457,0.179086,0.007964,0.007964,0.000000,105.000000,104.000000,1.000000,1.000000,0.000000,0.000000,0.000000,0.000000,0.000000;
#CREDIT:MILEN;
#NOTES:
0000
0000
0000
0000
,
0000
0000
0000
0000
,
0000
0000
0000
0000
,
0000
0000
0000
0000
,
0010
0000
0000
0000
,
0010
0000
0000
0000
,
0010
0000
0000
0000
,
0010
0000
0000
0000
,
0010
0000
1000
0000
,
0010
0000
1000
0000
,
0010
0000
1000
0000
,
0010
0000
0000
0000
,
0100
0000
0001
0000
,
0100
0000
0001
0000
,
0100
0100
0000
0000
,
0000
0000
0000
0000
,
0001
0000
1000
0000
,
0001
0000
1000
0000
,
0001
0000
0001
0000
,
1000
0000
0001
0000
,
1000
0000
1000
0000
,
0001
0000
1000
0000
,
1001
0000
0000
0000
,
0000
0000
0000
0100
,
0100
0000
0100
0000
,
0010
0000
1000
0000
,
0001
0000
0000
0000
,
0100
0000
0001
0000
,
1000
0000
0000
0000
,
0010
0000
1000
0000
,
0001
0000
0100
0000
,
0010
0000
0010
0010
,
0010
0000
0000
0000
,
1000
0000
0000
0000
,
0100
0000
0000
0000
,
0001
0000
0000
0000
,
0010
0000
0010
0000
,
1000
0000
1000
0000
,
0100
0000
0100
0000
,
0001
0000
0001
0000
,
0010
0010
0000
0000
,
0000
0001
0000
0000
,
0000
0100
0000
0000
,
0000
1000
0000
0000
,
0000
0010
0000
0010
,
0000
0100
0000
0100
,
0000
0010
0010
0010
,
0010
0010
0000
0000
,
0010
0010
0000
0010
,
0000
1000
0000
0001
,
0000
0100
0000
0000
,
0000
0001
0000
1000
,
0000
0010
0000
0000
,
0000
1000
0000
0001
,
0000
0100
0000
0010
,
0000
1000
0000
1000
,
0000
0001
0000
0010
,
0000
0100
0000
1000
,
0000
0001
0000
0010
,
0000
0100
0000
1000
,
0000
0010
0000
0010
,
0000
0001
0000
0001
,
0000
0100
0000
0100
,
0000
1000
0000
0010
,
0020
0030
0000
0000
;

//---------------dance-single - ----------------
#NOTEDATA:;
#CHARTNAME:;
#STEPSTYPE:dance-single;
#DESCRIPTION:;
#CHARTSTYLE:;
#DIFFICULTY:Easy;
#METER:4;
#RADARVALUES:0.179755,0.230254,0.055747,0.039819,0.000000,158.000000,151.000000,7.000000,5.000000,0.000000,0.000000,0.000000,0.000000,0.000000,0.179755,0.230254,0.055747,0.039819,0.000000,158.000000,151.000000,7.000000,5.000000,0.000000,0.000000,0.000000,0.000000,0.000000;
#CREDIT:MILEN;
#NOTES:
0000
0000
0000
0000
,
0000
0000
0000
0000
,
0000
0000
0000
0000
,
0000
0000
0000
0000
,
1000
1000
0000
1000
,
0001
0001
0000
0001
,
0100
0100
0000
0100
,
0010
0010
0000
0110
,
1000
0000
0010
0000
,
1000
0000
0010
0000
,
1000
0000
0010
0000
,
1000
1000
0000
1000
,
0001
0000
0100
0000
,
0001
0000
0100
0000
,
0001
0001
1000
0000
,
0000
0010
0010
0100
,
0010
0000
1000
0000
,
0001
0000
0100
0000
,
0020
0000
0030
0000
,
0010
0010
0010
0000
,
1000
0000
0002
0003
,
1000
1000
1000
0000
,
2002
0000
0000
0000
,
3003
0000
0000
0001
,
0001
0000
0100
0000
,
1000
0010
0100
0000
,
1000
0000
0010
0000
,
0001
0100
0010
0000
,
0001
0000
0100
0000
,
1000
0010
0100
0100
,
0100
0000
0000
0001
,
1000
1001
0000
0010
,
0010
0000
1000
0000
,
0100
0000
0001
0000
,
0010
0000
1000
0000
,
0100
0000
0001
0000
,
0010
0100
0010
0000
,
1000
0010
1000
0000
,
0001
0100
0001
0000
,
1000
0001
1000
0000
,
1001
0010
0000
0000
,
0000
0001
0000
0000
,
0000
0100
0000
0000
,
0000
1000
0000
0000
,
0000
0010
0000
0001
,
0000
0100
0000
1000
,
0000
0010
0010
0010
,
0100
0010
1000
0001
,
0000
1001
0000
0100
,
0000
1000
0100
0010
,
0100
0100
0000
1001
,
0000
0001
0010
0100
,
0010
0010
0000
1001
,
0000
1000
0100
0010
,
0010
0100
0000
0010
,
0000
1000
0001
0100
,
0010
1000
0000
0100
,
0000
0001
0000
0010
,
0000
1000
0000
0100
,
0000
0001
0000
0010
,
0000
1000
0001
1000
,
0001
0010
0100
0010
,
0100
1000
0001
0100
,
0010
1000
0100
0001
,
0020
0030
0000
0000
;

//---------------dance-single - ----------------
#NOTEDATA:;
#CHARTNAME:;
#STEPSTYPE:dance-single;
#DESCRIPTION:;
#CHARTSTYLE:;
#DIFFICULTY:Medium;
#METER:7;
#RADARVALUES:0.283284,0.383010,0.079638,0.119457,0.000000,249.000000,239.000000,10.000000,15.000000,0.000000,0.000000,0.000000,0.000000,0.000000,0.283284,0.383010,0.079638,0.119457,0.000000,249.000000,239.000000,10.000000,15.000000,0.000000,0.000000,0.000000,0.000000,0.000000;
#CREDIT:MILEN;
#NOTES:
0000
0000
0000
0000
,
0000
0000
0000
0000
,
0000
0000
0000
0000
,
0000
0000
0000
0000
,
1000
0100
0010
0000
,
0001
0010
0100
0000
,
1000
0010
0100
0000
,
0001
0100
0010
0110
,
1000
0000
1000
0000
,
0010
0000
0010
0000
,
0001
0000
0001
0000
,
0100
0000
0100
0100
,
1000
0010
1000
0000
,
0010
0001
0010
0000
,
0001
0100
0001
0000
,
0100
1000
0100
0100
,
1000
0010
0110
0000
,
0001
0010
0100
1000
,
0020
0000
0230
0300
,
0001
1000
0100
0010
,
0002
0000
2003
3000
,
0010
0100
0001
1000
,
0100
0100
0010
0010
,
0001
0000
1000
0000
1001
0000
0010
0100
,
0010
0000
0000
2000
0000
0000
3000
0000
,
0010
1000
0100
0010
,
0010
0000
0000
0002
0000
0000
0003
0000
,
0010
0100
1000
0010
,
0100
0000
0000
0220
0000
0000
0330
0000
,
0010
1000
0001
0100
,
0010
1000
0010
0000
0100
0001
0100
0000
,
0001
1000
0100
0010
,
0001
0010
0001
0010
0000
0000
0001
0000
,
1000
0010
1000
0010
0000
0000
1000
0000
,
0001
0100
0001
0100
0000
0000
0001
0000
,
1000
0100
1000
0100
0000
0000
1000
0000
,
0010
0100
0001
0000
1000
0000
0010
0000
,
0100
0001
1000
0000
0010
0000
0110
0000
,
0100
0010
1000
0000
0001
0000
0100
0000
,
0010
1000
0001
0000
0100
0000
0010
0000
,
1001
1000
0000
0010
,
0000
0001
0000
0100
,
0100
1000
0000
0010
,
0000
0001
0100
0100
,
1000
0000
0010
0100
0000
0100
0020
0000
,
0030
1000
0001
1000
0000
1000
0002
0000
,
0103
0000
0100
0010
0100
0010
1000
0001
,
0100
0010
1000
0000
0001
0000
1001
0000
,
0010
0100
0010
0000
0000
0002
0000
0000
,
0003
0010
1000
0100
,
0010
0000
0010
0000
0000
2000
0000
0000
,
3000
0010
0100
1000
,
0010
0000
0100
0000
0000
0220
0000
0000
,
0330
0010
1000
0100
,
0001
0000
0010
1000
0001
0000
0100
0001
,
1000
0010
0100
0001
,
1001
0000
1000
0100
0010
0000
0100
0000
,
1000
0000
0100
0010
0001
0000
0010
0000
,
0100
0000
0010
0001
0100
0000
0010
0000
,
1000
0000
0010
1000
0100
0000
0010
0000
,
0100
0000
0010
0001
0010
0000
0100
1000
,
0100
0000
0010
0001
1000
0000
0100
1000
,
0001
0000
0100
0010
1000
0000
0010
0100
,
0001
0000
1000
0100
0010
0001
0200
0000
,
0310
0110
0000
0000
0000
0000
0000
0000
;

//---------------dance-single - ----------------
#NOTEDATA:;
#CHARTNAME:;
#STEPSTYPE:dance-single;
#DESCRIPTION:;
#CHARTSTYLE:;
#DIFFICULTY:Hard;
#METER:10;
#RADARVALUES:0.387951,0.436616,0.199095,0.358372,0.000000,341.000000,316.000000,25.000000,45.000000,0.000000,0.000000,0.000000,0.000000,0.000000,0.387951,0.436616,0.199095,0.358372,0.000000,341.000000,316.000000,25.000000,45.000000,0.000000,0.000000,0.000000,0.000000,0.000000;
#CREDIT:MILEN;
#NOTES:
// measure 0
0000
0000
0000
0000
,  // measure 1
0000
0000
0000
0000
,  // measure 2
0000
0000
0000
0000
,  // measure 3
0000
0000
0000
0000
,  // measure 4
1000
0100
0010
0001
0000
0000
1100
0000
,  // measure 5
1000
0100
0010
0001
0000
0000
1100
0000
,  // measure 6
1000
0100
0010
0001
0000
0000
1100
0000
,  // measure 7
1000
0100
0020
0000
0031
0100
0020
0000
,  // measure 8
1030
1000
0100
0100
,  // measure 9
0001
0001
0010
0010
,  // measure 10
1000
0001
0100
1000
,  // measure 11
0010
0100
0001
0200
0000
0000
0310
0000
,  // measure 12
0010
1000
0100
0000
1000
0010
0100
0000
,  // measure 13
0010
0100
0001
0000
0010
0001
0100
0000
,  // measure 14
0010
1000
0001
0100
0020
0000
1030
0000
,  // measure 15
1000
0100
1000
0100
0010
0001
0100
0100
,  // measure 16
0000
0000
0000
2020
0000
0000
3030
0000
,  // measure 17
1000
0001
0010
0200
0000
1300
0010
0200
,  // measure 18
0000
0000
0000
0002
0000
0000
0303
0000
,  // measure 19
1000
0100
0010
0002
0000
0103
0010
2000
,  // measure 20
0000
0000
0000
0200
0000
0000
3300
0000
,  // measure 21
0001
0100
0010
2000
0000
3001
0010
0100
,  // measure 22
2000
3010
0002
0103
,  // measure 23
1010
0000
0101
0000
0110
0010
1000
0001
,  // measure 24
0100
0000
0000
2200
3300
0000
0000
0000
,  // measure 25
1000
0100
0010
0001
0100
0010
1000
0001
,  // measure 26
0010
0000
0000
2020
3030
0000
0000
0000
,  // measure 27
1000
0010
0100
0001
1000
0100
0010
0001
,  // measure 28
0100
0000
0000
0220
0330
0000
0000
0000
,  // measure 29
0010
1000
0100
0010
0001
1000
0010
0100
,  // measure 30
0002
0013
2000
3100
,  // measure 31
0002
0000
1003
0000
0001
0100
1000
0010
,  // measure 32
0001
0100
0010
1000
0000
0000
0101
0000
,  // measure 33
0001
0100
0010
1000
0000
0000
0101
0000
,  // measure 34
0001
0100
0010
1000
0000
0000
0101
0000
,  // measure 35
0001
0100
0020
0000
1030
0100
0020
0000
,  // measure 36
0031
0100
0010
1000
0001
0010
0000
0010
,  // measure 37
0001
0100
1000
0100
0010
1000
0100
0000
,  // measure 38
0010
0001
0100
0010
1000
0001
0010
0100
,  // measure 39
1000
0010
0001
0000
0001
0100
1000
0000
,  // measure 40
1001
0010
0010
0001
,  // measure 41
0001
0100
0100
1000
,  // measure 42
1010
0001
0001
0010
,  // measure 43
0010
1000
0100
0001
,  // measure 44
0011
0000
0100
0020
0000
0130
0002
0000
,  // measure 45
0000
0103
0010
0020
0000
0130
2000
0000
,  // measure 46
3100
0000
0100
0010
1000
0100
0010
0001
,  // measure 47
0100
0010
1010
0000
0101
0000
1001
0000
,  // measure 48
0001
0100
1000
0000
0000
0022
0033
0000
,  // measure 49
0000
0000
0001
0010
0100
1000
0010
0100
,  // measure 50
0001
0010
1000
0000
0000
0202
0303
0000
,  // measure 51
0000
0000
0001
0100
0010
1000
0100
0010
,  // measure 52
0001
0100
1000
0000
0000
2002
3003
0000
,  // measure 53
0000
0000
0001
1000
0010
0100
0001
0010
,  // measure 54
0100
1000
0020
0000
0031
0000
0200
0000
,  // measure 55
1300
0000
0020
0000
0130
0000
1000
0100
,  // measure 56
0001
0010
1000
0100
0010
0001
0000
0000
,  // measure 57
1010
0000
0001
0100
0010
1000
0000
0000
,  // measure 58
0011
0000
1000
0010
0001
0100
0000
0000
,  // measure 59
1001
0000
0010
0100
0002
0000
0103
0010
,  // measure 60
2000
0000
3001
0010
0100
0001
1000
0010
,  // measure 61
0100
0000
1000
0100
0010
1000
0001
0100
,  // measure 62
0010
0000
0001
0100
1000
0010
0001
1000
,  // measure 63
0100
0010
0002
0000
0203
0000
2300
0000
,  // measure 64
3020
0001
0100
0000
0030
0000
0000
0000
;

//---------------dance-double - ----------------
#NOTEDATA:;
#CHARTNAME:;
#STEPSTYPE:dance-double;
#DESCRIPTION:;
#CHARTSTYLE:;
#DIFFICULTY:Easy;
#METER:4;
#RADARVALUES:0.180892,0.254842,0.063710,0.023891,0.000000,159.000000,151.000000,8.000000,3.000000,0.000000,0.000000,0.000000,0.000000,0.000000,0.180892,0.254842,0.063710,0.023891,0.000000,159.000000,151.000000,8.000000,3.000000,0.000000,0.000000,0.000000,0.000000,0.000000;
#CREDIT:MILEN;
#NOTES:
00000000
00000000
00000000
00000000
,
00000000
00000000
00000000
00000000
,
00000000
00000000
00000000
00000000
,
00000000
00000000
00000000
00000000
,
00001000
00001000
00000000
00010000
,
00010000
00010000
00000000
00001000
,
00001000
00010000
00000000
00010000
,
00010000
00001000
00000000
00011000
,
00000010
00000000
00010000
00000000
,
00000010
00000000
00010000
00000000
,
00000010
00000000
00010000
00000000
,
00000010
00000010
00000000
00010000
,
00001000
00000000
01000000
00000000
,
00001000
00000000
01000000
00000000
,
00001000
00001000
00010000
00000000
,
00000000
00001000
00001000
00010000
,
00001000
00000000
00000010
00000000
,
00000001
00000000
00000100
00000000
,
00002000
00000000
00003000
00000000
,
00001000
00001000
00010000
00000000
,
00100000
00000000
10000000
00000000
,
01000000
01000000
00010000
00000000
,
00022000
00000000
00000000
00000000
,
00033000
00000000
00000000
00001000
,
00010000
00000000
01000000
00000000
,
00010000
00001000
00010000
00000000
,
00001000
00000000
00000010
00000000
,
00001000
00010000
00001000
00000000
,
00010000
00000000
00100000
00000000
,
00010000
00001000
00010000
00010000
,
00010000
00000000
00000000
00001000
,
00010000
00011000
00000000
00000100
,
00000100
00000000
00001000
00000000
,
00000001
00000000
00000100
00000000
,
00001000
00000000
00010000
00000000
,
00100000
00000000
10000000
00000000
,
00010000
00010000
01000000
00000000
,
00001000
00001000
00010000
00000000
,
00000010
00000010
00001000
00000000
,
00000001
00000001
00000100
00000000
,
00000110
00000010
00000000
00000000
,
00000000
00001000
00000000
00000000
,
00000000
00010000
00000000
00000000
,
00000000
01000000
00000000
00000000
,
00000000
00100000
00000000
10000000
,
00000000
01000000
00000000
00010000
,
00000000
00001000
00001000
00010000
,
00010000
00001000
00010000
00001000
,
00000000
00011000
00000000
01000000
,
00000000
00001000
00010000
00001000
,
00010000
00000010
00000000
00011000
,
00000000
00010000
00001000
00010000
,
00001000
01000000
00000000
00011000
,
00000000
00001000
00010000
00001000
,
00010000
00000100
00000000
00000010
,
00000000
00000001
00000100
00000001
,
00000100
00001000
00000000
00010000
,
00000000
00100000
00000000
10000000
,
00000000
01000000
00000000
00010000
,
00000000
00001000
00000000
00000010
,
00000000
00000001
00000100
00000001
,
00000100
00000010
00010000
00000010
,
00010000
00001000
00100000
00001000
,
00100000
00010000
01000000
00100000
,
10010000
00000000
00000000
00000000
;

//---------------dance-double - ----------------
#NOTEDATA:;
#CHARTNAME:;
#STEPSTYPE:dance-double;
#DESCRIPTION:;
#CHARTSTYLE:;
#DIFFICULTY:Medium;
#METER:7;
#RADARVALUES:0.281009,0.383756,0.063710,0.119457,0.000000,247.000000,239.000000,8.000000,15.000000,0.000000,0.000000,0.000000,0.000000,0.000000,0.281009,0.383756,0.063710,0.119457,0.000000,247.000000,239.000000,8.000000,15.000000,0.000000,0.000000,0.000000,0.000000,0.000000;
#CREDIT:MILEN;
#NOTES:
00000000
00000000
00000000
00000000
,
00000000
00000000
00000000
00000000
,
00000000
00000000
00000000
00000000
,
00000000
00000000
00000000
00000000
,
00001000
01000000
00001000
00000000
,
00010000
00000100
00010000
00000000
,
00001000
00100000
00001000
00000000
,
00010000
00000010
00010000
00011000
,
00000100
00000000
00000010
00000000
,
00000001
00000000
00000100
00000000
,
00001000
00000000
00010000
00000000
,
00100000
00000000
10000000
10000000
,
01000000
00100000
01000000
00000000
,
00010000
00001000
00010000
00000000
,
00000010
00000100
00000010
00000000
,
00001000
00000001
00001000
00000001
,
00000100
00001000
00011000
00000000
,
00010000
00001000
00010000
00100000
,
20000000
00000000
30020000
00030000
,
10000000
01000000
00010000
00001000
,
00000020
00000000
00000032
00000003
,
00000100
00001000
00010000
01000000
,
10000000
00010000
10000000
00010000
,
00100000
00000000
00001000
00000000
00011000
00000000
00010000
00001000
,
00010000
00000000
00000000
00000020
00000000
00000000
00000030
00000000
,
00010000
00001000
00000100
00001000
,
00010000
00000000
00000000
02000000
00000000
00000000
03000000
00000000
,
00010000
00001000
00000010
00001000
,
00010000
00000000
00000000
00022000
00000000
00000000
00033000
00000000
,
00001000
00010000
00100000
10000000
,
01000000
00100000
01000000
00000000
00100000
01000000
00100000
00000000
,
00010000
00001000
00000100
00000010
,
00000001
00000100
00000001
00000100
00000000
00000000
00000010
00000000
,
00001000
00000100
00001000
00000100
00000000
00000000
00010000
00000000
,
00001000
00100000
00001000
00100000
00000000
00000000
00010000
00000000
,
01000000
00100000
01000000
00100000
00000000
00000000
10000000
00000000
,
00010000
00100000
01000000
00000000
00010000
00000000
00001000
00000000
,
00000010
00000100
00001000
00000000
00000001
00000000
00001001
00000000
,
00001000
00000100
00000010
00000000
00001000
00000000
00010000
00000000
,
01000000
00100000
00010000
00000000
10000000
00000000
00100000
00000000
,
01100000
10000000
00000000
00100000
,
00000000
00010000
00000000
00001000
,
00001000
00010000
00000000
00001000
,
00000000
00000010
00000001
00000100
,
00001000
00000000
00010000
00001000
00000000
00001000
00020000
00000000
,
00000000
00031000
01000000
00010000
00000000
01000000
00200000
00000000
,
10300000
00000000
10000000
01000000
10000000
01000000
00100000
00010000
,
00100000
00010000
00100000
00000000
00001000
00000000
00011000
00000000
,
00001000
00010000
00001000
00000000
00000000
00200000
00000000
00300000
,
00000000
00001000
00010000
01000000
,
00010000
00000000
00001000
00000000
00000000
00000200
00000000
00000000
,
00000300
00001000
00010000
00100000
,
00010000
00000000
00001000
00000000
00000000
00022000
00000000
00000000
,
00033000
00010000
00001000
00000010
,
00000001
00000000
00000100
00000010
00000100
00000000
00000010
00000100
,
00000010
00001000
00010000
01000000
,
00100000
00000000
10000000
01000000
00010000
00000000
01000000
00000000
,
00010000
00000000
01000000
00010000
00001000
00000000
00010000
00000000
,
00001000
00000000
00010000
00001000
00000100
00000000
00001000
00000000
,
00000100
00000000
00001000
00000100
00000001
00000000
00000100
00000000
,
00000001
00000000
00000010
00000100
00001000
00000000
00000100
00010000
,
00001000
00000000
01000000
00001000
00010000
00000000
00001000
00100000
,
00010000
00000000
01000000
00100000
10000000
00000000
00100000
01000000
,
00010000
00000000
00100000
01000000
00010000
00001000
00000010
00000001
,
00000200
00000300
00000000
00000000
;

//---------------dance-double - ----------------
#NOTEDATA:;
#CHARTNAME:;
#STEPSTYPE:dance-double;
#DESCRIPTION:;
#CHARTSTYLE:;
#DIFFICULTY:Hard;
#METER:10;
#RADARVALUES:0.400466,0.436616,0.286697,0.087602,0.000000,352.000000,316.000000,36.000000,11.000000,0.000000,0.000000,0.000000,0.000000,0.000000,0.400466,0.436616,0.286697,0.087602,0.000000,352.000000,316.000000,36.000000,11.000000,0.000000,0.000000,0.000000,0.000000,0.000000;
#CREDIT:MILEN;
#NOTES:
00000000
00000000
00000000
00000000
,
00000000
00000000
00000000
00000000
,
00000000
00000000
00000000
00000000
,
00000000
00000000
00000000
00000000
,
00001000
00010000
00100000
01000000
00000000
00000000
00011000
00000000
,
00001000
00010000
01000000
00100000
00000000
00000000
00011000
00000000
,
00001000
00100000
01000000
00010000
00000000
00000000
00011000
00000000
,
00001000
00010000
01000000
00000000
10000000
00100000
01000000
00000000
,
01010000
10000000
00100000
00010000
,
00001000
00000100
00000001
00000010
,
00001000
00010000
01000000
10000000
,
00100000
01000000
00010000
02000000
00000000
00000000
03001000
00000000
,
00001000
00010000
00000100
00000000
00010000
00001000
01000000
00000000
,
00001000
00010000
00000010
00000000
00010000
00001000
00100000
00000000
,
00010000
01000000
00001000
00010000
00000200
00000000
00000310
00000000
,
00000010
00000001
00000100
00000010
00001000
00000100
00010000
01000000
,
00000000
00000000
00000000
22000000
00000000
00000000
33000000
00000000
,
10000000
00100000
00010000
00001000
00000000
00100000
00010000
02000000
,
00000000
00000000
00000000
00200000
00000000
00000000
03300000
00000000
,
10000000
01000000
00100000
00010000
00000000
00100000
00001000
00020000
,
00000000
00000000
00000000
00000020
00000000
00000000
00030030
00000000
,
00010000
00001000
00000100
00000001
00000000
00001000
00000100
00000010
,
00000001
00000100
00001000
00010000
,
00010010
00000000
00101000
00000000
00011000
00001000
00010000
01000000
,
10000000
00000000
00000000
01100000
00000000
00000000
00000000
00000000
,
00100000
10000000
01000000
00010000
00001000
00010000
00001000
00000010
,
00000001
00000000
00000000
00000110
00000000
00000000
00000000
00000000
,
00000100
00000001
00000010
00001000
00010000
00001000
00010000
00100000
,
10000000
00000000
00000000
01100000
00000000
00000000
00000000
00000000
,
10000000
01000000
00010000
00001000
00100000
01000000
00010000
00001000
,
00000010
00000011
00000100
00001100
,
00000001
00000000
00001001
00000000
00001000
00000100
00000010
00001000
,
00010000
00001000
00000100
00000010
00000000
00000000
00011000
00000000
,
00010000
00001000
00000010
00000100
00000000
00000000
00011000
00000000
,
00010000
00000100
00000010
00001000
00000000
00000000
00011000
00000000
,
00010000
00001000
00000010
00000000
00000001
00000100
00000010
00000000
,
00001010
00000001
00000100
00001000
00010000
00100000
00000000
00100000
,
10000000
01000000
00100000
00010000
01000000
00001000
00010000
00000000
,
00010000
00000100
00000010
00000001
00001000
00000010
00010000
00001000
,
00100000
01000000
00010000
00000000
00001000
00000010
00000100
00000000
,
00001001
00000001
00000100
00001000
,
00010000
00100000
10000000
01000000
,
11000000
00010000
00001000
00000010
,
00000001
00000100
00001000
00010000
,
00110000
00000000
10000000
01000000
00000000
01000000
00020000
00000000
,
00000000
00031000
00000010
00000001
00000000
00000001
00000100
00000000
,
00001100
00000000
00001000
00010000
00100000
00010000
00001000
00010000
,
00100000
10000000
11000000
00000000
01100000
00000000
00101000
00000000
,
00001000
00000010
00000001
00000000
00000000
00000110
00000000
00000000
,
00000000
00000000
00000010
00000001
00000100
00001000
01000000
00001000
,
00010000
00100000
10000000
00000000
00000000
01100000
00000000
00000000
,
00000000
00000000
01000000
10000000
00100000
00010000
00000010
00010000
,
00001000
00000100
00000001
00000000
00000000
00000110
00000000
00000000
,
00000000
00000000
00000001
00000010
00001000
01000000
00001000
00010000
,
00000010
00010000
00100000
00000000
10100000
00000000
01000000
00000000
,
01010000
00000000
10000000
00000000
10010000
00000000
00010000
00100000
,
01000000
00010000
00001000
00000010
00000100
00001000
00000000
00000000
,
00101000
00000000
00010000
01000000
00100000
00010000
00000000
00000000
,
00010010
00000000
00001000
00000100
00000010
00001000
00000000
00000000
,
01001000
00000000
00010000
00100000
01000000
00000000
00010000
00001000
,
00000010
00000000
00000011
00001000
00000100
00000010
00000001
00000100
,
00001000
00000000
00010000
00100000
10000000
01000000
00100000
00010000
,
01000000
00000000
00001000
00010000
00100000
00010000
00001000
00000010
,
00001000
00010000
00100000
00000000
10000000
00000000
01000000
00000000
,
00010000
00001000
00022000
00000000
00033000
00000000
00000000
00000000
;
