#VERSION:0.83;
#TITLE:Barber's Madness;
#SUBTITLE:;
#ARTIST:Klass E;
#TITLETRANSLIT:;
#SUBTITLETRANSLIT:;
#ARTISTTRANSLIT:;
#GENRE:VARIETY;
#ORIGIN:;
#CREDIT:MUINELIM;
#BANNER:Barber's Madness.png;
#BACKGROUND:Barber's Madness-bg.png;
#PREVIEWVID:;
#JACKET:Barber's Madness-jacket.png;
#CDIMAGE:;
#DISCIMAGE:;
#LYRICSPATH:;
#CDTITLE:;
#MUSIC:Barber's Madness.ogg;
#OFFSET:-0.024000;
#SAMPLESTART:28.320013;
#SAMPLELENGTH:11.979999;
#SELECTABLE:YES;
#DISPLAYBPM:195.000000;
#BPMS:0.000=195.000;
#STOPS:;
#DELAYS:;
#WARPS:;
#TIMESIGNATURES:0.000=4=4;
#TICKCOUNTS:0.000=2;
#COMBOS:0.000=1;
#SPEEDS:0.000=1.000=0.000=0;
#SCROLLS:0.000=1.000;
#FAKES:;
#LABELS:0.000=Song Start;
#KEYSOUNDS:;
#ATTACKS:
;

//---------------dance-single - ----------------
#NOTEDATA:;
#CHARTNAME:;
#STEPSTYPE:dance-single;
#DESCRIPTION:;
#CHARTSTYLE:;
#DIFFICULTY:Hard;
#METER:16;
#RADARVALUES:0.841761,1.077458,0.445240,0.521026,0.497343,622.000000,575.000000,47.000000,55.000000,0.000000,0.000000,0.000000,0.000000,0.000000,0.841761,1.077458,0.445240,0.521026,0.497343,622.000000,575.000000,47.000000,55.000000,0.000000,0.000000,0.000000,0.000000,0.000000;
#CREDIT:MILEN;
#DISPLAYBPM:195.000000;
#NOTES:
0000
0000
0000
0000
,
0000
0000
0000
0000
0000
1000
1000
0100
,
0010
0002
0000
0000
0000
0000
0013
0010
,
0100
2000
0000
0000
0000
3001
0001
0100
,
0010
2000
0000
3010
0100
0002
0000
0013
,
0010
0100
2000
0000
0000
3100
0100
0010
,
0001
0200
0000
0310
1000
0002
0000
0103
,
0100
0001
2000
0000
0000
3010
0010
0100
,
0001
1000
0000
0000
1000
0010
0000
0000
0010
0100
0000
0000
0100
0001
0000
0000
,
0011
0000
2200
0300
0000
3100
0010
0001
,
0101
0000
2020
0030
0000
3010
0100
0001
,
0011
0010
0100
1000
1010
0010
0100
0001
,
1000
0010
0000
0000
0010
0100
0000
0000
0100
0001
0000
0000
0001
1000
0000
0000
,
1001
0001
0100
0001
0100
0001
0100
0010
,
1000
0100
1000
0100
1000
0100
0100
0010
,
0110
0100
1000
0100
1000
0010
0010
0100
,
0110
0010
0100
0001
0100
0001
0001
0010
,
0110
1000
1000
0100
0110
0001
0001
0010
,
0110
0100
2000
0000
0000
3010
0010
0100
,
0001
1000
2002
3000
0000
0013
0010
0100
,
1000
0010
0220
0030
0000
0301
0001
0010
,
0100
1000
0000
0000
1000
0010
0000
0000
0010
0100
0000
0000
0100
0002
0000
0000
,
1003
0010
1000
0000
0001
0010
0001
0000
1000
0100
1000
0000
0001
0100
0001
0000
,
1001
1000
0010
0100
0001
0010
0100
1000
,
0010
0100
0010
0000
0100
0000
0001
0000
0010
0000
1000
0000
0010
0000
0001
0000
,
0100
0100
0010
1000
0100
0100
0010
0001
,
0100
0000
0100
0000
0010
0000
1000
0000
0100
0010
0000
0000
0010
0001
0000
0000
,
1001
0001
0100
0010
1000
0100
0010
0001
,
0100
0010
0100
0000
0010
0000
1000
0000
0100
0000
0001
0000
0100
0000
1000
0000
,
0010
0010
0100
0001
0010
0010
0100
1000
,
0010
0000
0010
0000
0100
0000
0001
0000
0010
0000
0100
0000
1000
0010
1000
0010
,
1000
0000
0010
0100
0001
0000
0010
0000
0001
0000
0100
0000
1000
0000
0100
0000
,
0010
1000
2020
3000
0000
0130
0001
0010
,
0100
1000
2200
3000
0000
0310
0001
0100
,
1010
0202
0303
0011
,
2200
0300
0000
3001
0100
1000
0100
0001
,
0010
1000
0010
0001
0100
0010
1010
0000
,
0202
0300
0000
1003
0010
0001
0010
1000
,
0100
0001
0100
1000
0010
0001
0010
0100
,
2002
3000
0000
0000
,
0200
0003
0000
0000
,
2000
0300
0000
0000
,
0020
0000
0000
0000
3000
0000
0000
0000
0000
0000
0000
0000
0000
0000
0031
0100
,
0020
1030
0100
0010
,
0001
0000
0000
0100
0000
0000
0010
0000
0010
1000
0000
1000
,
0001
0000
0001
0100
0000
0100
0010
0000
0010
1000
0000
1000
,
0001
0000
0000
0001
0010
0100
2000
0000
0000
3010
0000
0000
,
0100
0001
1000
0100
,
0010
0000
0000
0001
0000
0000
0100
0000
0100
0010
0000
0010
,
1000
0000
1000
0001
0000
0001
0010
0000
0010
0100
0000
0100
,
1000
0000
0000
1000
0010
0100
0002
0000
0000
0013
0100
1000
,
0020
0000
0000
0130
0001
1000
0200
0000
0000
0320
0000
0000
,
0002
0000
0000
0030
0000
0000
1003
0000
0000
1000
0010
1000
,
0001
0100
0001
1000
0100
0010
0001
0100
1000
0001
0010
1000
,
0200
0010
0010
0310
,
0002
1000
1000
1003
,
1000
0010
1000
0010
0001
0100
0001
0100
,
1000
0001
1000
0001
1000
0001
1000
0001
1000
0001
1000
0001
1000
0001
1000
0001
,
1000
0000
0010
0000
0100
0000
1000
0000
0100
0000
0001
0000
0010
0100
0010
0100
,
1000
0000
0010
0000
0100
0000
1000
0000
0100
0000
0001
0000
0010
0100
0010
0100
,
1000
0000
0010
0000
0001
0000
0010
0000
0200
0000
0000
0301
0010
0000
0001
0000
,
0100
0010
0000
0000
0010
1000
0000
0000
1000
0001
0000
0000
0001
0010
0000
0000
,
0011
0000
0001
0000
0100
0000
0010
0000
0001
0000
0010
0000
1000
0100
1000
0100
,
0010
0000
0001
0000
0100
0000
0010
0000
0001
0000
0010
0000
1000
0100
1000
0100
,
0010
0000
0001
0000
0100
0000
0010
0000
2000
0000
0000
3001
0100
0000
0010
0000
,
1000
0100
0000
0000
0100
0010
0000
0000
0010
0001
0000
0000
0001
0100
0000
0000
,
0110
0000
0010
0000
1000
0000
0100
0000
0001
0000
0100
0000
0010
0001
0010
0001
,
0100
0000
0010
0000
1000
0000
0100
0000
0001
0000
0100
0000
0010
0001
0010
0001
,
0100
0000
0010
0000
1000
0000
0001
0000
0020
0000
0000
0130
1000
0000
0010
0000
,
0100
0001
0000
0000
0001
1000
0000
0000
1000
0010
0000
0000
0010
0100
0000
0000
,
0101
0000
0000
0001
0010
0000
0001
0000
0100
0000
1000
0000
0100
0000
0010
0000
,
1010
0000
0000
1000
0100
0000
1000
0000
0010
0000
0001
0000
0010
0000
0100
0000
,
0110
0000
0000
0010
1000
0000
0100
0000
0001
0000
0100
0000
1000
0000
0010
0000
,
0110
0000
0000
0100
0001
0000
0010
0000
1000
0000
0010
0000
0001
0000
0100
0000
,
0010
1000
0010
0000
1000
0010
1000
0000
0010
1000
0010
0000
1000
0100
0010
0000
,
0001
0010
0001
0000
0010
0001
0010
0000
0001
0010
0001
0000
0010
0001
0100
0000
,
0010
1000
0001
0000
0100
0001
1000
0000
0010
1000
0100
0000
0010
0001
0100
0000
,
1100
1010
0011
0101
,
1010
0110
0011
1001
,
1100
0110
0101
1001
,
0220
0000
0330
2010
,
0200
0000
3300
0102
,
0020
0000
0033
2010
,
3200
0000
0302
0000
,
0020
0033
0000
0000
;

//---------------dance-double - ----------------
#NOTEDATA:;
#CHARTNAME:;
#STEPSTYPE:dance-double;
#DESCRIPTION:;
#CHARTSTYLE:;
#DIFFICULTY:Hard;
#METER:16;
#RADARVALUES:0.821461,1.037552,0.388401,0.284196,0.435767,607.000000,566.000000,41.000000,30.000000,0.000000,0.000000,0.000000,0.000000,0.000000,0.821461,1.037552,0.388401,0.284196,0.435767,607.000000,566.000000,41.000000,30.000000,0.000000,0.000000,0.000000,0.000000,0.000000;
#CREDIT:MILEN;
#DISPLAYBPM:195.000000;
#NOTES:
// measure 0
00000000
00000000
00000000
00000000
,  // measure 1
00000000
00000000
00000000
00000000
00000000
10000000
10000000
01000000
,  // measure 2
00100000
00010000
00000000
00000000
00000000
00000000
00001000
00000100
,  // measure 3
00000010
00000001
00000000
00000000
00000000
00000001
00000001
00000100
,  // measure 4
00000010
00001000
00000000
00010000
01000000
00100000
00000000
10000000
,  // measure 5
10000000
00100000
01000000
00000000
00000000
10000000
10000000
01000000
,  // measure 6
00100000
00010000
00000000
00001000
00000100
00000010
00000000
00000001
,  // measure 7
00000001
00000010
00000100
00000000
00000000
00001000
00001000
00010000
,  // measure 8
00001000
00100000
00000000
00000000
00100000
00010000
00000000
00000000
00010000
01000000
00000000
00000000
01000000
00100000
00000000
00000000
,  // measure 9
10100000
00000000
01020000
00000000
00000000
00130000
00001000
00010000
,  // measure 10
00010100
00000000
01002000
00000000
00000000
00013000
00001000
00000100
,  // measure 11
00000010
00000010
00001000
00000100
00000010
00000010
00000001
00000100
,  // measure 12
00001000
00010000
00000000
00000000
00010000
00000100
00000000
00000000
00000100
00000010
00000000
00000000
00000010
00000001
00000000
00000000
,  // measure 13
00000101
00000100
00000010
00010000
00001000
01000000
00100000
10000000
,  // measure 14
00010000
01000000
00001000
00010000
00000010
00000100
00000100
00000001
,  // measure 15
00000011
00000010
00000100
00010000
00001000
00100000
00100000
01000000
,  // measure 16
11000000
10000000
00100000
01000000
00010000
00100000
00100000
00001000
,  // measure 17
00011000
00000000
00000010
00010000
00011000
00000000
01000000
00001000
,  // measure 18
00011000
00010000
00000200
00000000
00000000
00000310
00000010
00000001
,  // measure 19
00000100
00001000
00021000
00000000
00000000
00130000
00100000
10000000
,  // measure 20
01000000
00010000
00012000
00000000
00000000
00003010
00000010
00000001
,  // measure 21
00000100
00000010
00000000
00000000
00000010
00010000
00000000
00000000
00010000
00001000
00000000
00000000
00001000
00200000
00000000
00000000
,  // measure 22
00310000
01000000
00010000
00000000
10000000
00000000
00100000
00000000
00010000
00001000
00010000
00000000
00000100
00000000
00000010
00000000
,  // measure 23
00000011
00000001
00000100
00000010
00010000
00001000
00100000
01000000
,  // measure 24
11000000
10000000
00100000
01000000
10000000
01000000
00010000
00100000
,  // measure 25
01000000
01000000
00010000
00001000
00000100
00000100
00001000
00010000
,  // measure 26
01000000
00000000
01000000
00000000
00010000
00000000
00001000
00000000
00000100
00000001
00000000
00000000
00000001
00001000
00000000
00000000
,  // measure 27
00001010
00000010
00010000
00001000
00100000
01000000
10000000
00010000
,  // measure 28
01010000
01000000
00001000
00010000
00000100
00000010
00000001
00000100
,  // measure 29
00001000
00001000
00100000
01000000
00010000
00010000
00001000
00000010
,  // measure 30
00000100
00000000
00000100
00000000
00010000
00000000
00001000
00000000
00100000
00000000
01000000
00000000
10000000
00100000
10000000
00100000
,  // measure 31
10000000
00100000
00010000
00001000
00010000
00100000
10000000
00100000
,  // measure 32
00010000
00001000
00021000
00000000
00000000
00030100
00000100
00000010
,  // measure 33
00000001
00000100
00000120
00000000
00000000
00010030
00100000
01000000
,  // measure 34
01100000
20020000
30030000
11000000
,  // measure 35
00120000
00000000
00000000
10030000
01000000
00010000
00001000
00010000
,  // measure 36
01000000
10000000
01000000
00010000
00001000
00000010
00000101
00000000
,  // measure 37
00002010
00000000
00000000
00003001
00000100
00001000
00010000
00001000
,  // measure 38
00000100
00000001
00000100
00001000
00010000
00100000
10000000
01000000
,  // measure 39
01200000
00000000
00000000
00000000
,  // measure 40
00320000
00000000
00000000
00000000
,  // measure 41
00032000
00000000
00000000
00000000
,  // measure 42
00003200
00000000
00000000
00000000
00000000
00000000
00000000
00000000
00000000
00000000
00000000
00000000
00000000
00000000
00000310
00000100
,  // measure 43
00000010
00000001
00000100
00001000
,  // measure 44
00010000
00000000
00000000
00100000
00000000
00000000
10000000
00000000
10000000
01000000
00000000
01000000
,  // measure 45
00100000
00000000
00100000
00001000
00000000
00001000
00010000
00000000
00010000
00000010
00000000
00000010
,  // measure 46
00000100
00000000
00000000
00000001
00000010
00000100
00002000
00000000
00000000
00003010
00000000
00000000
,  // measure 47
00010000
00001000
00100000
01000000
,  // measure 48
10000000
00000000
00000000
00100000
00000000
00000000
01000000
00000000
01000000
00010000
00000000
00010000
,  // measure 49
00100000
00000000
00100000
01000000
00000000
01000000
00010000
00000000
00010000
00001000
00000000
00001000
,  // measure 50
00000100
00000000
00000000
00000001
00000010
00000100
00001000
00000000
00000000
00000010
00000100
00001000
,  // measure 51
00010000
00000000
00000000
00001000
00010000
00100000
20000000
00000000
00000000
32000000
00000000
00000000
,  // measure 52
03020000
00000000
00000000
00000000
00000000
00000000
00031000
00000000
00000000
00001000
00100000
00001000
,  // measure 53
00010000
00000010
00010000
00001000
01000000
00001000
00010000
00000100
00010000
00001000
00100000
00010000
,  // measure 54
02000000
00001000
00001000
03001000
,  // measure 55
00000200
00010000
00010000
00010300
,  // measure 56
00010000
00001000
00010000
00001000
00010000
00001000
00010000
00001000
,  // measure 57
00010000
00001000
00010000
00001000
00010000
00001000
00010000
00001000
00010000
00001000
00010000
00001000
00010000
00001000
00010000
00001000
,  // measure 58
00100000
00000000
01000000
00000000
10000000
00000000
00100000
00000000
00010000
00000000
00001000
00000000
00100000
01000000
00100000
00000000
,  // measure 59
01000000
00000000
10000000
00000000
00100000
00000000
00010000
00000000
00001000
00000000
00100000
00000000
01000000
00100000
01000000
00000000
,  // measure 60
10000000
00000000
00100000
00000000
00010000
00000000
00001000
00000000
00100000
00000000
00000000
00100000
00010000
00000000
01000000
00000000
,  // measure 61
00001000
00010000
00000000
00000000
00010000
00000100
00000000
00000000
00000100
00000010
00000000
00000000
00000010
00000001
00000100
00000000
,  // measure 62
00000010
00000000
00000100
00000000
00000001
00000000
00000010
00000000
00001000
00000000
00010000
00000000
00000010
00000100
00000010
00000000
,  // measure 63
00000100
00000000
00000001
00000000
00000010
00000000
00001000
00000000
00010000
00000000
00000010
00000000
00000100
00000010
00000100
00000000
,  // measure 64
00000001
00000000
00000010
00000000
00001000
00000000
00010000
00000000
00000010
00000000
00000000
00000010
00001000
00000000
00000100
00000000
,  // measure 65
00010000
00001000
00000000
00000000
00001000
01000000
00000000
00000000
01000000
00100000
00000000
00000000
00100000
10000000
01000000
00000000
,  // measure 66
00100000
00000000
01000000
00000000
10000000
00000000
00100000
00000000
00010000
00000000
00001000
00000000
00000100
00000010
00000100
00000000
,  // measure 67
00000010
00000000
00010000
00000000
00001000
00000000
00100000
00000000
01000000
00000000
10000000
00000000
00100000
01000000
00100000
00000000
,  // measure 68
01000000
00000000
00010000
00000000
00100000
00000000
01000000
00000000
00010000
00000000
00000000
00010000
00001000
00000000
00000100
00000000
,  // measure 69
00000001
00000010
00000000
00000000
00000010
00001000
00000000
00000000
00001000
00010000
00000000
00000000
00010000
00100000
00000000
00000000
,  // measure 70
10000000
00000000
01000000
00100000
01000000
00000000
00010000
00000000
00001000
00000000
00000010
00000000
00000001
00000000
00000100
00000000
,  // measure 71
00000001
00000000
00000010
00000100
00000010
00000000
00001000
00000000
00010000
00000000
01000000
00000000
10000000
00000000
00100000
00000000
,  // measure 72
10000000
00000000
01000000
00100000
01000000
00000000
00010000
00000000
00001000
00000000
00000100
00000000
00000010
00000000
00001000
00000000
,  // measure 73
00000001
00000000
00000010
00000100
00000010
00000000
00001000
00000000
00010000
00000000
00100000
00000000
01000000
00000000
00010000
00000000
,  // measure 74
10000000
00100000
10000000
00000000
00100000
01000000
00100000
00000000
01000000
00010000
01000000
00000000
00001000
00000000
00010000
00000000
,  // measure 75
00000100
00001000
00000100
00000000
00001000
00000001
00001000
00000000
00000001
00000010
00000001
00000000
00000100
00000000
00000010
00000000
,  // measure 76
00010000
00001000
00100000
00000000
00001000
00010000
00000100
00000000
00010000
00001000
01000000
00000000
00001000
00010000
00000010
00000000
,  // measure 77
00001010
00010100
00101000
01010000
,  // measure 78
11000000
01100000
00110000
00011000
,  // measure 79
00001100
00000110
00000011
00001001
,  // measure 80
00000220
00000000
00000330
00002010
,  // measure 81
00103000
00000000
00000000
01020000
,  // measure 82
00030100
00000000
00000000
00002010
,  // measure 83
00203000
00000000
20300000
00000000
,  // measure 84
02000000
33000000
00000000
00000000
;

//---------------dance-single - ----------------
#NOTEDATA:;
#CHARTNAME:;
#STEPSTYPE:dance-single;
#DESCRIPTION:;
#CHARTSTYLE:;
#DIFFICULTY:Beginner;
#METER:5;
#RADARVALUES:0.192171,0.278512,0.028420,0.066312,0.000000,142.000000,139.000000,3.000000,7.000000,0.000000,0.000000,0.000000,0.000000,0.000000,0.192171,0.278512,0.028420,0.066312,0.000000,142.000000,139.000000,3.000000,7.000000,0.000000,0.000000,0.000000,0.000000,0.000000;
#CREDIT:MILEN;
#DISPLAYBPM:195.000000;
#NOTES:
0000
0000
0000
0000
,
0000
0000
0000
0000
,
0000
0000
0000
0000
,
0000
0000
0000
0000
,
0000
0000
0000
0000
,
0000
0000
0000
0000
,
0000
0000
0000
0000
,
0000
0000
0000
0000
,
0000
0000
0000
0000
,
1000
1000
0000
0000
,
0001
0001
0000
0000
,
1000
0000
0001
0000
,
1000
1000
1000
1000
,
1000
0000
0100
0000
,
1000
0000
0100
0000
,
1000
0000
0000
0000
,
0001
0000
0000
0000
,
0100
0000
0100
0000
,
0010
0010
0000
0000
,
0100
0100
0000
0000
,
0010
0010
0000
0000
,
0100
0000
0010
0000
,
1000
0000
0001
0000
,
0100
0000
0100
0000
,
0100
0000
0100
0000
,
0010
0000
0010
0000
,
0010
0000
0010
1000
,
1000
0000
1000
0000
,
0001
0000
0001
0000
,
1000
0000
0001
0000
,
1000
0000
0001
0001
,
0100
0000
0010
0000
,
1000
0000
0000
0000
,
0001
0000
0000
0000
,
1000
1000
0000
0000
,
1001
0000
0010
0000
,
0010
0000
0010
0000
,
1001
0000
0010
0000
,
0010
0000
0010
0000
,
0001
0000
0000
0000
,
1000
0000
0000
0000
,
0001
0000
0000
0000
,
1000
0000
0000
0000
,
0002
0003
0000
0000
,
0000
0000
0000
0000
,
0100
0000
0010
0000
,
0100
0010
0010
0000
,
0000
0000
0000
0000
,
0000
0000
0000
0000
,
1000
0000
0001
0000
,
1000
0001
0001
0000
,
0000
1000
1000
0000
,
0020
0000
0030
0000
,
0100
0000
0100
0000
,
0001
0000
1000
0000
,
0010
0000
0100
0000
,
0001
0000
1000
0000
,
0010
0010
0010
0010
,
0100
0000
0001
0000
,
0010
0000
0100
0000
,
1000
0000
0010
0000
,
0100
0001
0100
0000
,
0010
0000
1000
0000
,
0100
0000
0010
0000
,
0001
0000
1000
0000
,
0100
1000
0100
0000
,
1000
0000
0001
0000
,
0010
0000
0100
0000
,
1000
0000
0010
0000
,
0100
0010
0100
0000
,
0020
0030
0000
0000
,
0020
0030
0000
0000
,
0020
0030
0000
0000
,
0020
0030
0000
0000
,
0020
0000
0000
0000
,
0000
0000
0000
0000
,
0000
0000
0000
0030
,
0010
0010
0010
0010
,
1000
0000
0001
0000
,
0100
0000
1000
0000
,
0010
0000
0000
0001
,
0001
0000
0000
1000
,
1000
0000
0000
0010
,
0010
0000
0100
0000
,
0110
0000
0000
0000
;

//---------------dance-single - ----------------
#NOTEDATA:;
#CHARTNAME:;
#STEPSTYPE:dance-single;
#DESCRIPTION:;
#CHARTSTYLE:;
#DIFFICULTY:Easy;
#METER:9;
#RADARVALUES:0.368101,0.557024,0.170518,0.331562,0.000000,272.000000,254.000000,18.000000,35.000000,0.000000,0.000000,0.000000,0.000000,0.000000,0.368101,0.557024,0.170518,0.331562,0.000000,272.000000,254.000000,18.000000,35.000000,0.000000,0.000000,0.000000,0.000000,0.000000;
#CREDIT:MILEN;
#DISPLAYBPM:195.000000;
#NOTES:
0000
0000
0000
0000
,
0000
0000
0000
0000
,
0000
0000
0000
0000
,
0000
0000
0000
0000
,
0000
0000
0000
0000
,
0000
0000
0000
0000
,
0000
0000
0000
0000
,
0000
0000
0000
0000
,
0000
0000
0000
0000
,
1000
2000
0000
3000
,
0001
0002
0000
0003
,
1000
1000
0001
0001
,
1000
0001
1000
0001
,
1001
0100
1000
0100
,
1000
0100
1000
0100
,
0200
0000
0300
0010
,
0020
0000
0030
0100
,
0200
0300
0020
0030
,
0001
0002
0003
1000
,
1000
0020
0030
0001
,
0001
0020
0030
1000
,
1000
0001
0010
0100
,
1000
0001
1000
0000
0001
0000
1000
0000
,
1001
0001
0100
0001
,
1000
0001
0100
0001
,
1000
1000
0100
0100
,
0010
0010
0001
0001
,
1001
1000
0100
1000
,
0001
1000
0100
1000
,
0001
0001
0100
0100
,
0010
0010
1000
1000
,
0001
0010
0100
1000
,
0010
0200
0300
0010
,
1000
0200
0300
1000
,
0010
0200
0000
0310
,
0110
0000
1000
0100
,
0010
0001
1000
0100
,
0110
0000
0001
0010
,
0100
1000
0001
0010
,
0220
0000
0000
0000
,
0000
0000
0000
0000
,
0000
0000
0000
0000
,
0000
0000
0000
0330
,
2000
3001
1000
0100
,
0010
0001
1000
0100
,
0100
0001
0001
0010
,
0010
2000
3001
0000
,
0001
0010
0100
1000
,
0001
0010
0100
1000
,
1000
0010
0010
0001
,
0001
0200
1300
0100
,
0100
0010
0010
0001
,
2002
0000
3003
1000
,
0010
0001
0100
1000
,
0020
0030
0100
0001
,
0020
0030
0100
1000
,
0010
0010
0100
0100
,
0010
0100
0010
0000
0100
0010
0100
0000
,
0001
1000
0001
0100
,
1000
0001
1000
0010
,
0001
1000
0001
0100
,
1000
1000
0010
0100
,
1001
0001
1000
0010
,
0001
1000
0001
0100
,
1000
0001
1000
0010
,
0001
0001
0100
0010
,
1001
1000
0001
0010
,
1000
0001
1000
0100
,
0001
1000
0001
0010
,
1000
1000
0100
0010
,
2002
3003
0010
0100
,
2002
3003
0010
0010
,
2002
3003
0100
0100
,
2002
3003
0010
0010
,
0001
0001
0100
0100
,
1000
1000
0010
0010
,
0001
0100
1000
0010
,
0100
0001
1000
0010
,
0100
0101
0010
1010
,
0001
0011
1000
1100
,
2002
3003
0000
0010
,
0020
0030
0000
0100
,
0200
0300
0000
0001
,
0002
0000
2003
0000
,
3001
0000
0000
0000
;

//---------------dance-single - ----------------
#NOTEDATA:;
#CHARTNAME:;
#STEPSTYPE:dance-single;
#DESCRIPTION:;
#CHARTSTYLE:;
#DIFFICULTY:Medium;
#METER:12;
#RADARVALUES:0.583278,0.718305,0.388401,0.558919,0.080522,431.000000,390.000000,41.000000,59.000000,0.000000,0.000000,0.000000,0.000000,0.000000,0.583278,0.718305,0.388401,0.558919,0.080522,431.000000,390.000000,41.000000,59.000000,0.000000,0.000000,0.000000,0.000000,0.000000;
#CREDIT:MILEN;
#DISPLAYBPM:195.000000;
#NOTES:
0000
0000
0000
0000
,
0000
0000
0000
1000
,
0020
0000
0030
0001
,
0200
0000
0300
1000
,
0020
0030
0002
0003
,
0100
2000
3000
0001
,
0020
0030
2000
3000
,
0100
0002
0003
1000
,
0100
0010
0001
0100
,
0010
2002
3003
0010
,
0100
2002
3003
0100
,
0010
1000
0001
0100
,
0110
1001
0110
1001
,
1000
0010
0100
0000
0010
0000
1000
0000
,
0001
0100
0010
0000
0100
0000
0001
0000
,
1000
0100
0010
0000
0100
0000
1000
0000
,
0001
0010
0100
0000
0010
0000
0001
0000
,
1000
0010
2000
0000
3001
0100
0002
0000
,
1003
0010
0100
0001
1000
0000
0001
0000
,
0010
0100
1000
0010
0100
0000
0010
0000
,
0100
0001
1000
0100
0010
0000
0100
0000
,
0010
0001
0020
0000
0130
1000
0200
0000
,
0310
0001
0010
0001
0010
0100
0010
0100
,
1000
0010
0100
0110
,
0001
0100
0010
0110
,
1000
0100
0010
0000
0001
0010
0100
0000
,
1000
0010
0100
0001
0100
0010
1000
0000
,
0001
0010
0100
0110
,
1000
0100
0010
0110
,
0001
0100
0010
0000
1000
0010
0100
0000
,
0001
0010
0100
1000
0100
0010
0001
0100
,
0010
0010
1000
0001
1000
0001
0010
0100
,
0010
0100
2000
0000
0000
3100
0100
0010
,
0100
0010
0002
0000
0000
0013
0010
0100
,
1100
0022
0033
0101
,
2020
0030
0000
3100
0100
0000
0010
0000
,
0001
1000
0100
0010
,
0022
0030
0000
0103
0100
0000
0010
0000
,
1000
0001
0100
0010
,
2020
0030
0000
0000
,
0200
3000
0000
0000
,
0020
0300
0000
0000
,
0002
0000
0030
0000
0000
0000
0000
1000
,
1003
0010
0001
0100
,
1000
0000
0000
0010
0000
0000
0001
0000
0000
0100
0000
1000
,
0010
0000
0000
0100
0000
0001
0010
0000
0000
0100
0000
1000
,
0010
0000
0000
0100
0001
0100
0002
0000
0000
0003
0000
0000
,
0010
1000
0100
0001
,
1000
0000
0000
0010
0000
0000
0001
0000
0000
0100
0000
0010
,
1000
0000
0000
0100
0000
0010
0001
0000
0000
0100
0000
0010
,
1000
0000
0000
0100
0010
0100
0020
0000
0000
0032
0000
0000
,
2003
0000
0000
3010
0100
0010
0200
0000
0000
0302
0000
0000
,
2000
0000
0000
3003
0000
0000
1001
0000
0000
0001
0000
0001
,
0100
0000
0100
0010
0000
0010
1000
0000
1000
0100
0000
0100
,
0020
0001
1000
0031
,
0200
0001
1000
0301
,
0020
1030
0200
0301
,
0001
1000
0010
0100
0001
1000
0010
0100
,
0002
1000
1003
0000
0100
0000
0010
0000
,
0002
0100
0103
0000
0010
0000
1000
0000
,
0002
0010
0013
0000
0100
0000
1000
0010
,
0101
1100
0011
1010
,
2000
0001
3001
0000
0010
0000
0100
0000
,
2000
0010
3010
0000
0100
0000
0001
0000
,
2000
0100
3100
0000
0010
0000
0001
0100
,
1010
0011
1100
0101
,
0200
0010
0310
0000
1000
0000
0001
0000
,
0020
1000
1030
0000
0001
0000
1000
0000
,
0200
0001
0301
0000
1000
0000
0001
0100
,
1100
0011
1010
0101
,
1001
0000
1000
0100
0010
0001
0100
0010
,
1000
0000
0001
0010
0100
1000
0010
0100
,
0001
0000
1000
0010
0001
0010
0100
0001
,
0010
0000
0001
0100
1000
0100
0010
1000
,
0001
0100
0001
0100
0001
0100
0001
0100
,
0010
1000
0010
1000
0010
1000
0010
1000
,
0001
0010
0100
1000
0010
0100
0001
1000
,
0100
1001
0010
1001
,
1100
1010
1100
1010
,
0101
0011
0101
0011
,
2002
3003
0000
0020
,
2000
3030
0000
0200
,
0002
0303
0000
2000
,
0200
3300
0002
0000
,
0020
0033
0000
0000
;

//---------------dance-double - ----------------
#NOTEDATA:;
#CHARTNAME:;
#STEPSTYPE:dance-double;
#DESCRIPTION:;
#CHARTSTYLE:;
#DIFFICULTY:Medium;
#METER:12;
#RADARVALUES:0.561625,0.718305,0.397874,0.416821,0.052103,415.000000,373.000000,42.000000,44.000000,0.000000,0.000000,0.000000,0.000000,0.000000,0.561625,0.718305,0.397874,0.416821,0.052103,415.000000,373.000000,42.000000,44.000000,0.000000,0.000000,0.000000,0.000000,0.000000;
#CREDIT:MILEN;
#DISPLAYBPM:195.000000;
#NOTES:
00000000
00000000
00000000
00000000
,
00000000
00000000
00000000
00001000
,
00200000
00000000
00300000
00010000
,
02000000
00000000
03000000
00001000
,
00020000
00030000
00000200
00000300
,
00001000
00000020
00000030
00010000
,
00002000
00003000
02000000
03000000
,
00010000
00200000
00300000
00001000
,
00010000
00000100
00001000
00000100
,
00010000
00022000
00033000
01000000
,
00001000
00022000
00033000
00000010
,
00010000
00001000
00100000
00001000
,
00011000
00010000
00011000
00001000
,
00010000
00100000
10000000
01000000
,
00010000
00001000
00000010
00000001
,
00000100
00001000
00010000
00000000
00001000
00000000
00010000
00000000
,
01000000
00010000
00001000
00000000
00010000
00000000
00001000
00000000
,
00000010
00001000
00010000
00000000
00100000
00010000
00001000
00000000
,
00010000
00001000
00010000
00001000
00010000
00000000
01000000
00000000
,
10000000
00100000
00010000
00000000
00011000
00000000
00000100
00000000
,
00000001
00000010
00001000
00000000
00011000
00000000
01000000
00000000
,
10000000
00100000
00010000
00000000
00001000
00000100
00000001
00000000
,
00000010
00000100
00000010
00000100
00010000
00001000
00010000
00001000
,
01000000
00100000
10000000
10100000
,
00100000
01000000
00010000
01010000
,
01000000
00100000
10000000
00000000
00100000
01000000
00010000
00000000
,
10000000
01000000
00100000
00010000
00001000
00000000
00001100
00000000
,
00000100
00000010
00000001
00000011
,
00000010
00000100
00001000
00001100
,
00000100
00000010
00000001
00000000
00000010
00000100
00001000
00000000
,
00000001
00000100
00000010
00001000
00010000
00000000
01010000
00000000
,
01000000
00100000
10000000
01000000
00100000
00010000
01000000
00100000
,
10000000
01000000
00200000
00000000
00000000
00301000
00010000
00001000
,
00010000
00000100
00000020
00000000
00000000
00000031
00000001
00000100
,
00002000
00020000
00033000
00010100
,
01002000
00000000
00000000
00013000
00010000
00000000
00100000
00000000
,
10000000
01000000
00010000
00001000
,
00201000
00000000
00000000
00310000
00010000
00000000
01000000
00000000
,
10000000
01000000
00100000
00010000
,
00022000
00030000
00000000
00000000
,
02000000
00003000
00000000
00000000
,
00020000
03000000
00000000
00000000
,
00000200
00000000
00030000
00000000
00000000
00000000
00000000
00000301
,
00000001
00000010
00000100
00001000
,
00010000
01000000
00100000
10000000
,
11000000
00100000
00110000
00001000
,
00011000
00000000
00000000
00000100
00001000
00000100
00002000
00000000
00000000
00003000
00000000
00000000
,
00000001
00000100
00000010
00001000
,
00010000
00100000
01000000
10000000
,
10100000
01000000
01010000
00001000
,
00011000
00000000
00000000
00000010
00001000
00000010
00002000
00000000
00000000
00003200
00000000
00000000
,
00020300
00000000
00000000
00031000
00100000
00001000
00200000
00000000
00000000
00320000
00000000
00000000
,
20000000
00000000
00000000
30030000
00000000
00000000
10010000
00000000
00000000
10000000
00000000
10000000
,
01000000
00000000
01000000
00100000
00000000
00100000
00001000
00000000
00001000
00010000
00000000
00010000
,
00000200
00000010
00001000
00010300
,
00200000
01000000
00010000
00301000
,
00000020
00010030
02000000
03001000
,
00001000
00010000
00001000
00010000
00001000
00010000
00001000
00010000
,
01000000
10000000
00100000
00000000
00010000
00000000
00100000
00000000
,
10000000
01000000
00010000
00000000
01000000
00000000
10000000
00000000
,
00100000
00010000
00001000
00000000
00010000
00000000
00100000
10000000
,
01000000
01100000
00110000
00011000
,
00000100
00000001
00000010
00000000
00001000
00000000
00000010
00000000
,
00000001
00000100
00001000
00000000
00000100
00000000
00000001
00000000
,
00000010
00001000
00010000
00000000
00001000
00000000
00000010
00000001
,
00000100
00000110
00001010
00011000
,
00001000
00010000
00100000
00000000
10000000
00000000
01000000
00000000
,
00010000
00001000
00000010
00000000
00000001
00000000
00000100
00000000
,
00001000
00010000
01000000
00000000
10000000
00000000
00100000
00010000
,
00001000
00101000
00010010
01001000
,
00010100
00000000
00010000
00001000
00000100
00000010
00000100
00001000
,
00010000
00000000
00001000
00010000
00100000
01000000
00100000
00010000
,
00001000
00000000
00100000
01000000
00010000
00001000
00000010
00000100
,
00001000
00000000
00000100
00000010
00001000
00010000
01000000
00100000
,
00010000
01000000
10000000
00000000
10000000
01000000
00001000
00000000
,
00010000
00000010
00000001
00000000
00000001
00000010
00001000
00000000
,
00000100
00000010
00000001
00000100
00001000
00010000
00100000
10000000
,
01000000
00010000
00001000
00000010
,
00000011
00000101
00001010
00001100
,
00011000
01010000
00110000
11000000
,
20200000
30300000
00000000
00200000
,
00020000
00330000
00000000
00020000
,
00002000
00033000
00000000
00002000
,
00000200
00003300
00000002
00000000
,
00000020
00000033
00000000
00000000
;

//---------------dance-double - ----------------
#NOTEDATA:;
#CHARTNAME:;
#STEPSTYPE:dance-double;
#DESCRIPTION:;
#CHARTSTYLE:;
#DIFFICULTY:Easy;
#METER:9;
#RADARVALUES:0.361335,0.397874,0.123152,0.293669,0.000000,267.000000,254.000000,13.000000,31.000000,0.000000,0.000000,0.000000,0.000000,0.000000,0.361335,0.397874,0.123152,0.293669,0.000000,267.000000,254.000000,13.000000,31.000000,0.000000,0.000000,0.000000,0.000000,0.000000;
#CREDIT:MILEN;
#DISPLAYBPM:195.000000;
#NOTES:
00000000
00000000
00000000
00000000
,
00000000
00000000
00000000
00000000
,
00000000
00000000
00000000
00000000
,
00000000
00000000
00000000
00000000
,
00000000
00000000
00000000
00000000
,
00000000
00000000
00000000
00000000
,
00000000
00000000
00000000
00000000
,
00000000
00000000
00000000
00000000
,
00000000
00000000
00000000
00000000
,
00001000
00002000
00000000
00003000
,
00010000
00020000
00000000
00030000
,
00001000
00001000
00010000
00010000
,
00001000
00010000
00001000
00010000
,
00011000
01000000
00001000
00010000
,
00000010
00010000
00001000
01000000
,
02000000
00000000
03000000
00001000
,
00002000
00000000
00003000
00010000
,
00020000
00030000
00000200
00000300
,
00000010
00000020
00000030
00000001
,
00000100
00002000
00003000
00010000
,
00100000
20000000
30000000
01000000
,
00100000
00010000
01000000
00100000
,
00010000
00001000
00000100
00000010
,
00001001
00001000
00000100
00010000
,
00000100
00001000
00000100
00010000
,
00000100
00000010
00000001
00000100
,
00001000
00010000
00100000
10000000
,
10010000
00010000
01000000
00001000
,
01000000
00010000
01000000
00001000
,
01000000
00100000
10000000
01000000
,
00010000
00001000
00000010
00000002
,
00000103
00000100
00000010
00010000
,
00001000
00200000
00300000
00001000
,
00010000
00000200
00000300
00010000
,
00001000
02000000
00000000
03100000
,
01100000
00000000
10000000
01000000
,
00100000
00010000
00001000
00000100
,
00000010
00000000
00000001
00000010
,
00000100
00001000
00010000
00100000
,
01100000
00000000
00000000
00000000
,
00011000
00000000
00000000
00000000
,
00000110
00000000
00000000
00000000
,
00011000
00000000
00000000
00000000
,
00002000
00013000
00010000
01000000
,
10000000
01000000
00010000
00001000
,
00100000
01000000
00010000
00001000
,
00000010
00000200
00000310
00000000
,
00001000
00000010
00000001
00000010
,
00001000
00000100
00000010
00001000
,
00010000
01000000
00100000
00001000
,
00010000
00200000
10300000
01000000
,
01000000
00020000
00031000
00000010
,
00000202
00000000
00000303
00000001
,
00000100
00000010
00001000
00010000
,
00200000
00300000
00010000
00100000
,
02000000
03000000
00100000
01000000
,
10000000
10000000
00100000
00100000
,
00010000
00001000
00010000
00001000
,
00011000
00010000
01000000
10000000
,
00100000
00010000
00001000
00010000
,
01000000
10000000
00100000
00010000
,
00001000
00100000
01000000
00010000
,
00011000
00001000
00000100
00000001
,
00000010
00001000
00010000
00001000
,
00000100
00000001
00000010
00001000
,
00010000
00000010
00000100
00001000
,
00011000
00010000
00100000
10000000
,
01000000
00010000
00001000
00000010
,
00000001
00000100
00001000
00010000
,
00100000
10000000
01000000
00100000
,
00020000
00030000
00100000
00010000
,
00002000
00003000
00010000
00001000
,
00000020
00000030
00001000
00000010
,
00000200
00000300
00000001
00000001
,
00000010
00001000
00010000
00001000
,
00000010
00001000
00010000
00100000
,
00010000
00001000
00010000
00100000
,
10000000
01000000
00100000
00010000
,
00001000
00000010
00000100
00000001
,
00000010
00000100
00001000
00010000
,
02020000
03030000
00000000
10000000
,
20000000
30000000
00000000
00010000
,
00020000
00030000
00000000
00001000
,
00002000
00000000
00003002
00000000
,
00001003
00000000
00000000
00000000
;
