#VERSION:0.83;
#TITLE:BOCA;
#SUBTITLE:;
#ARTIST:Dreamcatcher;
#TITLETRANSLIT:;
#SUBTITLETRANSLIT:;
#ARTISTTRANSLIT:;
#GENRE:K-POP;
#ORIGIN:;
#CREDIT:MUINELIM;
#BANNER:BOCA.png;
#BACKGROUND:BOCA-bg.png;
#PREVIEWVID:;
#JACKET:BOCA-jacket.png;
#CDIMAGE:;
#DISCIMAGE:;
#LYRICSPATH:;
#CDTITLE:;
#MUSIC:BOCA.ogg;
#OFFSET:0.000000;
#SAMPLESTART:65.400002;
#SAMPLELENGTH:11.919998;
#SELECTABLE:YES;
#BPMS:0.000=200.000,
344.000=100.000,
345.000=200.000;
#STOPS:93.000=0.900,
94.000=0.150,
94.500=0.150,
95.000=0.150,
95.500=0.150,
344.000=0.900;
#DELAYS:;
#WARPS:;
#TIMESIGNATURES:0.000=4=4;
#TICKCOUNTS:0.000=4;
#COMBOS:0.000=1;
#SPEEDS:0.000=1.000=0.000=0;
#SCROLLS:0.000=1.000;
#FAKES:;
#LABELS:0.000=Song Start;
#BGCHANGES:0.000=BOCA-bg.png=1.000=0=0=1====#000000=#000000,
12.000=BOCA.avi=1.000=1=0=0=StretchNoLoop==CrossFade==,
99999=-nosongbg-=1.000=0=0=0 // don't automatically add -songbackground-
;
#KEYSOUNDS:;
#ATTACKS:
;

//---------------dance-single - ----------------
#NOTEDATA:;
#CHARTNAME:;
#STEPSTYPE:dance-single;
#DESCRIPTION:;
#CHARTSTYLE:;
#DIFFICULTY:Challenge;
#METER:17;
#RADARVALUES:0.759231,1.057222,0.866762,0.714698,0.193881,699.000000,585.000000,114.000000,94.000000,0.000000,0.000000,0.000000,0.000000,0.000000,0.759231,1.057222,0.866762,0.714698,0.193881,699.000000,585.000000,114.000000,94.000000,0.000000,0.000000,0.000000,0.000000,0.000000;
#CREDIT:MILEN;
#NOTES:
0000
0000
0000
0000
,
0000
0000
0000
0000
,
0000
0000
0000
0000
,
0000
0000
0000
0000
,
0000
0000
0000
0000
,
0000
0000
0000
0000
,
0000
0000
0000
0000
,
0100
0000
2020
3030
0000
0220
0330
0000
,
0101
0000
0001
0010
0100
0010
0001
1000
,
0010
0000
0202
0303
0000
0220
0330
0000
,
1010
0000
1000
0100
0010
0100
1000
0001
,
0100
0000
2020
3030
0000
0202
0303
0000
,
1001
0000
0001
1000
0100
0010
0001
0100
,
0010
0000
0000
0000
0220
0000
0330
0000
0000
0000
0100
0001
0100
0000
0000
0000
,
0010
0000
0000
0000
0220
0000
0330
0000
0000
0000
0010
1000
0010
0000
0000
0000
,
0100
0000
0202
0303
0000
0022
0033
0000
,
1100
0000
0100
0010
1000
0010
0001
0100
,
0010
0000
2020
3030
0000
0202
0303
0000
,
0011
0000
0010
0100
0001
0100
1000
0010
,
0100
0000
0220
0000
0330
0000
0001
1000
,
0100
0000
2200
0000
3300
0000
1000
0001
,
0010
0000
0011
0001
0100
0010
1000
0000
,
1100
0000
0202
0300
0000
1003
0010
0000
,
0110
0000
1001
0000
1010
0011
0101
1100
,
2002
3000
0000
0103
0110
0000
0010
1000
,
0100
0010
0100
0000
0010
0000
0001
0000
0100
0010
0100
0000
0010
0000
1000
0000
,
0100
0200
0000
0000
0310
0000
0010
0100
,
1000
0010
1000
0000
0010
0000
0100
0000
0001
0010
0001
0000
0010
0000
0100
0000
,
1000
2000
0000
0000
3001
0000
0001
0100
,
0010
1000
0010
0000
1000
0000
0100
0000
0010
0001
0010
0000
0002
0000
0000
0000
,
0103
0010
1000
0001
0100
0000
1010
0000
,
0202
0000
0303
0000
0010
0100
0001
1000
,
0010
0101
2010
0100
,
3002
0000
0000
0010
0000
0000
1003
0000
,
1000
0100
0001
0100
0010
0000
1100
0000
,
0022
0000
0033
0000
0001
0010
1000
0010
,
0100
0000
0011
0000
1100
1000
0100
0010
,
0001
0100
0020
0000
0030
0000
0000
0000
1000
0010
0200
0000
0300
0000
0000
0000
,
0102
0000
0000
0003
,
0010
0100
2000
0000
3000
0000
0000
0000
0100
0010
0002
0000
0003
0000
0000
0000
,
2001
0000
0000
3000
,
0001
0010
0200
0000
0300
0000
0000
0000
1000
0010
0200
0000
0300
0000
0000
0000
,
0120
0000
0000
1030
,
1000
0001
0200
0000
0300
0000
0000
0000
0001
1000
0020
0000
0030
0000
0000
0000
,
2010
0000
0000
0100
0000
0000
3001
0000
,
0001
0100
0020
0000
0030
0000
0000
0000
1000
0100
0020
0000
0030
0000
0000
0000
,
0010
0001
1000
0001
0010
0001
1000
0001
,
0010
0001
0010
0000
0100
0000
0010
0000
0100
1000
0100
0000
1000
0000
0010
0000
,
0100
0100
0001
1000
0010
0100
0001
1000
,
1020
0230
0302
1003
,
1001
0000
0110
0000
0101
0100
0010
0100
,
1001
0000
0110
0000
1010
0010
0100
0010
,
2002
3000
0000
0100
0103
0000
0110
0000
,
1010
0000
0000
0000
1000
0100
0010
0001
2000
0000
0000
0000
3001
0000
0000
0000
,
0011
1000
0010
1010
0000
0000
1100
0000
,
1010
0001
0010
0011
0000
0000
0101
0000
,
0011
1000
0010
1010
0000
0000
1100
0000
,
1010
0010
0100
0101
0100
0010
1010
0000
,
1100
0001
0100
0101
0000
0000
0011
0000
,
0101
1000
0100
1100
0000
0000
1010
0000
,
1100
0001
0100
0101
0000
0000
0011
0000
,
1001
0000
0100
0010
0000
0100
0010
0000
0100
0000
0001
0000
1000
0000
0000
0000
,
0001
0010
0001
0010
1000
0010
1000
0010
,
0001
0100
0001
0100
1000
0100
1000
0100
,
0001
0010
1000
0010
0001
0100
1000
0100
,
0001
0000
0010
0100
0000
0010
0100
0000
1000
0000
0010
0000
0100
0000
0000
0000
,
1001
1000
0010
0001
0010
1000
0100
0001
,
0100
1000
0010
0001
0010
1000
0100
0010
,
0001
1000
0002
0000
0000
0000
0103
0000
0101
0000
0000
0000
1010
0000
0000
0000
,
0110
0010
0001
0010
1000
0001
0100
1000
,
0200
0302
0023
0230
,
2300
0000
3020
0100
0030
2000
0001
0000
,
3020
0230
0302
2003
,
3200
0000
0000
0001
0000
0000
1000
0000
,
0320
0000
0000
0031
0100
0000
0010
0000
,
1010
0000
0000
1000
0100
0000
0010
0000
,
0011
0000
0000
0101
0000
0000
1100
0000
,
1010
0000
0000
0011
0000
0000
1001
0000
,
0120
2030
3002
0023
,
0230
0000
2300
0001
3000
0020
0100
0000
,
2030
3200
0302
2003
,
3020
0000
0000
0001
0000
0000
1000
0000
,
0031
0100
0001
0100
0001
0100
0001
0100
,
0010
1000
0010
1000
0010
1000
0010
1000
,
0100
0010
0100
0000
0010
0000
0001
0000
0100
0010
0100
0000
0010
0000
1000
0000
,
0100
0010
0100
0010
0001
0100
0001
0100
0010
1000
0010
1000
0100
0010
0100
0010
,
0200
0000
0000
0000
1300
0100
0010
0002
2000
0000
0000
0000
3003
0000
0000
0000
,
1010
0001
0010
0011
1000
0100
0110
0000
,
0011
1000
0010
1010
0001
0100
0110
0000
,
1010
0001
0010
0011
1000
0100
0110
0000
,
0010
0001
0010
0001
0010
0000
0100
0000
1000
0010
1000
0010
1000
0000
0001
0000
,
0101
0010
1000
1100
0010
0001
1001
0000
,
1100
0010
0001
0101
0010
1000
1001
0000
,
0101
0010
1000
1100
0010
0001
1001
0000
,
1000
0010
1000
0010
1000
0000
0100
0000
0010
0001
0010
0001
0010
0000
0100
0000
,
1000
0010
0001
0010
1000
0100
0001
0100
,
1000
0010
0001
1000
0100
0001
0010
1000
,
0001
0100
1000
0010
0001
1000
0100
0001
,
0010
0100
0010
0100
1000
0000
0001
0000
0100
0010
0100
0010
0001
0000
0010
0000
,
1000
0100
0001
1000
0010
0001
0100
1000
,
0001
0010
1000
0100
0001
1000
0010
0001
,
2002
0003
0010
0010
3100
0000
1100
1100
,
1010
1010
0011
0011
0101
0101
2002
0000
,
3003
0000
0000
0000
;

//---------------dance-double - ----------------
#NOTEDATA:;
#CHARTNAME:;
#STEPSTYPE:dance-double;
#DESCRIPTION:;
#CHARTSTYLE:;
#DIFFICULTY:Challenge;
#METER:17;
#RADARVALUES:0.751628,1.057222,0.577841,0.684286,0.266111,692.000000,616.000000,76.000000,90.000000,0.000000,0.000000,0.000000,0.000000,0.000000,0.751628,1.057222,0.577841,0.684286,0.266111,692.000000,616.000000,76.000000,90.000000,0.000000,0.000000,0.000000,0.000000,0.000000;
#CREDIT:MILEN;
#NOTES:
00000000
00000000
00000000
00000000
,
00000000
00000000
00000000
00000000
,
00000000
00000000
00000000
00000000
,
00000000
00000000
00000000
00000000
,
00000000
00000000
00000000
00000000
,
00000000
00000000
00000000
00000000
,
00000000
00000000
00000000
00000000
,
01000000
00000000
02002000
03000000
00000000
00020000
00003000
00000000
,
00030100
00000000
00000100
00000010
00000001
00001000
00000100
00000010
,
00000001
00000000
00000202
00000003
00000000
00002000
00000300
00000000
,
00013000
00000000
00010000
00100000
01000000
00010000
00100000
01000000
,
10000000
00000000
20200000
30000000
00000000
00020000
00300000
00000000
,
00031000
00000000
00001000
00000100
00000010
00001000
00000100
00000010
,
00000001
00000000
00000000
00000000
00000202
00000000
00000303
00000000
00000000
00000000
00000100
00001000
00010000
00000000
00000000
00000000
,
00100000
00000000
00000000
00000000
20200000
00000000
30300000
00000000
00000000
00000000
10000000
01000000
00100000
00000000
00000000
00000000
,
00010000
00000000
02020000
00030000
00000000
00002000
03000000
00000000
,
00013000
00000000
00010000
00001000
00000100
00000010
00001000
00000100
,
00000010
00000000
00000022
00000030
00000000
00000200
00000003
00000000
,
00001300
00000000
00001000
00010000
00100000
01000000
00010000
00100000
,
01000000
00000000
22000000
00000000
33000000
00000000
10000000
00100000
,
00010000
00000000
00022000
00000000
00033000
00000000
00001000
00000100
,
00000001
00000000
00000011
00000010
00000100
00000010
00000001
00000000
,
00000101
00000000
00020020
00000030
00000000
00031000
00100000
00000000
,
01100000
00000000
10010000
00000000
01010000
00011000
00001100
00001001
,
00000220
00000030
00000000
00000301
00001001
00000000
00001000
00000100
,
00000010
00001000
00010000
00000010
00001000
00100000
00010000
00001000
,
00100000
02000000
00000000
00000000
03010000
00000000
00010000
01000000
,
00100000
00010000
01000000
00100000
00010000
00000010
00001000
00000100
,
00000010
00000002
00000000
00000000
00000103
00000000
00000100
00001000
,
00010000
00100000
10000000
01000000
00010000
00001000
00000020
00000000
,
00000130
00000010
00000001
00000100
00001000
00000000
00011000
00000000
,
02020000
00000000
03030000
00000000
01000000
10000000
00100000
00010000
,
00001000
01001000
00010200
00000010
,
00002300
00000000
00000000
00010000
00000000
00000000
00003010
00000000
,
00000010
00000100
00000001
00000010
00001000
00000000
00011000
00000000
,
02020000
00000000
03030000
00000000
01000000
10000000
00100000
00010000
,
00001000
00000000
01001000
00000000
00010100
00000100
00000010
00000001
,
00000100
00001010
00000000
00000000
00010000
01001000
00000000
00000000
,
02200000
00000000
00000000
03300000
,
10000000
01010000
00000000
00000000
00100000
00011000
00000000
00000000
,
00002200
00000000
00000000
00003300
,
00000010
00000101
00000000
00000000
00001000
00010100
00000000
00000000
,
02002000
00000000
00000000
03003000
,
01000000
10100000
00000000
00000000
00010000
01001000
00000000
00000000
,
00020200
00000000
00000000
00030300
,
00001000
00000011
00000000
00000000
00000100
00011000
00000000
00000000
,
00100000
10000000
01000000
00100000
10000000
00100000
00010000
00100000
,
01000000
10010000
00000000
00000000
00100000
00010100
00000000
00000000
,
00001000
00000100
00000001
00000100
00000010
00000001
00000100
00001000
,
00021000
02030000
23000000
30010000
,
01010000
00000000
00011000
00000000
00001100
00000100
00000001
00000010
,
00000100
00000000
00001100
00000000
01010000
01000000
00100000
10000000
,
02000000
00000000
00000000
03010000
00001000
00000000
00101000
00000000
,
00010010
00000000
00000000
00000000
00010000
00001000
00010000
00001000
00020000
00000000
00000000
00000000
00031000
00000000
00000000
00000000
,
00001000
00010000
00001000
00000000
00010000
00001000
00010000
00000000
00100000
00000000
10000000
00000000
01000000
00100000
01000000
00000000
,
00010000
00001000
00010000
00000000
00001000
00010000
00001000
00000000
00000100
00000000
00000001
00000000
00000010
00000100
00000010
00000000
,
00001000
00010000
00001000
00000000
00010000
00001000
00010000
00000000
00100000
00000000
10000000
00000000
01000000
00100000
01000000
00000000
,
00010000
00000000
00000000
00011000
00000000
00000000
00001010
00000000
00000100
00000000
00000001
00000000
00000010
00000000
00001000
00000000
,
00010000
00001000
00010000
00000000
00001000
00010000
00001000
00000000
00000010
00000000
00000001
00000000
00000100
00000010
00000100
00000000
,
00001000
00010000
00001000
00000000
00010000
00001000
00010000
00000000
01000000
00000000
10000000
00000000
00100000
01000000
00100000
00000000
,
00010000
00001000
00010000
00000000
00001000
00010000
00001000
00000000
00000100
00000000
00000001
00000000
00000010
00000100
00000010
00000000
,
00001000
00000000
00000000
00011000
00000000
00000000
00110000
00000000
01000000
00000000
00010000
00000000
10000000
00000000
00000000
00000000
,
00100000
10000000
00100000
10000000
01000000
00010000
01000000
00010000
,
00001000
00000100
00001000
00000100
00000001
00000010
00000001
00000010
,
00001000
00010000
00001000
00010000
01000000
00010000
00001000
00000100
,
00001000
00000000
00000000
00011000
00000000
00000000
00010100
00000000
00000010
00000000
00001000
00000000
00000100
00000000
00000000
00000000
,
00000110
00000001
00000100
00001000
00010000
00001000
00000100
00001000
,
00010000
01000000
00010000
00001000
00010000
01000000
10000000
00100000
,
00010000
00001000
00020000
00000000
00000000
00000000
00030010
00000000
00010010
00000000
00000000
00000000
01001000
00000000
00000000
00000000
,
00011000
00010000
00100000
00010000
00001000
00000010
00001000
00010000
,
00200000
20300000
32000000
03200000
,
00320000
00000000
02030000
00001000
03000000
00002000
00010000
00003000
,
00200000
02300000
03020000
00032000
,
00003020
00000000
00000000
00000001
00000000
00000000
00000100
00000000
,
00002030
00000000
00000000
00013000
01000000
00000000
10000000
00000000
,
01100000
00000000
00000000
00001000
00000100
00000000
00000001
00000000
,
00000220
00000330
00000000
00020200
00030300
00000000
01001000
00000000
,
02200000
03300000
00000000
00202000
00303000
00000000
00011000
00000000
,
00010020
00002030
00003200
00000320
,
00000032
00000000
00000203
00001000
00000300
00020000
01000000
00030000
,
20000000
32000000
03020000
00032000
,
00203000
00000000
00000000
10000000
00000000
00000000
00310000
00000000
,
00010000
00100000
01000000
10000000
00010000
01000000
00001000
00010000
,
00000010
00001000
00000001
00000010
00000100
00001000
00000010
00010000
,
00001000
00010000
00001000
00000000
01000000
00000000
00001000
00000000
00010000
00001000
00010000
00000000
00000010
00000000
00010000
00000000
,
00001000
00100000
00001000
00100000
00010000
01000000
00010000
01000000
00001000
00010000
00001000
00010000
00000010
00001000
00000010
00001000
,
00000200
00000000
00000000
00000000
00010300
00001000
00010000
00200000
02000000
00000000
00000000
00000000
03300000
00000000
00000000
00000000
,
10000000
01000000
10000000
00000000
01000000
10000000
01000000
00000000
00010000
00000000
00001000
00000000
00000010
00000100
00000010
00000000
,
00000001
00000010
00000001
00000000
00000010
00000001
00000010
00000000
00001000
00000000
00010000
00000000
01000000
00100000
01000000
00000000
,
10000000
00100000
10000000
00000000
00100000
10000000
00100000
00000000
00010000
00000000
00001000
00000000
00000100
00000000
00000001
00000000
,
00000010
00000100
00000010
00000000
00001000
00000000
00010000
00000000
01000000
00100000
01000000
00000000
00010000
00000000
00001000
00000000
,
00000100
00000001
00000010
00000000
00000010
00000001
00000100
00000000
00001000
00000000
00010000
00000000
00100000
01000000
00010000
00000000
,
10000000
00100000
01000000
00000000
01000000
00100000
10000000
00000000
01000000
00000000
00010000
00000000
00001000
00010000
00000100
00000000
,
00001000
00000100
00000010
00000000
00000010
00000100
00001000
00000000
00000010
00000000
00000100
00000000
00000001
00000000
00001000
00000000
,
00000010
00000100
00000010
00000000
00010000
00000000
00001000
00000000
01000000
00100000
01000000
00000000
00001000
00000000
00010000
00000000
,
01000000
10000000
01000000
10000000
01000000
00000000
00100000
00000000
00010000
00000000
01000000
00000000
00100000
00000000
00010000
00000000
,
00001000
00010000
00001000
00010000
00001000
00000000
00000100
00000000
00000010
00000000
00001000
00000000
00000100
00000000
00000010
00000000
,
00000001
00000100
00000001
00000100
00000001
00000000
00001000
00000000
00000100
00000000
00000010
00000000
00001000
00000000
00010000
00000000
,
01000000
10000000
01000000
00000000
00010000
00000000
00001000
00000000
00000010
00000001
00000010
00000000
00001000
00000000
00010000
00000000
,
00001000
00100000
00010000
00000000
00010000
00100000
00001000
00000000
00100000
00000000
01000000
00000000
10000000
00000000
00100000
00000000
,
00010000
00000010
00001000
00000000
00001000
00000010
00010000
00000000
00001000
00000000
00000100
00000000
00000001
00000000
00000010
00000000
,
00000220
00000030
00000000
00010000
00010300
00000000
00011000
00000000
,
01010000
10000000
00110000
00001000
00000101
00000010
00002200
00000000
,
00003300
00000000
00000000
00000000
;

//---------------dance-single - ----------------
#NOTEDATA:;
#CHARTNAME:;
#STEPSTYPE:dance-single;
#DESCRIPTION:;
#CHARTSTYLE:;
#DIFFICULTY:Beginner;
#METER:5;
#RADARVALUES:0.178132,0.274094,0.053222,0.015206,0.000000,164.000000,157.000000,7.000000,2.000000,0.000000,0.000000,0.000000,0.000000,0.000000,0.178132,0.274094,0.053222,0.015206,0.000000,164.000000,157.000000,7.000000,2.000000,0.000000,0.000000,0.000000,0.000000,0.000000;
#CREDIT:MILEN;
#NOTES:
0000
0000
0000
0000
,
0000
0000
0000
0000
,
0000
0000
0000
0000
,
0000
0000
0000
0000
,
0000
0000
0000
0000
,
0000
0000
0000
0000
,
0000
0000
0000
0000
,
0000
1000
0000
0000
,
0000
1000
0000
1000
,
0000
0001
0000
0000
,
0000
0001
0000
0001
,
0000
0100
0000
0000
,
0000
0100
0000
0100
,
0000
0010
0000
0100
,
0000
0000
0000
0100
,
0000
0010
0000
0000
,
0000
0010
0000
0010
,
0000
1000
0000
0000
,
0000
1000
0000
1000
,
0000
0001
0000
0000
,
0000
0001
0000
0000
,
0000
1000
0000
0001
,
0000
1000
0000
0001
,
0000
1001
0000
0000
,
0000
0000
0100
0000
,
1000
0000
0100
0000
,
0010
0000
0000
0000
,
0010
0000
0001
0000
,
0100
0000
0000
0000
,
0100
0000
0010
0000
,
1000
1000
1000
0000
,
1000
0000
0001
0001
,
0001
0000
0000
0000
,
0001
0000
0001
0000
,
0100
0100
0100
0000
,
0100
0000
0010
0010
,
0010
0000
0000
0000
,
0010
0000
1000
0000
,
0010
0000
0000
0000
,
0100
0000
0001
0000
,
0100
0000
0000
0000
,
0001
0000
0010
0000
,
0001
0000
0000
0000
,
1000
0000
0100
0000
,
1000
0000
0000
0000
,
0001
0000
1000
0000
,
0001
0000
0000
0000
,
0100
0000
0010
0000
,
0100
0000
0000
0000
,
0010
0000
0010
0000
,
1000
0000
0001
0000
,
0100
0000
0100
0000
,
0020
0000
0000
0000
,
0030
0000
0010
0010
,
0010
0000
0000
1000
,
1000
0000
0000
0001
,
0001
0000
0000
0100
,
0100
0000
1000
0000
,
0010
0010
0000
0000
,
0001
0001
0000
0000
,
1000
1000
0000
0000
,
0100
0000
0100
0000
,
1000
0000
0001
0000
,
1000
0000
0001
0000
,
0010
0000
0100
0000
,
0010
0010
0010
0000
,
0100
0000
1000
0000
,
0001
0000
0010
0000
,
0100
0000
0010
0000
,
0010
0000
0000
0000
,
0001
0000
0000
0000
,
0000
0000
0000
0000
,
0100
0000
0000
0000
,
0000
0000
0000
0000
,
1000
0000
0000
0000
,
0000
0000
0000
0000
,
0010
0000
0000
0000
,
0000
0000
0000
0000
,
0001
0000
0000
0000
,
0100
0000
0000
0000
,
1000
0000
0000
0000
,
0010
0000
0000
0000
,
0001
0000
0001
0000
,
1000
0000
1000
0000
,
0010
0000
0100
0000
,
0010
0010
0010
0010
,
0010
0000
0000
0000
,
1001
0000
0000
0000
,
1001
0000
0000
0000
,
1001
0000
0000
0000
,
0100
0000
0010
0000
,
1001
0000
0000
0000
,
1001
0000
0000
0000
,
1001
0000
0000
0000
,
0010
0000
0100
0000
,
1000
0000
1000
0000
,
0010
0000
0010
0000
,
0001
0000
0001
0000
,
0100
0100
0100
0000
,
1000
0000
0001
0000
,
0010
0000
1000
0000
,
0100
0000
0001
0000
,
1000
1000
0001
0002
,
0003
0000
0000
0000
;

//---------------dance-single - ----------------
#NOTEDATA:;
#CHARTNAME:;
#STEPSTYPE:dance-single;
#DESCRIPTION:;
#CHARTSTYLE:;
#DIFFICULTY:Easy;
#METER:8;
#RADARVALUES:0.292179,0.391564,0.159667,0.144460,0.000000,269.000000,248.000000,21.000000,19.000000,0.000000,0.000000,0.000000,0.000000,0.000000,0.292179,0.391564,0.159667,0.144460,0.000000,269.000000,248.000000,21.000000,19.000000,0.000000,0.000000,0.000000,0.000000,0.000000;
#CREDIT:MILEN;
#NOTES:
0000
0000
0000
0000
,
0000
0000
0000
0000
,
0000
0000
0000
0000
,
0000
0000
0000
0000
,
0000
0000
0000
0000
,
0000
0000
0000
0000
,
0000
0000
0000
0000
,
1000
0001
0000
0100
,
0000
0001
1000
0100
,
0000
1000
0000
0010
,
0000
1000
0001
0010
,
0000
0001
0000
0010
,
0000
0001
1000
0010
,
0000
1000
0000
0100
,
0000
1000
0001
0100
,
0000
0010
0000
0110
,
0000
0100
0001
1000
,
0010
0100
0000
0110
,
0000
0010
1000
0001
,
0100
0010
0000
0100
,
0010
1000
0000
0010
,
0100
0001
0000
1000
,
0000
0010
0000
0200
,
0000
0310
2002
0000
,
3003
0000
1000
0100
,
0010
0001
1000
0100
,
0010
0000
0010
0000
,
0001
0010
0100
1000
,
0100
0000
0100
0000
,
1000
0100
0010
0001
,
0010
0001
0100
0100
,
0000
0000
0010
1000
,
0100
0100
0010
0000
,
0100
0000
0010
0000
,
0001
1000
0001
0100
,
0001
0000
1000
0001
,
1000
0010
1000
0000
,
0001
0000
0100
0000
,
2000
0000
3000
0000
,
1000
0000
0010
0000
,
0002
0000
0003
0000
,
0001
0000
0100
0000
,
2000
0000
3000
0000
,
1000
0000
0010
0000
,
0002
0000
0003
0000
,
0001
0000
1000
0000
,
1001
0000
0001
0000
,
1000
0000
0001
0000
,
1001
0000
1000
0000
,
0001
0000
1000
0000
,
0010
0010
0000
0100
,
0010
1000
0001
0100
,
0020
0000
0000
0000
,
0030
0000
0110
0110
,
0100
0001
0100
0000
,
0010
1000
0010
0000
,
0100
0001
0100
0000
,
1001
0000
0110
0000
,
0010
0001
0010
0000
,
0100
1000
0100
0000
,
0010
0001
0010
0000
,
0110
0000
1001
0000
,
1000
0100
0010
0000
,
0001
0010
0100
0000
,
1000
0100
0010
0000
,
0011
0000
1100
0000
,
0001
0100
0010
0000
,
1000
0010
0100
0000
,
0001
0100
0010
1000
,
0010
0100
0001
1000
,
0002
0000
0100
0000
,
0100
0000
0103
0000
,
2000
0000
0010
0000
,
0010
0000
3010
0000
,
0002
0000
2003
0000
,
0000
0000
3000
0001
,
0001
0000
0000
0100
0000
0000
0001
0000
,
1000
0000
0000
0010
0000
0000
1000
0000
,
0002
0000
0010
0000
,
0010
0000
0013
0000
,
2000
0000
0100
0000
,
0100
0000
3100
0000
,
0002
0000
0003
1000
,
2000
0000
3000
0001
,
0001
0000
0000
0100
0000
0000
1000
0000
,
1000
0000
0000
0010
0000
0000
0001
0000
,
1001
0000
1001
0000
,
0010
0100
0001
0000
,
0100
0010
1000
0000
,
0010
0100
0001
0000
,
0101
0000
1010
0000
,
1000
0100
0010
0000
,
0001
0010
0100
0000
,
1000
0100
0010
0000
,
0011
0000
1100
0000
,
1000
0001
0100
0000
,
1000
0001
0100
0000
,
1000
0001
0010
0000
,
1000
0001
0010
0000
,
1000
0001
0100
1000
,
0001
0010
1000
0100
,
0020
0030
0001
0100
,
1000
0000
1001
2002
,
3003
0000
0000
0000
;

//---------------dance-single - ----------------
#NOTEDATA:;
#CHARTNAME:;
#STEPSTYPE:dance-single;
#DESCRIPTION:;
#CHARTSTYLE:;
#DIFFICULTY:Medium;
#METER:11;
#RADARVALUES:0.438812,0.548189,0.281317,0.205286,0.000000,404.000000,367.000000,37.000000,27.000000,0.000000,0.000000,0.000000,0.000000,0.000000,0.438812,0.548189,0.281317,0.205286,0.000000,404.000000,367.000000,37.000000,27.000000,0.000000,0.000000,0.000000,0.000000,0.000000;
#CREDIT:MILEN;
#NOTES:
0000
0000
0000
0000
,
0000
0000
0000
0000
,
0000
0000
0000
0000
,
0000
0000
0000
0000
,
0000
0000
0000
0000
,
0000
0000
0000
0000
,
0000
0000
0000
0000
,
0100
0000
1001
0000
0000
0001
0000
0000
,
0100
0001
0010
0001
,
0010
0000
0100
0000
0000
1000
0000
0000
,
0100
1000
0010
1000
,
0010
0000
0100
0000
0000
0001
0000
0000
,
1000
0100
0010
0100
,
0010
0000
0001
0000
0000
0100
0100
0000
,
0010
0000
1001
0000
0000
0010
0010
0000
,
0100
0000
1001
0000
0000
1000
0000
0000
,
0010
1000
0100
1000
,
0100
0000
0010
0000
0000
0001
0000
0000
,
0010
0100
1000
0100
,
1000
0000
0010
0000
0000
0000
0100
0010
,
0100
0000
0002
0000
0003
0000
0100
0010
,
0100
0001
0010
0100
,
1000
0000
0010
0000
0000
0100
0100
0000
,
0020
0000
0130
0000
1000
0001
1000
0001
,
1001
0000
0000
1000
0100
0000
1000
0010
,
1000
0000
0010
1000
0010
0000
1000
0010
,
0100
0001
0000
0000
0010
0000
0001
0010
,
0001
0000
0010
0001
0010
0000
0001
0010
,
0100
1000
0000
0000
0010
0000
0100
0010
,
0100
0000
0010
0100
0010
0000
1000
0000
,
0100
0010
0001
0100
,
0101
0000
0001
1000
,
0010
1010
1000
0100
,
0001
0000
0000
0010
0000
0000
1000
0000
,
0100
0010
0100
1100
,
0000
0000
1000
0100
,
0010
0011
0001
0100
,
0010
1000
0000
0000
0001
0100
0000
0000
,
0020
0000
0000
0030
,
1000
0100
0000
0000
0010
0001
0000
0000
,
0200
0000
0000
0300
,
0001
1000
0000
0000
0100
0010
0000
0000
,
0002
0000
0000
1003
,
0010
0100
0000
0000
0001
1000
0000
0000
,
0200
0000
0000
0300
,
0010
0001
0000
0000
1000
0100
0000
0000
,
1000
0000
0000
0010
0000
0000
0001
0000
,
0100
1000
0000
0000
0010
0100
0000
0000
,
0001
0000
0000
0010
0000
0000
1000
0000
,
0100
0010
0100
0001
,
1001
1001
0000
1000
,
0010
0100
0001
0010
,
0100
0000
0000
1000
1000
0000
0001
0000
,
2002
3003
1010
0101
,
0001
0010
1100
0000
,
1000
0100
0011
0000
,
0001
0010
1100
0000
,
1000
0010
0000
0100
0001
0000
1000
0000
,
0001
0100
1010
0000
,
1000
0010
0101
0000
,
0001
0100
1010
0000
,
1000
0000
0100
0010
0100
0010
0001
0000
,
0100
1000
0100
0001
,
0100
1000
0100
0001
,
0010
1000
0010
0001
,
0010
0000
0100
0010
0100
0010
0100
0000
,
1000
0010
0001
0010
,
1000
0100
0001
0100
,
1000
0000
0000
0010
0010
0000
0100
0000
,
0001
0010
1000
0100
,
0001
0010
0100
0010
,
0002
0000
0000
0203
0000
0000
0310
0000
,
1000
0100
0010
0100
,
2000
0000
0000
3020
0000
0000
0130
0000
,
0002
0000
2003
0000
,
0000
0000
3001
0100
,
1000
0000
0000
0100
0000
0000
0001
0000
,
0010
0000
0000
1000
0000
0000
0010
0000
,
0001
0100
0010
1000
,
0200
0000
0000
0320
0000
0000
0031
0000
,
1000
0010
0100
0001
,
0020
0000
0000
0230
0000
0000
1300
0000
,
0020
0000
0000
0130
,
0002
0000
0000
1003
,
0001
1000
0100
0010
,
0001
0100
0001
0100
0010
1000
0010
1000
,
0002
1003
0220
0330
,
0010
1000
1100
1001
,
0100
0001
0011
1001
,
0010
1000
1100
1001
,
0010
0001
0000
0100
1000
0000
0001
0000
,
0010
0001
0101
1001
,
0100
1000
1010
1001
,
0010
0001
0101
1001
,
1000
0010
0000
0001
0100
0000
1000
0000
,
0001
0100
0010
0000
1000
0000
0001
0000
,
1000
0010
0100
0000
0001
0000
1000
0000
,
0100
0010
0001
0000
1000
0000
0001
0000
,
0010
0100
1000
0001
0010
0000
1000
0000
,
0010
0001
0100
0000
1000
0000
0001
0000
,
0010
1000
0100
0000
0001
0000
0010
0000
,
0220
0330
0000
1000
1000
0000
0010
0000
,
0011
0101
1100
2002
,
3003
0000
0000
0000
;

//---------------dance-single - ----------------
#NOTEDATA:;
#CHARTNAME:;
#STEPSTYPE:dance-single;
#DESCRIPTION:;
#CHARTSTYLE:;
#DIFFICULTY:Hard;
#METER:14;
#RADARVALUES:0.637581,0.746228,0.608254,0.288921,0.019008,587.000000,507.000000,80.000000,38.000000,0.000000,0.000000,0.000000,0.000000,0.000000,0.637581,0.746228,0.608254,0.288921,0.019008,587.000000,507.000000,80.000000,38.000000,0.000000,0.000000,0.000000,0.000000,0.000000;
#CREDIT:MILEN;
#NOTES:
// measure 0
0000
0000
0000
0000
,  // measure 1
0000
0000
0000
0000
,  // measure 2
0000
0000
0000
0000
,  // measure 3
0000
0000
0000
0000
,  // measure 4
0000
0000
0000
0000
,  // measure 5
0000
0000
0000
0000
,  // measure 6
0000
0000
0000
0000
,  // measure 7
0100
0000
1001
0000
0000
0101
0000
0000
,  // measure 8
1100
0000
1000
0100
0010
0001
1000
0100
,  // measure 9
0010
0000
1001
0000
0000
1010
0000
0000
,  // measure 10
0011
0000
0001
0010
0100
1000
0001
0010
,  // measure 11
0100
0000
1001
0000
0000
1010
0000
0000
,  // measure 12
0101
0000
0001
1000
0010
0100
0001
1000
,  // measure 13
0010
0000
0001
0000
0000
0100
1000
0000
,  // measure 14
1010
0000
0000
0000
0000
0010
0001
0000
,  // measure 15
0101
0000
0110
0000
0000
1010
0000
0000
,  // measure 16
0011
0000
0001
0010
0100
0001
0100
1000
,  // measure 17
0010
0000
0110
0000
0000
0101
0000
0000
,  // measure 18
1100
0000
1000
0100
0010
1000
0010
0001
,  // measure 19
0100
0000
0110
0000
0000
0000
1000
0010
,  // measure 20
0100
0000
0202
0000
0303
0000
0001
0010
,  // measure 21
0100
0000
1000
0100
0010
0100
0001
0000
,  // measure 22
1000
0000
0010
0000
0000
0001
0100
0000
,  // measure 23
0010
0000
0110
0000
1000
1000
0001
0001
,  // measure 24
1001
0000
0000
1000
0100
0000
1000
0010
,  // measure 25
1000
0100
0010
0001
1000
0010
1000
0100
,  // measure 26
0010
0001
0000
0000
0101
0000
0001
0010
,  // measure 27
0001
0100
0010
1000
0001
0010
0001
0100
,  // measure 28
0010
1000
0000
0000
1100
0000
0001
0010
,  // measure 29
0100
1000
0010
0100
0001
0010
0100
0000
,  // measure 30
1000
0100
0010
0001
0010
0000
0110
0000
,  // measure 31
1100
0000
0000
0000
1000
0100
0010
0001
,  // measure 32
0010
0110
1100
1010
,  // measure 33
0101
0000
0000
0011
0000
0000
1001
0000
,  // measure 34
0001
0100
0010
1000
0001
0000
0101
0000
,  // measure 35
1010
0000
0000
0000
1000
0010
0100
0001
,  // measure 36
1000
1010
0101
1001
,  // measure 37
0010
0100
0000
0000
1000
0001
0000
0000
,  // measure 38
0200
0000
0000
0320
0000
0000
1030
0000
,  // measure 39
0100
0010
0000
0000
0001
1000
0000
0000
,  // measure 40
0020
0000
0000
0230
0000
0000
0310
0000
,  // measure 41
1000
0100
0000
0000
0001
0010
0000
0000
,  // measure 42
2000
0000
0000
3002
0000
0000
0103
0000
,  // measure 43
1000
0010
0000
0000
0001
0100
0000
0000
,  // measure 44
2000
0000
0000
3002
0000
0000
0013
0000
,  // measure 45
1000
0001
0000
0000
0010
0100
0000
0000
,  // measure 46
1000
0010
0100
0000
1000
0000
0100
0000
,  // measure 47
0001
0010
0000
0000
1000
0100
0000
0000
,  // measure 48
0001
0010
0100
0000
1000
0000
0010
0000
,  // measure 49
0001
0010
0100
0010
1000
0010
0001
0010
,  // measure 50
0200
0301
0020
1030
,  // measure 51
1000
0100
0010
0100
0001
0100
1000
0010
,  // measure 52
0200
0000
0000
0301
1000
0000
0010
0000
,  // measure 53
0220
0330
1010
0101
,  // measure 54
0001
0010
0100
1100
0000
0000
0101
0000
,  // measure 55
0001
0010
0100
1100
0000
0000
0101
0000
,  // measure 56
0001
0010
0100
1100
0000
0000
0101
0000
,  // measure 57
0001
0010
1000
0001
0100
1000
0010
0000
,  // measure 58
1000
0010
0100
0101
0000
0000
1100
0000
,  // measure 59
1000
0010
0100
0101
0000
0000
1100
0000
,  // measure 60
1000
0010
0100
0101
0000
0000
1100
0000
,  // measure 61
1001
0000
0000
0110
0000
0000
0010
0000
0100
0000
0010
0000
2000
0000
0000
0000
,  // measure 62
3100
0010
0001
1000
0100
0010
0100
0000
,  // measure 63
0010
0100
1000
0001
0010
0100
0010
0000
,  // measure 64
0100
0010
0001
1000
0100
0010
0100
0000
,  // measure 65
1100
0000
0000
1001
0000
0000
0001
0000
0100
0000
0010
0000
0200
0000
0000
0000
,  // measure 66
0301
0010
0100
0001
0100
1000
0001
0000
,  // measure 67
1000
0100
0010
1000
0010
0001
1000
0000
,  // measure 68
0010
0100
0001
1000
0100
0010
0001
0100
,  // measure 69
0010
1000
0010
1000
0010
1000
0010
1000
,  // measure 70
0001
0010
0100
1000
,  // measure 71
0010
0000
0200
0001
0300
0020
1000
0030
,  // measure 72
0100
0001
0010
0100
,  // measure 73
1000
0000
0002
0010
0003
2000
0100
3000
,  // measure 74
0010
0100
0001
1000
,  // measure 75
0100
0010
1001
1000
,  // measure 76
0002
0000
0000
0203
0000
0000
2300
0000
,  // measure 77
3020
0000
0000
0032
0000
0000
0203
0000
,  // measure 78
1300
0010
0100
1000
,  // measure 79
0001
0000
0200
0010
0300
0002
1000
0003
,  // measure 80
0100
0010
1000
0001
,  // measure 81
0010
0000
0200
1000
0300
0020
0001
0030
,  // measure 82
0100
1000
0010
0100
,  // measure 83
0001
0000
2000
0010
3000
0002
0100
0003
,  // measure 84
1000
0100
0001
1000
0010
0001
0100
0010
,  // measure 85
1000
1000
1000
1000
0001
0001
0001
0001
,  // measure 86
1001
0000
0100
0010
0220
0000
0330
0000
,  // measure 87
0100
0001
0010
0011
0000
0000
1010
0000
,  // measure 88
0100
0001
0010
0011
0000
0000
1010
0000
,  // measure 89
0100
0001
0010
0011
0000
0000
1010
0000
,  // measure 90
0110
0000
0000
1001
0000
0000
0001
0000
0100
0000
0010
0000
1000
0000
0000
0000
,  // measure 91
0100
1000
0010
1010
0000
0000
0011
0000
,  // measure 92
0100
1000
0010
1010
0000
0000
0011
0000
,  // measure 93
0100
1000
0010
1010
0000
0000
0011
0000
,  // measure 94
0101
0000
0000
0110
0000
0000
0010
0000
1000
0000
0100
0000
0010
0000
0001
0000
,  // measure 95
0100
1000
0100
0001
0010
0100
1000
0010
,  // measure 96
0001
0010
1000
0100
0010
0001
0100
1000
,  // measure 97
0100
0001
0010
0100
1000
0010
0100
0001
,  // measure 98
0011
0000
0000
1010
0000
0000
1001
0000
0001
0000
0100
0000
0010
0000
0000
0000
,  // measure 99
1000
0100
0010
1000
0010
0001
1000
0100
,  // measure 100
0001
0100
0010
0001
0100
1000
0001
0010
,  // measure 101
2000
0000
3100
0010
0011
0000
1100
0000
,  // measure 102
1000
1000
0010
0010
0001
0001
0100
0100
,  // measure 103
0220
0000
0000
0000
0000
0330
0000
0000
0000
0000
0000
0000
0000
0000
0000
0000
;

//---------------dance-double - ----------------
#NOTEDATA:;
#CHARTNAME:;
#STEPSTYPE:dance-double;
#DESCRIPTION:;
#CHARTSTYLE:;
#DIFFICULTY:Easy;
#METER:8;
#RADARVALUES:0.288921,0.352407,0.152064,0.144460,0.000000,266.000000,246.000000,20.000000,19.000000,0.000000,0.000000,0.000000,0.000000,0.000000,0.288921,0.352407,0.152064,0.144460,0.000000,266.000000,246.000000,20.000000,19.000000,0.000000,0.000000,0.000000,0.000000,0.000000;
#CREDIT:MILEN;
#NOTES:
00000000
00000000
00000000
00000000
,
00000000
00000000
00000000
00000000
,
00000000
00000000
00000000
00000000
,
00000000
00000000
00000000
00000000
,
00000000
00000000
00000000
00000000
,
00000000
00000000
00000000
00000000
,
00000000
00000000
00000000
00000000
,
00001000
00010000
00000000
00000010
,
00000000
00001000
00000010
00010000
,
00000000
00001000
00000000
01000000
,
00000000
00010000
01000000
00001000
,
00000000
00010000
00000000
00000100
,
00000000
00001000
00000100
00010000
,
00000000
00001000
00000000
00100000
,
00000000
00010000
00100000
00001000
,
00000000
00010000
00000000
00011000
,
00000000
00001000
00010000
01000000
,
00000000
00100000
00000000
00011000
,
00000000
00010000
00001000
00000010
,
00000000
00000100
00000000
00010000
,
00001000
01000000
00000000
00001000
,
00010000
00000010
00000000
00010000
,
00000000
00001000
00000000
00020000
,
00000000
00031000
00022000
00000000
,
00033000
00000000
00001000
00100000
,
00010000
00100000
01000000
10000000
,
01000000
00000000
00010000
00000000
,
00001000
00010000
00001000
00000100
,
00000010
00000000
00000100
00000000
,
00000010
00001000
00000100
00000010
,
00000001
00000100
00001000
00001000
,
00000000
00000000
00010000
00100000
,
10000000
10000000
01000000
00000000
,
00010000
00000000
00001000
00000000
,
00010000
00000010
00010000
00001000
,
00010000
00000000
00001000
00100000
,
00001000
00010000
00001000
00000000
,
00010000
00000000
01000000
00000000
,
20000000
00000000
30000000
00000000
,
10000000
00000000
00100000
00000000
,
00020000
00000000
00030000
00000000
,
00001000
00000000
00000100
00000000
,
00000002
00000000
00000003
00000000
,
00000001
00000000
00000010
00000000
,
00002000
00000000
00003000
00000000
,
00010000
00000000
00001000
00000000
,
00011000
00000000
00010000
00000000
,
00001000
00000000
00010000
00000000
,
00011000
00000000
00001000
00000000
,
00010000
00000000
00001000
00000000
,
01000000
01000000
00000000
00010000
,
00100000
00001000
00010000
00000100
,
00000020
00000000
00000000
00000000
,
00000030
00000000
00000100
00000110
,
00000001
00000100
00000001
00000000
,
00001000
00000010
00001000
00000000
,
00010000
01000000
00010000
00000000
,
10010000
00000000
01100000
00000000
,
10000000
01000000
10000000
00000000
,
00010000
00100000
00010000
00000000
,
00001000
00000100
00001000
00000000
,
00001001
00000000
00000110
00000000
,
00000001
00000100
00000010
00000000
,
00000010
00001000
00000100
00000000
,
00000100
00010000
00001000
00000000
,
00011000
00000000
01010000
00000000
,
01000000
10000000
00100000
00000000
,
00100000
01000000
00010000
00000000
,
00010000
00100000
00001000
00010000
,
00000100
00001000
00000001
00000100
,
00000020
00000000
00010000
00000000
,
00010000
00000000
00010030
00000000
,
00020000
00000000
00001000
00000000
,
00001000
00000000
00031000
00000000
,
00020000
00000000
02030000
00000000
,
00000000
00000000
03000000
10000000
,
10000000
00000000
00000000
00100000
00000000
00000000
00100000
00000000
,
00010000
00000000
00000000
00100000
00000000
00000000
00100000
00000000
,
02000000
00000000
00001000
00000000
,
00001000
00000000
03001000
00000000
,
00002000
00000000
00010000
00000000
,
00010000
00000000
00013000
00000000
,
00020000
00000000
00030000
00000100
,
00000200
00000000
00000300
00000010
,
00000010
00000000
00000000
00000001
00000000
00000000
00000100
00000000
,
00000100
00000000
00000000
00001000
00000000
00000000
00010000
00000000
,
00011000
00000000
00011000
00000000
,
00001000
00010000
01000000
00000000
,
00010000
00001000
00000100
00000000
,
00001000
00010000
01000000
00000000
,
11000000
00000000
00110000
00000000
,
00010000
00001000
00000010
00000000
,
00001000
00010000
00100000
00000000
,
00010000
00001000
00000010
00000000
,
00000011
00000000
00001100
00000000
,
00000100
00010000
00001000
00000000
,
01000000
00001000
00010000
00000000
,
00000010
00010000
00001000
00000000
,
00100000
00001000
00010000
00000000
,
00001000
00010000
00100000
00010000
,
00001000
00000010
00001000
00010000
,
02000000
03000000
10000000
00100000
,
00010000
00000000
00011000
00022000
,
00033000
00000000
00000000
00000000
;

//---------------dance-double - ----------------
#NOTEDATA:;
#CHARTNAME:;
#STEPSTYPE:dance-double;
#DESCRIPTION:;
#CHARTSTYLE:;
#DIFFICULTY:Medium;
#METER:10;
#RADARVALUES:0.432295,0.548189,0.190079,0.205286,0.000000,398.000000,373.000000,25.000000,27.000000,0.000000,0.000000,0.000000,0.000000,0.000000,0.432295,0.548189,0.190079,0.205286,0.000000,398.000000,373.000000,25.000000,27.000000,0.000000,0.000000,0.000000,0.000000,0.000000;
#CREDIT:MILEN;
#NOTES:
00000000
00000000
00000000
00000000
,
00000000
00000000
00000000
00000000
,
00000000
00000000
00000000
00000000
,
00000000
00000000
00000000
00000000
,
00000000
00000000
00000000
00000000
,
00000000
00000000
00000000
00000000
,
00000000
00000000
00000000
00000000
,
01000000
00000000
00011000
00000000
00000000
00001000
00000000
00000000
,
00100000
00010000
01000000
00010000
,
01000000
00000000
00001000
00000000
00000000
00010000
00000000
00000000
,
00000100
00001000
00000010
00001000
,
00000010
00000000
00010000
00000000
00000000
00001000
00000000
00000000
,
00100000
00010000
01000000
00010000
,
01000000
00000000
00001000
00000000
00000000
00010000
00010000
00000000
,
00100000
00000000
00011000
00000000
00000000
00001000
00001000
00000000
,
00000010
00000000
00011000
00000000
00000000
00001000
00000000
00000000
,
01000000
00010000
00100000
00010000
,
00100000
00000000
00001000
00000000
00000000
00010000
00000000
00000000
,
00000010
00001000
00000100
00001000
,
00000100
00000000
00010000
00000000
00000000
00000000
00001000
00010000
,
00001000
00000000
02000000
00000000
03000000
00000000
00001000
00010000
,
00001000
00100000
00010000
01000000
,
00001000
00000000
00010000
00000000
00000000
00000100
00000100
00000000
,
00002000
00000000
00003001
00000000
00000001
00001000
00000001
00001000
,
00001001
00000000
00000000
00000001
00000100
00000000
00000010
00001000
,
00000010
00000000
00001000
00000100
00001000
00000000
00000100
00010000
,
00001000
01000000
00000000
00000000
00100000
00000000
10000000
01000000
,
10000000
00000000
00100000
01000000
00100000
00000000
01000000
00001000
,
00010000
00000100
00000000
00000000
00001000
00000000
00000010
00000100
,
00000010
00000000
00001000
00000001
00001000
00000000
00000100
00000000
,
00000010
00000001
00000100
00001000
,
00011000
00000000
00010000
00100000
,
10000000
10010000
00010000
01000000
,
00100000
00000000
00000000
00010000
00000000
00000000
00100000
00000000
,
10000000
01000000
00010000
00011000
,
00000000
00000000
00001000
00000010
,
00000001
00001001
00001000
00000010
,
00000100
00000001
00000000
00000000
00001000
00000010
00000000
00000000
,
00000200
00000000
00000000
00000300
,
00000010
00010000
00000000
00000000
00001000
01000000
00000000
00000000
,
00020000
00000000
00000000
00030000
,
00100000
00010000
00000000
00000000
10000000
01000000
00000000
00000000
,
00200000
00000000
00000000
00310000
,
00010000
01000000
00000000
00000000
00001000
00010000
00000000
00000000
,
00000200
00000000
00000000
00000300
,
00000010
00000001
00000000
00000000
00001000
00000100
00000000
00000000
,
00010000
00000000
00000000
00001000
00000000
00000000
00100000
00000000
,
00010000
01000000
00000000
00000000
00100000
10000000
00000000
00000000
,
01000000
00000000
00000000
00100000
00000000
00000000
00010000
00000000
,
01000000
00001000
00010000
00000100
,
00001000
00001001
00000000
00000001
,
00000100
00001000
00010000
00100000
,
10000000
00000000
00000000
01000000
01000000
00000000
00010000
00000000
,
00022000
00033000
00101000
00010010
,
00010000
00001000
00000100
00000001
,
00000100
00001000
00010000
00001000
,
00000100
00000001
00000100
00001000
,
00010000
00001000
00000000
00001000
00010000
00000000
00011000
00000000
,
00001000
00010000
00100000
10000000
,
00100000
00010000
00001000
00010000
,
00100000
10000000
00100000
00010000
,
00001000
00000000
00100000
00010000
00100000
00000000
01000000
00000000
,
00010000
00001000
00000010
00001000
,
00010000
00001000
00000010
00001000
,
00010000
00001000
00000010
00001000
,
00010000
00000000
00000100
00000010
00000100
00000000
00001000
00000000
,
00000010
00010000
00100000
00010000
,
00001000
00010000
00100000
00010000
,
00001000
00000000
00000000
00100000
00100000
00000000
01000000
00000000
,
10010000
10000000
00100000
00010000
,
00001000
00000100
00001000
00000100
,
00000002
00000000
00000000
00002003
00000000
00000000
00003010
00000000
,
00010000
00001000
00010000
00001000
,
02000000
00000000
00000000
03200000
00000000
00000000
10300000
00000000
,
02000000
00000000
03200000
00000000
,
00000000
00000000
00310000
01000000
,
00001000
00000000
00000000
00010000
00000000
00000000
00100000
00000000
,
00010000
00000000
00000000
00001000
00000000
00000000
00000010
00000000
,
00001000
00010000
00100000
00010000
,
00200000
00000000
00000000
20300000
00000000
00000000
31000000
00000000
,
01000000
00010000
00001000
00010000
,
00002000
00000000
00000000
00003020
00000000
00000000
00000031
00000000
,
00000200
00000000
00000000
00000310
,
00002000
00000000
00000000
00003100
,
00010000
00001000
00100000
01000000
,
10000000
00100000
10000000
00100000
00010000
00001000
00010000
00001000
,
00020000
00031000
00022000
00033000
,
00010000
01000000
10000000
10010000
,
10000000
00100000
00010000
00011000
,
00010000
01000000
10000000
10010000
,
00100000
00010000
00000000
00010000
00001000
00000000
00010000
00000000
,
00001000
00000100
00000001
00001001
,
00000001
00000010
00001000
00011000
,
00001000
00000100
00000001
00001001
,
00000010
00001000
00000000
00001000
00010000
00000000
00100000
00000000
,
10000000
01000000
00100000
00000000
01000000
00010000
00001000
00000000
,
00010000
00001000
00000010
00000000
00000100
00000010
00000001
00000000
,
00000100
00001000
00010000
00000000
00001000
00010000
01000000
00000000
,
10000000
00100000
00000000
00100000
00010000
00000000
00011000
00000000
,
00001000
00100000
01000000
00000000
00010000
00000000
00001000
00000000
,
00000010
00000100
00010000
00000000
00001000
00000000
00010000
00000000
,
00022000
00033000
00000000
00000100
00000100
00000000
00000010
00000000
,
00000011
00001000
00010000
20200000
,
30300000
00000000
00000000
00000000
;

//---------------dance-double - ----------------
#NOTEDATA:;
#CHARTNAME:;
#STEPSTYPE:dance-double;
#DESCRIPTION:;
#CHARTSTYLE:;
#DIFFICULTY:Hard;
#METER:14;
#RADARVALUES:0.613685,0.706525,0.266111,0.296524,0.022810,565.000000,530.000000,35.000000,39.000000,0.000000,0.000000,0.000000,0.000000,0.000000,0.613685,0.706525,0.266111,0.296524,0.022810,565.000000,530.000000,35.000000,39.000000,0.000000,0.000000,0.000000,0.000000,0.000000;
#CREDIT:MILEN;
#NOTES:
00000000
00000000
00000000
00000000
,
00000000
00000000
00000000
00000000
,
00000000
00000000
00000000
00000000
,
00000000
00000000
00000000
00000000
,
00000000
00000000
00000000
00000000
,
00000000
00000000
00000000
00000000
,
00000000
00000000
00000000
00000000
,
01000000
00000000
00011000
00000000
00000000
00000010
00000000
00000000
,
00001100
00000000
00001000
00000100
00000010
00000001
00001000
00000100
,
00000010
00000000
00011000
00000000
00000000
01000000
00000000
00000000
,
00110000
00000000
00010000
00100000
01000000
10000000
00010000
00100000
,
01000000
00000000
00011000
00000000
00000000
00000010
00000000
00000000
,
00001100
00000000
00001000
00000100
00000010
00000001
00001000
00000100
,
00000010
00000000
00001000
00000000
00000000
00010000
00100000
00000000
,
00110000
00000000
00000000
00000000
00000000
00001000
00000010
00000000
,
00001010
00000000
00000100
00000000
00000000
00011000
00000000
00000000
,
00100000
00000000
00010000
01000000
00100000
10000000
00010000
00100000
,
01000000
00000000
00100000
00000000
00000000
00011000
00000000
00000000
,
00000100
00000000
00001000
00000010
00000100
00000001
00001000
00000100
,
00000010
00000000
00000100
00000000
00000000
00000000
00010000
00001000
,
01000000
00000000
02020000
00000000
03030000
00000000
00010000
00100000
,
01000000
00000000
10000000
00100000
00010000
00001000
00000100
00000000
,
00000001
00000000
00000011
00000000
00000000
00000100
00010000
00000000
,
00002000
00000000
00013000
00000000
00010000
00010000
00001000
00001000
,
00011000
00000000
00000000
00010000
01000000
00000000
10000000
00100000
,
01000000
00010000
00100000
00001000
00010000
00000100
00001000
00000010
,
00000100
00000001
00000000
00000000
00001001
00000000
00001000
00000010
,
00000100
00001000
00010000
00100000
01000000
00010000
10000000
01000000
,
00100000
00010000
00000000
00000000
10010000
00000000
10000000
00100000
,
00010000
00001000
00010000
00001000
00000100
00000001
00000010
00000000
,
00000100
00000010
00000001
00000010
00000100
00000000
00011000
00000000
,
01000000
00000000
00000000
00000000
00100000
01000000
10000000
01000000
,
00100000
00011000
00000010
00000101
,
00001100
00000000
00000000
00011000
00000000
00000000
01001000
00000000
,
00001000
00010000
00100000
01000000
00100000
00000000
10100000
00000000
,
01010000
00000000
00000000
00000000
00010000
00001000
00000100
00000010
,
00000100
00000101
00001010
00001001
,
00000001
00000100
00000000
00000000
00001000
00010000
00000000
00000000
,
00200000
00000000
00000000
20300000
00000000
00000000
30010000
00000000
,
10000000
01000000
00000000
00000000
00010000
00001000
00000000
00000000
,
00000020
00000000
00000000
00000032
00000000
00000000
00001003
00000000
,
00000001
00000010
00000000
00000000
00001000
00010000
00000000
00000000
,
02000000
00000000
00000000
23000000
00000000
00000000
30010000
00000000
,
10000000
00100000
00000000
00000000
00010000
00001000
00000000
00000000
,
00000200
00000000
00000000
00000302
00000000
00000000
00001003
00000000
,
00001000
00000010
00000000
00000000
00010000
00100000
00000000
00000000
,
10000000
01000000
00100000
00000000
01000000
00000000
00010000
00000000
,
00001000
00000010
00000000
00000000
00010000
00100000
00000000
00000000
,
00001000
00010000
00000100
00000000
00000010
00000000
00000001
00000000
,
00000100
00001000
00010000
00001000
00000100
00001000
00010000
01000000
,
20000000
30010000
00200000
01300000
,
00010000
00100000
01000000
10000000
00100000
00010000
00001000
00000100
,
00000002
00000000
00000000
00000013
00000100
00000000
00000010
00000000
,
00002002
00003003
00001100
00000011
,
00000001
00000100
00001000
00010000
00001000
00010000
01000000
00000000
,
10000000
00100000
00010000
00001000
00010000
00001000
00000100
00000000
,
00000001
00000010
00001000
00010000
00001000
00010000
01000000
00000000
,
10000000
00000000
00000000
00100000
00000000
00000000
01000000
00000000
00100000
00000000
00010000
00000000
00001000
00000000
00000000
00000000
,
00010000
00001000
00000100
00000001
00000100
00000001
00000010
00000000
,
00001000
00010000
01000000
10000000
01000000
10000000
00100000
00000000
,
00010000
00001000
00000100
00000001
00000100
00000001
00000010
00000000
,
00001000
00000000
00000000
00010000
00000000
00000000
00001000
00000000
00100000
00000000
00010000
00000000
02000000
00000000
00000000
00000000
,
03100000
10000000
01000000
00010000
00001000
00010000
00001000
00000000
,
00000010
00000001
00000100
00001000
00010000
00001000
00010000
00000000
,
01000000
10000000
00100000
00010000
00001000
00010000
00001000
00000000
,
00010000
00000000
00000000
00000100
00000000
00000000
00001000
00000000
00000100
00000000
00000010
00000000
00000002
00000000
00000000
00000000
,
00001003
00000010
00010000
00001000
00100000
01000000
10000000
00000000
,
00010000
01000000
00001000
00010000
00000100
00000010
00000001
00000000
,
00000100
00001000
00010000
00100000
10000000
01000000
00100000
00010000
,
01000000
00100000
00010000
00001000
00000100
00000010
00001000
00000100
,
00000001
00000100
00000010
00000001
,
00000100
00000000
00002000
00013000
00000000
00200000
01300000
00000000
,
00100000
10000000
01000000
00010000
,
01000000
00000000
00200000
00310000
00000000
00002000
00013000
00000000
,
00001000
00000100
00000001
00000010
,
00000100
00000010
00001001
00001000
,
00000020
00000000
00000000
00020030
00000000
00000000
00230000
00000000
,
00302000
00000000
00000000
00003200
00000000
00000000
00020300
00000000
,
01030000
00010000
01000000
10000000
,
00100000
00000000
00020000
00031000
00000000
00000200
00000301
00000000
,
00000100
00000010
00001000
00000100
,
00000010
00000000
00000002
00000103
00000000
00002000
00013000
00000000
,
00001000
00100000
01000000
10000000
,
00100000
00000000
00020000
00031000
00000000
00000200
00000301
00000000
,
00000001
00000010
00000100
00001000
00010000
00100000
01000000
10000000
,
00100000
00010000
00001000
00000100
00000001
00000010
00001000
00010000
,
00011000
00000000
00010000
00001000
00022000
00000000
00033000
00000000
,
00010000
01000000
10000000
00100000
10000000
00100000
00010000
00000000
,
00001000
00000100
00000001
00000010
00000001
00000010
00001000
00000000
,
00010000
00100000
10000000
01000000
10000000
01000000
00010000
00000000
,
00001000
00000000
00000000
00010000
00000000
00000000
00000100
00000000
00001000
00000000
00000100
00000000
00000010
00000000
00000000
00000000
,
00000001
00000100
00001000
00010000
00100000
10000000
00010000
00000000
,
10000000
01000000
00010000
00001000
00000010
00000001
00001000
00000000
,
00000001
00000100
00001000
00010000
00100000
10000000
00010000
00000000
,
01000000
00000000
00000000
00001000
00000000
00000000
00010000
00000000
00000100
00000000
00001000
00000000
00000100
00000000
00000010
00000000
,
00000001
00000100
00001000
00010000
00001000
00000100
00000001
00000010
,
00001000
00010000
00001000
00000010
00000001
00000100
00001000
00010000
,
00001000
00000100
00000001
00000010
00001000
00010000
00000100
00000010
,
00000001
00000000
00000000
00000100
00000000
00000000
00000010
00000000
00010000
00000000
00001000
00000000
00100000
00000000
00000000
00000000
,
01000000
00100000
00010000
10000000
01000000
00010000
00001000
00000010
,
00000001
00001000
00000100
00000010
00001000
00010000
01000000
00100000
,
00020000
00000000
10030000
00100000
00110000
00000000
00001100
00000000
,
00000001
00000001
00000010
00000010
00001000
00001000
00010000
00010000
,
00022000
00033000
00000000
00000000
;
