#VERSION:0.83;
#TITLE:Astral Song;
#SUBTITLE:;
#ARTIST:Crying Nut;
#TITLETRANSLIT:;
#SUBTITLETRANSLIT:;
#ARTISTTRANSLIT:;
#GENRE:K-POP;
#ORIGIN:;
#CREDIT:MUINELIM;
#BANNER:Astral Song.png;
#BACKGROUND:Astral Song-bg.png;
#PREVIEWVID:;
#JACKET:Astral Song-jacket.png;
#CDIMAGE:;
#DISCIMAGE:;
#LYRICSPATH:;
#CDTITLE:;
#MUSIC:Astral Song.mp3;
#OFFSET:-0.041000;
#SAMPLESTART:71.156433;
#SAMPLELENGTH:11.544628;
#SELECTABLE:YES;
#BPMS:0.000=180.000,
20.500=184.000,
27.000=192.000,
29.000=194.000,
45.000=198.000,
47.000=200.000,
51.000=220.000,
53.000=186.000,
55.000=188.000,
57.000=202.000,
59.000=194.000,
61.000=200.000,
63.000=198.000,
64.000=192.000,
65.000=180.000,
66.000=192.000,
67.000=198.000,
69.000=186.000,
71.000=196.000,
73.000=194.000,
85.000=99.800,
93.000=178.000,
95.000=186.000,
97.000=194.000,
99.000=198.000,
101.000=194.000,
109.000=190.000,
111.000=194.000,
115.000=180.000,
117.000=190.000,
119.000=186.000,
121.000=188.000,
123.000=190.000,
129.000=180.000,
133.000=174.000,
135.000=186.000,
149.000=188.000,
151.000=190.000,
152.000=194.000,
153.000=196.000,
155.000=198.000,
157.000=177.000,
169.000=182.000,
171.000=190.000,
174.000=192.000,
175.000=200.000,
176.000=186.000,
178.000=188.000,
180.000=184.000,
181.000=186.000,
182.000=220.000,
183.000=170.000,
184.000=182.000,
188.000=184.000,
192.000=186.000,
200.000=187.000,
204.000=188.000,
214.000=204.000,
216.000=182.000,
222.000=184.000,
223.000=186.000,
224.000=190.000,
232.000=184.000,
234.000=186.000,
237.000=200.000,
238.000=196.000,
240.000=182.000,
245.000=190.000,
246.000=192.000,
248.000=186.000,
252.000=192.000,
260.000=190.000,
284.000=188.000;
#STOPS:;
#DELAYS:;
#WARPS:;
#TIMESIGNATURES:0.000=4=4;
#TICKCOUNTS:0.000=4;
#COMBOS:0.000=1;
#SPEEDS:0.000=1.000=0.000=0;
#SCROLLS:0.000=1.000;
#FAKES:;
#LABELS:0.000=Song Start;
#BGCHANGES:0.000=Astral Song.mpg=1.000=1=0=0=StretchNoLoop==CrossFade==,
99999=-nosongbg-=1.000=0=0=0 // don't automatically add -songbackground-
;
#KEYSOUNDS:;
#ATTACKS:
;

//---------------dance-single - ----------------
#NOTEDATA:;
#CHARTNAME:;
#STEPSTYPE:dance-single;
#DESCRIPTION:;
#CHARTSTYLE:;
#DIFFICULTY:Hard;
#METER:15;
#RADARVALUES:0.782363,0.904242,0.796959,0.143044,0.204349,536.000000,458.000000,78.000000,14.000000,0.000000,0.000000,0.000000,0.000000,0.000000,0.782363,0.904242,0.796959,0.143044,0.204349,536.000000,458.000000,78.000000,14.000000,0.000000,0.000000,0.000000,0.000000,0.000000;
#CREDIT:MILEN;
#NOTES:
0000
0000
0000
0000
,
0000
0000
0000
0000
,
0000
0000
0000
0000
,
0000
0000
0000
0000
,
0000
0000
0000
0000
0001
1000
0001
1000
0001
0000
0000
0000
2002
0000
0000
0000
,
3003
0000
1000
0010
0100
0001
1000
0010
,
0100
0001
0011
0000
1010
0000
1001
0000
,
0110
0000
0001
0100
0010
1000
0001
0100
,
0010
1000
1100
0000
0101
0000
1001
0000
,
0110
0000
1000
0100
0010
0100
0001
0000
,
1000
0010
0100
0010
0001
0100
1100
0000
,
0011
0000
0001
0100
0010
0001
0100
0000
,
1010
0000
0000
0000
1001
0000
0000
0000
0101
0000
0000
0000
0100
0010
0100
0010
,
0100
0010
1000
0100
1000
0100
0001
0010
,
0001
0010
1000
0100
0001
0010
0100
0000
,
0110
0000
1000
0010
1000
0010
0001
0100
,
0001
0100
1000
0010
0001
0100
0010
0000
,
0110
0000
1000
0100
0001
0010
1000
0000
,
0001
0100
1000
0010
0001
0100
0110
0000
,
1001
0000
1000
0010
0100
1000
0010
0000
,
0001
0000
0100
0000
1100
0000
0000
0000
0011
0000
0000
0000
1001
0000
0000
0110
,
0000
1010
2000
0000
3001
0010
0200
0000
,
0000
0000
0000
0000
0000
0010
0000
0000
0000
0001
0000
0000
0000
0000
1300
0000
,
0000
0100
0010
0000
0011
0000
0100
0000
0010
0000
1000
0000
1100
0000
0000
0000
,
1010
0011
0101
1100
,
1001
0000
0001
0100
1000
0010
0001
0000
,
1000
0100
0001
0010
1000
0001
1001
0000
,
0110
0000
0010
1000
0100
0001
0010
0000
,
0110
1100
0011
0101
,
1010
0000
1000
0100
0001
0100
1000
0100
,
0010
0000
0001
0010
1000
0010
0001
0010
,
0100
0000
1100
1000
0010
0101
0000
0001
,
1000
0001
0011
0100
1000
1010
0000
1000
,
0001
1000
1001
0001
0010
0100
0001
0100
,
1000
0010
1001
1000
0100
0010
1000
0010
,
0001
0100
0110
0000
1010
0000
1100
0000
,
0101
0011
1100
1010
,
0011
0000
0101
0100
1000
0100
0010
0001
,
0010
0000
1000
0000
0100
0000
0010
0000
0001
0000
1000
0000
0010
0100
0010
0100
,
0010
0100
0010
0100
0020
0000
0000
0000
0000
0000
0000
0000
0000
0000
0000
0000
,
0000
0000
0000
0000
,
0000
0000
0000
0000
,
0000
0000
1030
0100
0010
0001
2000
0000
,
0000
0000
0000
0000
0000
0000
0000
0000
3010
0000
0000
0010
0100
0000
0001
0000
,
1001
1000
0010
0010
0001
1000
0100
0100
,
0001
1000
0010
0010
0001
0100
1010
0000
,
0012
0100
1000
0103
,
0120
0000
0000
1000
0000
0000
0001
0000
,
0230
0010
0000
0000
0001
0000
1000
0000
,
0302
0100
0000
0000
0010
0010
1003
0000
,
1010
0000
0101
1000
0000
1100
0001
1000
,
0101
0000
1010
0001
0000
0011
1000
0001
,
1020
0130
0201
0310
,
1001
0000
0000
0000
0110
0000
0000
0000
0010
1000
0010
0000
0100
0001
0100
0001
,
0100
0010
0001
0010
1000
0010
0001
0010
,
0100
0001
0100
0000
0010
0100
0010
0000
1000
0010
1000
0000
0001
0000
0000
0000
,
0010
0100
1000
0100
0001
0100
1000
0100
,
0010
0001
0010
0000
0100
0010
0100
0000
1000
0100
1000
0000
0010
0000
0000
0000
,
0100
0001
0100
0000
0010
0000
1000
0000
0100
0010
0100
0000
0001
0000
1000
0000
,
0010
0100
0010
0000
0001
0000
0100
0000
1100
0000
0000
0000
0011
0000
0000
0000
,
0001
0000
0100
0000
1000
0000
0001
0000
0010
0100
0010
0000
1000
0001
1000
0000
,
0010
1000
0010
0000
0100
0001
0100
0000
0010
0000
0000
0000
1001
0000
0000
0000
,
0001
0010
0100
0001
1000
0010
0100
1000
,
0010
0100
0010
0000
0100
0000
0010
0000
0100
0010
0100
0000
0001
0000
0100
0000
,
1000
0100
0010
1000
0001
0100
0010
0001
,
0010
0100
0010
0000
0100
0000
0010
0000
0100
0010
0100
0000
0010
0000
1000
0000
,
0100
0001
0100
0000
0010
0000
0001
0000
0100
0000
0100
0000
1000
0000
0001
0000
,
0010
1000
0010
0000
0100
0000
1000
0000
0010
0000
0010
0000
0001
0000
1000
0000
,
0001
0010
0001
0000
0100
0000
0010
0000
1000
0100
1000
0000
0010
0000
0100
0000
,
0001
1000
0000
0000
0010
0000
0100
0000
0101
0000
0000
0000
1010
0000
0000
0000
,
1100
0010
0001
0100
0110
0010
1000
0100
,
0011
0001
1000
0010
0110
0100
0001
1000
,
0010
0001
0010
0000
0100
1000
0100
0000
0110
0000
0001
0000
0110
0000
1000
0000
,
2002
0000
0000
3003
;

//---------------dance-single - ----------------
#NOTEDATA:;
#CHARTNAME:;
#STEPSTYPE:dance-single;
#DESCRIPTION:;
#CHARTSTYLE:;
#DIFFICULTY:Medium;
#METER:12;
#RADARVALUES:0.601369,0.678182,0.715220,0.112392,0.005109,412.000000,342.000000,70.000000,11.000000,0.000000,0.000000,0.000000,0.000000,0.000000,0.601369,0.678182,0.715220,0.112392,0.005109,412.000000,342.000000,70.000000,11.000000,0.000000,0.000000,0.000000,0.000000,0.000000;
#CREDIT:MILEN;
#NOTES:
0000
0000
0000
0000
,
0000
0000
0000
0000
,
0000
0000
0000
0000
,
0000
0000
0000
0000
,
0000
0000
0001
1000
0001
0000
2002
0000
,
3003
0000
1000
0010
1000
0010
1000
0000
,
0001
0011
0010
1010
,
1000
0000
0001
0100
0001
0100
0001
0000
,
1000
1100
0100
0101
,
0001
0000
1000
0010
1000
0100
1000
0000
,
0001
0010
0001
0100
0001
1000
0001
0000
,
1001
0000
1000
0100
0010
0001
0010
0000
,
0001
0100
0010
0000
1010
0000
0101
0000
,
0110
1000
1000
0010
,
0010
0000
0001
0100
1000
0010
0110
0000
,
1001
0001
0001
0100
,
0100
0000
1000
0010
0001
0100
0110
0000
,
1001
1000
1000
0100
,
0100
0000
0001
0010
1000
0100
0110
0000
,
1001
0000
1000
0100
0001
0010
0110
0000
,
0001
0000
1000
0000
0001
0000
0000
0000
0110
0000
0000
0000
0100
0000
0000
0001
,
0000
1000
1020
0000
0130
0001
0200
0000
,
0000
0000
0000
0000
0000
0000
0000
0300
,
0000
0110
1000
0100
0010
0001
0010
0000
,
0001
0101
0100
1100
,
1000
0000
0001
0010
0001
0100
0001
0000
,
1000
0010
1000
0100
1000
0001
1000
0000
,
1001
0000
0001
0100
0010
1000
0010
0000
,
1000
1100
0100
0101
,
0001
0000
1001
0000
1000
0010
0000
0010
,
0001
0000
1001
0000
0001
0100
0000
0100
,
1000
0000
0001
0010
1000
0100
0000
0000
,
1001
0000
1000
0010
0001
0100
0000
0000
,
1001
0000
0110
0000
0010
1000
0000
1000
,
0100
0000
0110
0000
0010
0001
0000
0001
,
0100
0110
0001
0101
,
1000
1010
0001
1001
,
1000
0000
0001
0010
0001
0010
0100
1000
,
0100
1000
0010
0100
0010
0100
0001
1000
,
0001
1000
2002
0000
0000
0000
0000
0000
,
0000
0000
0000
0000
,
0000
0000
0000
0000
,
3003
0000
0001
0100
1000
0010
0200
0000
,
0000
0000
0301
1001
,
0010
1010
0100
0101
,
0010
0000
0110
0000
1000
0100
0001
0000
,
0011
0100
1000
0100
,
1100
0000
0000
1010
0000
0000
0011
0000
,
0000
0101
0000
0000
0110
0000
1010
0000
,
0000
0011
0000
0000
0101
0000
1100
0000
,
1000
0100
0010
0000
0100
0000
0010
0000
,
0100
0010
0001
0000
0010
0000
0100
0000
,
1000
0010
0001
0000
0001
0100
1000
0000
,
0010
0100
0001
1000
0010
0000
0110
0000
,
0001
0100
1000
0010
0001
0000
1000
0000
,
1100
0001
1100
0001
,
1000
0100
0001
0010
1000
0000
0001
0000
,
0101
1000
0101
1000
,
0001
0010
0001
0100
1000
0100
0010
0001
,
0010
1000
0100
1000
0001
0000
0110
0000
,
0010
1000
0100
0001
0010
0000
0100
0000
,
0101
0010
1010
1001
,
0001
0100
1000
0001
0100
0000
1000
0000
,
1010
0011
1010
0001
,
1000
0010
0001
1000
0010
0000
0001
0000
,
0101
1100
0101
1000
,
0001
0010
1000
0100
0001
0000
0011
0000
,
1000
0010
0001
0100
1000
0000
1010
0000
,
0001
0010
1000
0100
0010
0100
1000
0001
,
2002
3003
1010
0101
,
0001
0010
1000
0000
0001
0100
1000
0000
,
1000
0010
0001
0000
1000
0100
0001
0000
,
1000
0010
0001
0100
1000
0010
0001
0100
,
2002
0000
0000
3003
;

//---------------dance-double - ----------------
#NOTEDATA:;
#CHARTNAME:;
#STEPSTYPE:dance-double;
#DESCRIPTION:;
#CHARTSTYLE:;
#DIFFICULTY:Medium;
#METER:13;
#RADARVALUES:0.591151,0.640505,0.674350,0.112392,0.005109,405.000000,339.000000,66.000000,11.000000,0.000000,0.000000,0.000000,0.000000,0.000000,0.591151,0.640505,0.674350,0.112392,0.005109,405.000000,339.000000,66.000000,11.000000,0.000000,0.000000,0.000000,0.000000,0.000000;
#CREDIT:MILEN;
#NOTES:
00000000
00000000
00000000
00000000
,
00000000
00000000
00000000
00000000
,
00000000
00000000
00000000
00000000
,
00000000
00000000
00000000
00000000
,
00000000
00000000
00010000
00001000
00010000
00000000
00022000
00000000
,
00033000
00000000
00001000
00100000
00001000
00100000
00001000
00000000
,
00010000
00001100
00000100
00001010
,
00000010
00000000
00010000
00000100
00010000
00000100
00010000
00000000
,
00001000
00110000
00100000
01010000
,
01000000
00000000
00001000
00010000
00100000
00010000
00001000
00000000
,
00010000
00001000
00000010
00001000
00010000
00001000
00000010
00000000
,
00000101
00000000
00000001
00000100
00001000
00010000
00100000
00000000
,
10000000
01000000
00100000
00000000
00110000
00000000
11000000
00000000
,
10010000
10000000
00100000
00010000
,
00001000
00000000
00010000
00001000
00000100
00000000
00000101
00000000
,
00001001
00000001
00000010
00001000
,
00010000
00000000
00001000
00010000
00100000
00000000
10100000
00000000
,
10010000
10000000
00100000
00010000
,
00001000
00000000
00010000
00001000
00000010
00000000
00000011
00000000
,
00001001
00000000
00000001
00000100
00001000
00000000
00110000
00000000
,
10000000
00000000
01000000
00000000
00010000
00000000
00000000
00000000
00001100
00000000
00000000
00000000
00000010
00000000
00000000
00000010
,
00000000
00000010
00000002
00000000
00000103
00001000
00020000
00000000
,
00000000
00000000
00000000
00000000
00000000
00000000
00000000
00030000
,
00000000
00011000
00001000
00010000
00100000
01000000
00100000
00000000
,
10000000
11000000
00100000
01010000
,
00001000
00000000
00010000
00001000
00000010
00001000
00010000
00000000
,
00001000
00010000
00100000
00010000
00001000
00010000
00100000
00000000
,
11000000
00000000
10000000
00100000
00010000
00001000
00000100
00000000
,
00000001
00000011
00000100
00001010
,
00010000
00000000
00011000
00000000
00001000
00010000
01000000
10000000
,
00100000
00000000
00011000
00000000
00010000
00001000
00000100
00000001
,
00000010
00000000
00001000
00010000
01000000
00010000
00000000
00000000
,
00011000
00000000
00010000
00001000
00000100
00001000
00000000
00000000
,
00011000
00000000
01100000
00000000
00100000
10000000
01000000
00010000
,
00001000
00000000
00000110
00000000
00000010
00000001
00000100
00001000
,
00010000
01100000
10000000
11000000
,
00100000
00101000
00010000
00010010
,
00001000
00000000
00000100
00000001
00000100
00000000
00010000
00001000
,
00010000
00000000
01000000
10000000
01000000
00000000
00001000
00010000
,
00001000
00010000
00022000
00000000
00000000
00000000
00000000
00000000
,
00000000
00000000
00000000
00000000
,
00000000
00000000
00000000
00000000
,
00033000
00000000
00010000
00001000
00000100
00000001
00000020
00000000
,
00000000
00000000
00000130
00001001
,
00000001
00001100
00010000
00010010
,
00001000
00000000
00101000
00000000
00100000
01000000
10000000
00000000
,
01100000
00010000
00001000
00000100
,
00000110
00000000
00000000
00001001
00000000
00000000
00001100
00000000
,
00000000
00011000
00000000
00000000
01010000
00000000
01100000
00000000
,
00000000
10010000
00000000
00000000
00110000
00000000
00011000
00000000
,
00001000
00010000
01000000
00000000
00010000
00000000
00001000
00000000
,
00010000
00001000
00000100
00000000
00001000
00000000
00010000
00000000
,
00001000
00010000
00100000
00000000
00010000
00001000
00000010
00000000
,
00000001
00000010
00000100
00001000
00000100
00000000
00011000
00000000
,
00010000
01000000
10000000
00100000
00010000
00000000
00001000
00000000
,
01001000
00010000
01001000
00000100
,
00001000
00000100
00000001
00000010
00001000
00000000
00010000
00000000
,
00010010
00001000
00010010
00100000
,
00001000
00010000
00100000
10000000
01000000
00010000
00001000
00000010
,
00000001
00000100
00001000
00010000
00001000
00000000
00011000
00000000
,
00010000
00001000
00000010
00010000
00100000
00000000
01000000
00000000
,
11000000
00100000
01010000
00001000
,
00010000
00001000
00000100
00010000
01000000
00000000
00100000
00000000
,
10100000
00010000
00011000
00010000
,
00001000
00010000
00100000
00001000
00000010
00000000
00000100
00000000
,
00000101
00001000
00011000
00001000
,
00010000
00100000
10000000
01000000
00010000
00000000
00011000
00000000
,
00001000
00000010
00000001
00000100
00001000
00000000
00011000
00000000
,
00010000
00100000
10000000
01000000
00100000
00010000
00001000
00000100
,
00000220
00000330
00001010
00000101
,
00000001
00000010
00000100
00000000
00000100
00001000
00010000
00000000
,
00001000
00010000
00100000
00000000
00100000
01000000
10000000
00000000
,
10000000
01000000
00100000
00010000
00001000
00000100
00000010
00000001
,
00002002
00000000
00000000
00003003
;

//---------------dance-single - ----------------
#NOTEDATA:;
#CHARTNAME:;
#STEPSTYPE:dance-single;
#DESCRIPTION:;
#CHARTSTYLE:;
#DIFFICULTY:Easy;
#METER:10;
#RADARVALUES:0.470002,0.678182,0.837829,0.102174,0.000000,322.000000,240.000000,82.000000,10.000000,0.000000,0.000000,0.000000,0.000000,0.000000,0.470002,0.678182,0.837829,0.102174,0.000000,322.000000,240.000000,82.000000,10.000000,0.000000,0.000000,0.000000,0.000000,0.000000;
#CREDIT:MILEN;
#NOTES:
0000
0000
0000
0000
,
0000
0000
0000
0000
,
0000
0000
0000
0000
,
0000
0000
0000
0000
,
0000
0000
0000
2002
,
3003
1000
1000
0010
,
0010
0001
0001
0100
,
0000
0001
0001
0100
,
0100
1000
1000
0010
,
0000
1000
1000
0100
,
0100
0001
0001
0010
,
0000
0001
0001
0010
,
0010
1000
1000
0100
,
1001
0010
0010
1000
,
1000
0100
0100
0101
,
0101
0010
0010
0001
,
0001
0100
0100
1100
,
1100
0100
0100
0001
,
0001
0010
0010
1010
,
1010
0100
1000
0010
,
0001
0011
0011
2002
,
3003
0000
0110
0000
0010
0010
0020
0000
,
0000
0000
0000
0000
0000
0000
0000
0030
,
0000
0010
0100
0000
0001
0000
0010
0000
,
1000
1100
0001
0101
,
0100
0100
1000
0010
,
0001
0101
1000
1100
,
0100
0100
0001
0010
,
1000
1100
0001
0011
,
1000
0000
1001
0000
0000
0010
0000
0000
,
0010
0000
1001
0000
0000
0100
0000
0000
,
0100
0000
1001
0000
0001
0001
0000
0000
,
0010
0000
1001
0000
1000
1000
0000
0000
,
0100
0000
0110
0000
0000
0001
0000
0000
,
0001
0000
0110
0000
0000
1000
0000
0000
,
1000
1010
0001
0011
,
1000
1100
0001
0101
,
1000
1010
1010
0011
,
0011
1100
1100
0101
,
0101
2002
0000
0000
,
0000
0000
0000
0000
,
0000
0000
0000
0000
,
3003
0001
1000
0020
,
0000
0000
0130
0100
,
0001
0011
1000
1100
,
0001
0011
1000
1100
,
0110
0001
1000
0001
,
0110
0000
0000
1000
0000
0000
1010
0000
,
0000
0001
0000
0000
0101
0000
1100
0000
,
0000
0110
0000
0000
0011
0000
1010
0000
,
0101
0000
1100
0000
0000
1001
0000
0000
,
0011
0000
0000
1001
0000
0000
0110
0000
,
1000
1010
0001
0101
,
1000
1001
0110
1001
,
0001
0100
1000
0010
,
0001
0100
1100
0000
,
1000
0010
0001
0100
,
1000
0010
0011
0000
,
1000
0100
0001
0010
,
1000
0100
0101
0000
,
0001
0010
1000
0100
,
0001
0010
1010
0000
,
1000
0001
0110
0110
,
0001
1000
1100
0001
,
0001
1000
0110
0110
,
1000
0001
0101
1000
,
1000
0010
0011
0001
,
0001
0100
1100
1000
,
0010
0010
0100
0100
,
1001
0100
0010
0100
,
1100
0001
0011
1000
,
1010
0001
0101
1000
,
1100
0101
0011
1010
,
2002
0000
0000
3003
;

//---------------dance-double - ----------------
#NOTEDATA:;
#CHARTNAME:;
#STEPSTYPE:dance-double;
#DESCRIPTION:;
#CHARTSTYLE:;
#DIFFICULTY:Easy;
#METER:11;
#RADARVALUES:0.429132,0.565151,0.582393,0.122609,0.000000,294.000000,237.000000,57.000000,12.000000,0.000000,0.000000,0.000000,0.000000,0.000000,0.429132,0.565151,0.582393,0.122609,0.000000,294.000000,237.000000,57.000000,12.000000,0.000000,0.000000,0.000000,0.000000,0.000000;
#CREDIT:MILEN;
#NOTES:
00000000
00000000
00000000
00000000
,
00000000
00000000
00000000
00000000
,
00000000
00000000
00000000
00000000
,
00000000
00000000
00000000
00000000
,
00000000
00000000
00000000
00022000
,
00033000
00010000
00010000
01000000
,
01000000
10000000
00100000
00010000
,
00000000
00001000
00001000
00000100
,
00000100
00000001
00000010
00001000
,
00000000
00010000
00010000
00100000
,
00100000
10000000
01000000
00010000
,
00000000
00001000
00001000
00000010
,
00000010
00000001
00000100
00001000
,
00011000
00100000
00100000
10000000
,
10000000
01000000
00010000
00001000
,
00011000
00000010
00000010
00000001
,
00000001
00000100
00001000
00010000
,
00011000
01000000
01000000
10000000
,
10000000
00100000
00010000
00001000
,
00011000
00000100
00000100
00000001
,
00000010
00001000
00010000
00022000
,
00033000
00000000
00011000
00000000
00001000
00010000
00002000
00000000
,
00000000
00000000
00000000
00000000
00000000
00000000
00000000
00003000
,
00000000
00011000
01000000
00000000
10000000
00000000
01000000
00000000
,
00100000
00010000
00001000
00011000
,
00000100
00000100
00000001
00000100
,
00000010
00010000
00001000
00011000
,
00100000
00100000
10000000
01000000
,
00010000
00001000
00000010
00000220
,
00000330
00000000
00001001
00000000
00000000
00001000
00000000
00000000
,
00000100
00000000
00011000
00000000
00000000
00010000
00000000
00000000
,
01000000
00000000
10010000
00000000
10000000
10000000
00000000
00000000
,
00100000
00000000
00010000
00000000
00001000
00001000
00000000
00000000
,
00000100
00000000
00000001
00000000
00000000
00000010
00000000
00000000
,
00001000
00000000
00010000
00000000
00000000
01000000
00000000
00000000
,
10000000
10100000
00100000
00110000
,
00010000
00011000
00001000
00001100
,
00000100
00000101
00000001
00000011
,
00000010
00001010
00001000
00011000
,
00010000
00022000
00000000
00000000
,
00000000
00000000
00000000
00000000
,
00000000
00000000
00000000
00000000
,
00033000
00001000
00010000
00002000
,
00000000
00000000
00013000
01000000
,
10000000
01100000
00010000
00001000
,
00000100
00000110
00000001
00001001
,
00001000
00000100
00010000
00001000
,
00011000
00000000
00000000
01000000
00000000
00000000
00011000
00000000
,
00000000
00000100
00000000
00000000
00011000
00000000
00011000
00000000
,
00000000
00100000
00000000
00000000
00011000
00000000
00000010
00000000
,
00001001
00000000
00000110
00000000
00000000
00001100
00000000
00000000
,
00011000
00000000
00000000
01010000
00000000
00000000
01100000
00000000
,
10000000
10100000
00010000
00011000
,
00000100
00000101
00001000
00001001
,
00000001
00000100
00001000
00010000
,
00100000
10000000
01000000
00000000
,
10000000
00100000
00010000
00001000
,
00000100
00000001
00000010
00000000
,
00000001
00000010
00001000
00010000
,
01000000
10000000
00100000
00000000
,
10000000
01000000
00010000
00001000
,
00000010
00000001
00000100
00000000
,
00001000
00010000
01100000
01100000
,
00010000
00001000
00011000
00000000
,
00010000
00001000
00000110
00000110
,
00001000
00010000
00011000
00000000
,
00100000
10000000
01000000
00011000
,
00000010
00000001
00000100
00011000
,
00100000
10000000
01000000
00001000
,
00000100
00100000
00010000
00000010
,
00000001
00000101
00001000
00001010
,
00010000
00011000
01000000
01010000
,
10000000
10100000
00110000
00011000
,
00002002
00000000
00000000
00003003
;

//---------------dance-single - ----------------
#NOTEDATA:;
#CHARTNAME:;
#STEPSTYPE:dance-single;
#DESCRIPTION:;
#CHARTSTYLE:;
#DIFFICULTY:Beginner;
#METER:6;
#RADARVALUES:0.221864,0.339091,0.051087,0.020435,0.000000,152.000000,147.000000,5.000000,2.000000,0.000000,0.000000,0.000000,0.000000,0.000000,0.221864,0.339091,0.051087,0.020435,0.000000,152.000000,147.000000,5.000000,2.000000,0.000000,0.000000,0.000000,0.000000,0.000000;
#CREDIT:MILEN;
#NOTES:
0000
0000
0000
0000
,
0000
0000
0000
0000
,
0000
0000
0000
0000
,
0000
0000
0000
0000
,
0000
0000
0000
0000
,
0000
1000
0000
1000
,
0000
1000
1000
1000
,
0000
0001
0000
0001
,
0000
0001
0001
0001
,
0000
0100
0000
0010
,
0000
0100
0100
0100
,
0000
0010
0000
0100
,
0000
0010
0010
0010
,
0010
0010
0000
1000
,
0000
0010
0000
1000
,
0000
0100
0000
0001
,
0000
0100
0000
0001
,
0000
0010
0000
1000
,
0000
0100
0000
0001
,
0000
0010
0000
1000
,
0000
0100
0100
0100
,
0000
0110
0000
0000
,
0000
0000
0000
0000
,
0000
0001
0001
0001
,
0000
0100
0100
0100
,
0000
0010
0010
0010
,
0000
1000
1000
1000
,
0000
0100
0000
0010
,
0000
0001
0000
0100
,
0100
0100
0000
0000
,
0010
0010
0000
0000
,
0100
0100
0000
1001
,
0000
0100
0000
1001
,
0000
0010
0000
0000
,
0010
0010
0000
0000
,
0010
0010
0000
1000
,
0000
0100
0000
0001
,
0000
0010
0010
0010
,
0010
0010
0010
0010
,
0010
0020
0000
0000
,
0000
0000
0000
0000
,
0000
0000
0000
0000
,
0000
0030
0000
0000
,
0000
0000
0000
0000
,
1001
0000
0100
0000
,
1001
0000
0100
0100
,
0100
0000
0000
0000
,
1000
0000
0010
0000
,
0001
0000
0001
0000
,
0100
0000
1000
0000
,
0010
0000
0000
0000
,
0001
0000
0000
0000
,
0100
0000
1000
0000
,
0010
0010
0010
0000
,
0100
0000
0001
0000
,
1000
1000
1000
0000
,
0010
0000
1000
0000
,
0001
0001
0001
0000
,
0100
0000
0010
0000
,
1000
1000
1000
0000
,
0010
0000
0100
0000
,
0001
0001
0001
0000
,
1000
0000
0100
0000
,
0010
0000
0001
0000
,
1000
0000
0010
0000
,
0100
0000
0001
0000
,
1000
0000
0010
0000
,
0001
0000
0100
0000
,
1000
0000
0010
0000
,
0001
0000
0100
0000
,
1000
1000
1000
0000
,
0001
0001
0001
0000
,
0100
0100
0100
0100
,
0200
0000
0000
0300
;

//---------------dance-double - ----------------
#NOTEDATA:;
#CHARTNAME:;
#STEPSTYPE:dance-double;
#DESCRIPTION:;
#CHARTSTYLE:;
#DIFFICULTY:Hard;
#METER:16;
#RADARVALUES:0.745872,0.828889,0.623263,0.194131,0.235001,511.000000,450.000000,61.000000,19.000000,0.000000,0.000000,0.000000,0.000000,0.000000,0.745872,0.828889,0.623263,0.194131,0.235001,511.000000,450.000000,61.000000,19.000000,0.000000,0.000000,0.000000,0.000000,0.000000;
#CREDIT:MILEN;
#NOTES:
// measure 0
00000000
00000000
00000000
00000000
,  // measure 1
00000000
00000000
00000000
00000000
,  // measure 2
00000000
00000000
00000000
00000000
,  // measure 3
00000000
00000000
00000000
00000000
,  // measure 4
00000000
00000000
00000000
00000000
00010000
00001000
00010000
00001000
00010000
00000000
00000000
00000000
00022000
00000000
00000000
00000000
,  // measure 5
00033000
00000000
00001000
00010000
00100000
10000000
00010000
00100000
,  // measure 6
01000000
10000000
00100000
00000000
01100000
00000000
01010000
00000000
,  // measure 7
00011000
00000000
00010000
00001000
00000100
00000001
00001000
00000100
,  // measure 8
00000010
00000001
00000100
00000000
00000110
00000000
00001010
00000000
,  // measure 9
00011000
00000000
00001000
00010000
01000000
10000000
00100000
00000000
,  // measure 10
01000000
00010000
00100000
01000000
00010000
00001000
00000010
00000000
,  // measure 11
00000101
00000000
00000001
00000010
00000100
00001000
00000010
00000000
,  // measure 12
00010010
00000000
00000000
00000000
00011000
00000000
00000000
00000000
00101000
00000000
00000000
00000000
00100000
01000000
00100000
01000000
,  // measure 13
00100000
01000000
01000000
10000000
01000000
10000000
00010000
00100000
,  // measure 14
00010000
00100000
00001000
00010000
00000100
00000010
00000001
00000000
,  // measure 15
00001001
00000000
00000100
00000001
00000100
00000001
00001000
00000010
,  // measure 16
00001000
00000010
00010000
00001000
01000000
00100000
10000000
00000000
,  // measure 17
11000000
00000000
10000000
01000000
00010000
00001000
00000010
00000000
,  // measure 18
00000100
00000010
00000001
00000100
00001000
00010000
00100000
00000000
,  // measure 19
11000000
00000000
10000000
00100000
00010000
00001000
00100000
00000000
,  // measure 20
01000000
00000000
00010000
00000000
00001000
00000000
00000000
00000000
00000110
00000000
00000000
00000000
00001001
00000000
00000000
00001100
,  // measure 21
00000000
00000101
00000002
00000000
00000013
00001000
00020000
00000000
,  // measure 22
00000000
00000000
00000000
00000000
00000000
00000100
00000000
00000000
00000000
00001000
00000000
00000000
00000000
00000000
01030000
00000000
,  // measure 23
00000000
01000000
10000000
00000000
10100000
00000000
00100000
00000000
01000000
00000000
00010000
00000000
00001000
00000000
00000000
00000000
,  // measure 24
00001010
00000110
00000101
00001001
,  // measure 25
00001100
00000000
00000010
00000001
00000100
00001000
00010000
00000000
,  // measure 26
00100000
10000000
01000000
00010000
00001000
00100000
01000000
00000000
,  // measure 27
10010000
00000000
10000000
01000000
00100000
00010000
00001000
00000000
,  // measure 28
00001010
00000101
00000011
00001100
,  // measure 29
00000110
00000000
00000001
00000100
00001000
00010000
00100000
10000000
,  // measure 30
01000000
01000000
10000000
00100000
00010000
00001000
00000100
00000001
,  // measure 31
00000010
00000010
00000011
00000001
00000100
00001000
00000000
00010000
,  // measure 32
01000000
10000000
01100000
10000000
01000000
00010000
00000000
00001000
,  // measure 33
00010000
00001000
00011000
00010000
00100000
10000000
01000000
00010000
,  // measure 34
00001000
00000000
00011000
00001000
00000010
00000001
00000100
00001000
,  // measure 35
00010000
00001000
00011000
00000000
01001000
00000000
00011000
00000000
,  // measure 36
00010100
00011000
00101000
00011000
,  // measure 37
00010010
00000000
00011000
00001000
00000010
00000001
00000010
00000100
,  // measure 38
00001000
00000000
00010000
00000000
00100000
00000000
01000000
00000000
10000000
00000000
01000000
00000000
00010000
00001000
00010000
00001000
,  // measure 39
00010000
00001000
00010000
00001000
00020000
00000000
00000000
00000000
00000000
00000000
00000000
00000000
00000000
00000000
00000000
00000000
,  // measure 40
00000000
00000000
00000000
00000000
,  // measure 41
00000000
00000000
00000000
00000000
,  // measure 42
00000000
00000000
00031000
00000100
00000001
00000010
00002000
00000000
,  // measure 43
00000000
00000000
00000000
00000000
00000000
00000000
00000000
00000000
00103000
00000000
00000000
00100000
01000000
00000000
10000000
00000000
,  // measure 44
11000000
00100000
00010000
01000000
00100000
00010000
00001000
00100000
,  // measure 45
00010000
00001000
00000100
00010000
00001000
00000100
00000010
00000000
,  // measure 46
00001002
00000100
00000010
00001003
,  // measure 47
00002200
00003300
00000000
00020200
00030300
00000000
02002000
03003000
,  // measure 48
01000000
01200000
00000000
00000000
00010000
00000000
10300000
00000000
,  // measure 49
10000000
12000000
00000000
00000000
00010000
00010000
03100000
00000000
,  // measure 50
01100000
00000000
10000000
00100000
00010000
01000000
00010000
00100000
,  // measure 51
01000000
00000000
00001000
00000100
00000010
00001000
00000010
00000100
,  // measure 52
00000102
00001003
00002100
00003001
,  // measure 53
00000011
00000000
00000000
00000000
00001010
00000000
00000000
00000000
00001000
00010000
00001000
00000000
00100000
00010000
00100000
00000000
,  // measure 54
01000000
10000000
00100000
00010000
00100000
10000000
01000000
00010000
,  // measure 55
00001000
00100000
00000000
00000000
00100000
01000000
00000000
00000000
01000000
00010000
00000000
00000000
00010000
00001000
00000000
00000000
,  // measure 56
00100000
01000000
00010000
00001000
00000010
00001000
00010000
00001000
,  // measure 57
00000100
00000001
00000000
00000000
00000001
00000010
00000000
00000000
00000010
00000100
00000000
00000000
00000100
00001000
00000000
00000000
,  // measure 58
00001000
00000010
00001000
00000000
00000100
00000000
00010000
00000000
00001000
00100000
00001000
00000000
00010000
00000000
01000000
00000000
,  // measure 59
10000000
01000000
10000000
00000000
00100000
00000000
01000000
00000000
01010000
00000000
00000000
00000000
10100000
00000000
00000000
00000000
,  // measure 60
10000000
00000000
01000000
00000000
00010000
00000000
00001000
00000000
00000100
00001000
00000000
00000000
00001000
00010000
00000000
00000000
,  // measure 61
00010000
00000100
00000000
00000000
00000100
00000010
00000000
00000000
00000010
00000001
00000000
00000000
00001001
00000000
00000000
00000000
,  // measure 62
00000001
00000100
00001000
00000001
00000010
00001000
00000100
00000010
,  // measure 63
00001000
00010000
00000000
00000000
00010000
01000000
00000000
00000000
01000000
10000000
01000000
00000000
00100000
00000000
00010000
00000000
,  // measure 64
10000000
01000000
00010000
10000000
00100000
00010000
01000000
00001000
,  // measure 65
00100000
01000000
00000000
00000000
01000000
00010000
00000000
00000000
00010000
00001000
00010000
00000000
00000100
00000000
00000010
00000000
,  // measure 66
00000001
00000100
00000001
00000000
00000010
00000000
00010000
00000000
00000010
00000000
00000100
00000000
00010000
00000000
00001000
00000000
,  // measure 67
00100000
00010000
00100000
00000000
10000000
00000000
00100000
00000000
00001000
00000000
00100000
00000000
00010000
00000000
01000000
00000000
,  // measure 68
10000000
01000000
10000000
00000000
01000000
00000000
00100000
00000000
00010000
00001000
00010000
00000000
00001000
00000000
00000100
00000000
,  // measure 69
00000010
00001000
00000010
00000000
00000100
00000000
00000001
00000000
00000110
00000000
00000000
00000000
00011000
00000000
00000000
00000000
,  // measure 70
00100000
10000000
01000000
00001000
00010000
00000010
00000001
00000100
,  // measure 71
00010000
00001000
00100000
10000000
01000000
00001000
00010000
00000010
,  // measure 72
00000001
00000100
00000000
00000000
00000100
00001000
00000000
00000000
00001000
00010000
00000000
00000000
00010000
01000000
00000000
00000000
,  // measure 73
20200000
00000000
00000000
30300000
;
