#TITLE:Angel's ladder;
#SUBTITLE:;
#ARTIST:xi;
#TITLETRANSLIT:;
#SUBTITLETRANSLIT:;
#ARTISTTRANSLIT:;
#GENRE:XROSS;
#CREDIT:;
#BANNER:Angel's ladder.png;
#BACKGROUND:Angel's ladder-bg.png;
#LYRICSPATH:;
#CDTITLE:;
#MUSIC:Angel's ladder.mp3;
#OFFSET:0.194000;
#SAMPLESTART:92.709229;
#SAMPLELENGTH:10.818707;
#SELECTABLE:YES;
#DISPLAYBPM:155;
#BPMS:0.000000=155
;
#STOPS:
;
#BGCHANGES:0.000=Angel's ladder.avi=1.000=1=0=0=StretchNoLoop==CrossFade==,
99999=-nosongbg-=1.000=0=0=0 // don't automatically add -songbackground-
;
#KEYSOUNDS:;
#ATTACKS:;

//---------------dance-single - ----------------
#NOTES:
     dance-single:
     :
     Hard:
     17:
     0.844229,0.993131,0.531468,0.547332,1.058969,745.000000,678.000000,67.000000,69.000000,0.000000,0.000000,0.844229,0.993131,0.531468,0.547332,1.058969,745.000000,678.000000,67.000000,69.000000,0.000000,0.000000:
0000
0000
0000
0000
,
0000
0000
0000
0000
,
0000
0000
0000
0000
,
0000
0000
0000
0000
,
0000
0000
0000
0000
,
0000
0000
0100
0001
0100
0000
0010
1000
0010
0000
0100
0001
0100
0000
0010
1000
,
0100
0000
0010
0001
0010
0000
0100
1000
0100
0000
0010
0001
0010
0000
0100
0000
,
1000
0010
1000
0010
0100
0000
0110
0000
0001
0100
0001
0100
0010
0000
0110
0000
,
1000
0000
0000
0000
0000
0000
0010
0000
0000
0000
0000
0000
0100
0000
0000
0000
0000
0000
0001
0000
1000
0000
0001
0000
1000
0000
0000
0100
0000
0000
0010
0000
0000
0001
0000
0000
1000
0000
0000
0010
0000
0000
0100
0000
0000
0001
0000
0000
,
1000
0000
1001
0000
0001
0000
0100
0000
0010
0000
1000
0000
0100
0010
0000
0110
,
0000
0000
0000
2002
0000
0000
3003
0000
0000
0001
0000
0000
0100
0000
0000
0010
1000
0010
1000
0000
0000
0100
0000
0000
,
0010
0001
0010
0001
0100
0010
0100
0010
1000
0100
1000
0100
0010
0001
0000
0101
,
0000
0000
0000
1010
0000
0000
0000
0000
0000
0000
0000
0000
1100
0000
0000
0000
0000
0000
0000
0000
0000
0011
0000
0000
0000
0000
0000
0000
0000
0000
1001
0000
0000
0000
0000
0000
0001
0000
1000
0000
0001
0000
1000
0000
0000
0010
0000
0000
,
0100
0000
0110
0000
0010
0000
1000
0000
0001
0000
0010
0000
0100
1000
0000
1001
,
0000
0000
0220
0000
0330
0000
0010
0000
1000
0000
0100
0010
0000
0011
0000
1100
,
0000
0000
0000
1000
0000
0000
0010
0000
0100
0000
0010
0000
0100
0000
0000
0001
0000
0000
0000
0000
0000
0100
0000
0000
0010
0000
0000
0000
0000
0000
0100
0000
0000
0001
0000
0000
0000
0000
0000
1000
0000
0000
0001
0000
0000
0000
0000
0000
,
2000
0000
3020
0000
0230
0000
0302
0000
2003
0000
3200
0000
0310
0001
0010
0001
,
0010
0000
0000
0100
0000
0000
0000
0000
0000
1100
0000
0000
0000
0000
0000
0000
0000
0000
0000
0000
0000
0000
0000
0000
0100
0000
0000
0010
0000
0000
0000
0000
0000
0011
0000
0000
0000
0000
0000
0000
0001
0000
0000
0000
0100
0000
0000
0000
,
0010
0000
0000
1000
0000
0000
0010
0000
0000
1000
0000
0000
0001
0000
0000
0100
0000
0000
0001
0000
0000
0100
0000
0000
0010
0000
0000
0000
1000
0000
0000
0000
0001
0000
0000
0000
0010
0000
0000
0000
0100
0000
0000
0000
1000
0000
0000
0000
,
0010
0000
0100
0000
0001
0000
1000
0000
0200
0010
0000
0010
0000
0010
0000
0310
,
0000
0000
0010
0000
0001
0000
1000
0000
0020
0100
0000
0100
0000
0100
0000
0130
,
0000
0000
0100
0000
0001
0000
0010
0000
0200
1000
0000
1000
0000
1000
0000
1300
,
0000
0000
1000
0000
0010
0000
0100
0000
0002
0010
0000
0010
0000
0010
0000
0013
,
0000
0000
0010
0000
0100
0000
1000
0000
0010
0100
0001
0100
0000
0010
0000
1010
,
0000
0000
1000
0100
0010
0000
0100
0010
0001
0000
0010
0100
0010
0100
1000
0001
,
0200
0000
0000
0000
0020
0000
0330
0000
1010
0000
0000
0101
0000
0000
2002
0000
,
3003
0000
0001
0100
0001
0100
0010
1000
0001
0010
0100
1000
0000
1010
0000
0010
,
0200
0000
0000
0302
0000
0000
2003
0000
0000
3200
0000
0000
0320
0000
0000
0000
,
0031
0000
0100
0000
0010
1000
0001
0000
0100
0001
1000
0000
0010
0100
0001
1000
,
0200
0000
0000
0320
0000
0000
0032
0000
0000
2003
0000
0000
3020
0000
0000
0000
,
0130
0000
0001
0000
1000
0100
0010
0000
0001
0100
0010
0000
1000
0001
0010
0100
,
1000
0000
0010
0000
0100
0001
0100
0001
0010
0001
0010
0001
0010
0100
1000
0100
,
1000
0000
0001
0000
0100
0010
0100
0010
1000
0010
1000
0010
0100
0001
0100
0001
,
0020
0000
0000
0000
0000
0000
0130
0000
0000
1000
0000
0000
0000
0000
0000
0100
0000
0000
0001
0000
0000
0000
0000
0000
0100
0000
0000
0000
0000
0000
1000
0000
0000
0000
0000
0000
0010
0000
0100
0000
0010
0000
0100
0000
0000
0001
0000
0000
,
0020
0000
0000
0000
0230
0000
0000
0000
1300
0010
1000
0010
0100
0000
0000
0000
,
0220
0000
0000
0330
,
0002
0000
0203
0000
,
2300
0000
0000
0000
,
3020
0032
2003
3020
,
0130
0001
0010
0000
0001
0100
0010
0000
,
1000
0010
0100
0000
0010
1000
0100
0000
,
0010
0100
1000
0010
0100
0001
0010
0100
,
1000
0010
0001
1000
0100
0001
0010
0100
,
2000
0000
0000
3010
0100
0001
0100
0010
1000
0100
0010
0001
,
0200
0000
0310
1000
0001
0010
0200
0000
1300
0010
0100
0001
,
2000
0000
3100
0010
0001
1000
0010
0100
1000
0100
0010
0001
,
0010
0100
0010
0000
0100
0001
0100
0000
0010
1000
0010
0100
0001
0010
0100
1000
,
0010
0100
0001
1000
0100
0010
0001
0100
,
0110
0010
1000
0100
0110
0010
0001
1000
,
1010
0000
0101
0000
0000
0011
0000
0010
0100
0000
1100
0000
0000
1010
0000
0010
,
0200
0000
0000
0000
0000
0000
0000
0000
0000
0000
0000
0000
0000
0000
0000
0000
0000
0000
0000
0000
0000
0000
0000
0000
0301
0000
0010
0000
0001
0000
0010
0000
0000
0100
0000
0000
2000
0000
0000
0000
0000
0000
3000
0000
0000
0000
0000
0000
,
1001
0000
1001
0000
0000
0000
0000
0000
0000
0000
0000
0000
0001
0100
0000
0110
,
0000
0000
2010
0000
0000
0000
3001
0000
0010
0000
0100
1000
0010
0000
0100
0000
,
0110
0000
0110
0000
0000
0000
0000
0000
0000
0000
0000
0000
0010
1000
0000
1200
,
0000
0000
0000
0000
0000
0000
0310
0000
0000
0000
0000
0000
0001
0000
0000
0000
0000
0000
0100
0000
0010
0000
0100
0000
0010
0000
0000
0000
1000
0000
0000
0000
0001
0000
0000
0000
0100
0000
0000
0010
0000
0000
0000
0000
0000
2020
0000
0000
,
0000
3030
1100
1000
1010
0010
0110
0100
,
0101
0001
0011
0010
0110
0100
1100
1000
,
0010
0100
0010
0100
0001
1000
0001
1000
0100
0010
0001
1000
0010
0100
0001
0010
,
0200
0000
0000
0320
0000
0000
0030
0000
0000
1001
0000
0000
0001
0000
0100
0000
1000
0000
0100
0000
0010
0000
0100
0000
,
0002
0023
0230
1300
,
1001
0000
1001
0000
0001
0100
0010
0100
0001
0010
0100
0010
0001
0100
0000
0120
,
0000
0000
1030
0000
0100
0000
0010
0000
0001
0100
0010
1000
0001
0100
0010
1000
,
0002
0000
0000
0000
0103
0010
0100
0010
1000
0001
1000
0001
0100
0010
1000
0100
,
0010
0000
0000
0100
0000
0000
1000
0000
0000
0010
0000
0000
0100
0000
0000
0001
0000
0000
0010
0000
0000
0100
0000
0000
1000
0000
0000
0000
0000
0000
0001
0000
0100
0000
0001
0000
0100
0000
0000
0010
0000
0000
1000
0000
0000
0000
0000
0000
,
1100
0000
1100
0000
0100
0010
0001
0100
0010
1000
0010
0100
0001
0100
0010
1000
,
0200
0000
0000
0310
0001
0010
0100
1000
0100
0010
0001
0100
0010
1000
0000
1002
,
0000
0000
0103
0010
1000
0000
0100
0000
1100
0000
0000
1010
0000
0000
0011
0000
,
0101
0000
0100
0010
0001
0010
0100
0010
1000
0100
0010
0002
2000
0000
3003
0000
,
0101
0000
0101
0000
0100
0010
1000
0001
0010
0100
1000
0100
0010
0001
0000
0201
,
0000
0000
0310
0000
1000
0000
0001
0000
0010
0100
1000
0100
0010
0100
1000
0010
,
0200
0000
0000
0000
0301
1000
0001
1000
0010
0100
0010
0100
0001
0010
0100
1000
,
0010
0000
0101
0000
1000
0000
0011
0000
1000
0010
0000
1100
0000
0001
0000
1000
,
0010
0000
0110
0000
0100
0001
0010
1000
0010
0100
0000
1100
0000
0010
0001
0000
,
2002
0000
3003
0000
1000
0010
0100
1000
0200
0000
0000
0000
0301
0010
0000
0012
,
0000
0000
0103
0010
1000
0001
0010
0100
0010
0100
1000
0010
0100
0001
1000
0100
,
0010
0100
0010
0001
1000
0010
0100
1000
0100
0001
0100
1000
0100
0010
1000
0000
,
0000
2002
0000
0000
0000
0000
0000
0000
,
0000
0000
0000
0000
,
0000
3003
0000
0000
;

//---------------dance-double - ----------------
#NOTES:
     dance-double:
     :
     Hard:
     17:
     0.789836,0.900025,0.468009,0.523535,0.951882,697.000000,638.000000,59.000000,66.000000,0.000000,0.000000,0.789836,0.900025,0.468009,0.523535,0.951882,697.000000,638.000000,59.000000,66.000000,0.000000,0.000000:
00000000
00000000
00000000
00000000
,
00000000
00000000
00000000
00000000
,
00000000
00000000
00000000
00000000
,
00000000
00000000
00000000
00000000
,
00000000
00000000
00000000
00000000
,
00000000
00000000
00001000
00010000
00000000
00000000
00010000
00100000
00000000
00000000
00100000
10000000
00000000
00000000
10000000
01000000
,
00100000
00000000
00010000
01000000
00000000
00000000
01000000
00001000
00000000
00000000
00001000
00010000
00000000
00000000
00010000
00000100
,
00000010
00000001
00000010
00000001
00000100
00000000
00001000
00000000
00010000
00100000
00010000
00100000
10000000
00000000
01000000
00000000
,
00010000
00000000
00001000
00000000
00010000
00000000
00000100
00001000
00000100
00001000
00000010
00000100
00000001
00001000
00000100
00000010
,
00000001
00000000
00001001
00000000
00001000
00000000
00000100
00000000
00010000
00000000
00001000
00000000
00100000
01000000
00000000
01000000
,
00000000
00000000
20020000
00000000
30030000
00000000
10000000
00000000
00100000
00000000
01000000
00010000
00100000
00000000
00001000
00000000
,
00010000
00000100
00010000
00000100
00001000
00000010
00001000
00000010
00000100
00000001
00000100
00000001
00001000
00000100
00000000
00000010
,
00000000
00000011
00000000
00000000
00000101
00000000
00000000
00001100
00000000
00000000
00011000
00000000
00001000
00100000
00001000
00100000
,
01000000
00000000
11000000
00000000
10000000
00000000
00100000
00000000
01000000
00000000
00010000
00000000
00100000
00001000
00000000
00010000
,
00000000
00000000
00020200
00000000
00030300
00000000
00000100
00000000
00000010
00000000
00000001
00000100
00000000
00000010
00000000
00001010
,
00000000
00001000
00000100
00010000
00001000
00100000
00000000
00001000
00010000
00000000
00001000
01000000
00000000
00001000
00010000
00000000
,
00200000
00000000
20300000
00000000
32000000
00000000
03020000
00000000
00032000
00000000
00003020
00000000
00000031
00000100
00000001
00001000
,
00000100
00000000
00000000
00010000
00000000
00000000
00000000
00000000
00000000
00011000
00000000
00000000
00000000
00000000
00000000
00000000
00000000
00000000
00000000
00000000
00000000
00000000
00000000
00000000
01000000
00000000
00000000
00001000
00000000
00000000
00000000
00000000
00000000
00011000
00000000
00000000
00000000
00000000
00000000
00000000
00010000
00000000
00000000
00000000
00100000
00000000
00000000
00000000
,
01000000
00000000
00000000
00100000
00000000
00000000
01000000
00000000
00000000
00100000
00000000
00000000
10000000
00000000
00000000
00010000
00000000
00000000
10000000
00000000
00000000
00010000
00000000
00000000
01000000
00000000
00000000
00000000
00100000
00000000
00000000
00000000
10000000
00000000
00000000
00000000
01000000
00000000
00000000
00000000
00100000
00000000
00000000
00000000
00001000
00000000
00000000
00000000
,
00010000
00000000
00000100
00000000
00000010
00000000
00000001
00000000
00000200
00000010
00000000
00000010
00000000
00000010
00000000
00000310
,
00000000
00000000
00000010
00000000
00010000
00000000
00001000
00000000
00200000
01000000
00000000
01000000
00000000
01000000
00000000
01300000
,
00000000
00000000
01000000
00000000
10000000
00000000
00100000
00000000
00020000
00001000
00000000
00001000
00000000
00001000
00000000
00031000
,
00000000
00000000
00001000
00000000
00000010
00000000
00000001
00000000
00000200
00001000
00000000
00001000
00000000
00001000
00000000
00001300
,
00000000
00000000
00001000
00000000
00010000
00000000
00100000
00000000
01000000
00100000
10000000
00100000
00000000
01000000
00000000
01010000
,
00000000
00000000
01000000
00001000
00010000
00000000
00001000
00010000
00000100
00000000
00000010
00000001
00000010
00000001
00001000
00000100
,
00020000
00000000
00000000
00000000
00002000
00000000
00033000
00000000
00101000
00000000
00000000
00010010
00000000
00000000
02002000
00000000
,
03003000
00000000
01000000
00010000
01000000
00010000
10000000
00100000
10000000
00100000
01000000
00010000
00000000
00110000
00000000
00100000
,
00002000
00000000
00000000
00023000
00000000
00000000
00030200
00000000
00000000
00000320
00000000
00000000
00000032
00000000
00000000
00000000
,
00001003
00000000
00000010
00000000
00010000
00000100
00010000
00000000
00001000
01000000
00001000
00000000
00010000
00000100
00010000
00000100
,
00000020
00000000
00000000
00002030
00000000
00000000
00023000
00000000
00000000
00230000
00000000
00000000
20300000
00000000
00000000
00000000
,
31000000
00000000
00100000
00000000
00010000
01000000
00100000
00000000
01000000
00010000
00100000
00000000
00010000
01000000
00100000
00010000
,
00001000
00000000
00100000
00000000
00010000
01000000
00001000
00000000
00010000
00001000
00000100
00000000
00000010
00000100
00000001
00000100
,
00000010
00000000
00001000
00000000
00000100
00010000
00001000
00000000
01000000
00001000
00010000
00000000
00100000
10000000
01000000
10000000
,
00200000
00000000
00310000
00001000
00000000
00010000
00000010
00000000
00010000
00000000
00001000
00000000
00000100
00000001
00000010
00000100
,
00020000
00000000
00000000
00000000
00032000
00000000
00000000
00000000
00103000
01000000
10000000
00100000
00010000
00000000
00000000
00000000
,
00022000
00000000
00000000
00033000
,
02000000
00000000
03002000
00000000
,
00023000
00000000
00000000
00000000
,
00030200
00000320
00000032
00002003
,
00003010
00010000
00001000
00000000
00100000
00001000
00010000
00000000
,
00000100
00010000
00001000
00000000
01000000
00001000
00010000
00000000
,
00001000
00100000
01000000
10000000
00100000
00010000
00100000
01000000
,
00010000
00100000
00001000
00000010
00000100
00001000
00000100
00000010
,
00000002
00000000
00000000
00000103
00001000
00010000
00001000
00000100
00001000
00010000
00100000
00010000
,
00001000
00000000
00001000
00100000
00000000
00100000
01000000
00000000
01000000
10000000
00000000
10000000
,
00100000
00000000
00100000
00010000
00001000
00010000
00100000
00010000
00001000
00000100
00001000
00010000
,
00001000
00100000
00001000
00000000
00010000
00000010
00010000
00000000
00001000
01000000
00001000
00010000
00000100
00010000
00001000
00000100
,
00000010
00001000
00000100
00010000
00001000
00100000
00010000
01000000
,
01001000
00001000
00010000
00000100
00010100
00010000
00001000
00000010
,
00000011
00000000
00000011
00000000
00000000
00000101
00000000
00000100
00001000
00000000
00011000
00000000
00000000
00110000
00000000
00100000
,
20000000
00000000
00000000
00000000
00000000
00000000
00000000
00000000
31000000
00100000
00010000
00100000
00002000
00000000
00003000
00000000
,
00011000
00000000
00011000
00000000
00000000
00000000
00000000
00000000
00000000
00000000
00000000
00000000
00010000
00000100
00000000
00000110
,
00000000
00000000
00000012
00000000
00000000
00000000
00001003
00000000
00000010
00000000
00010000
00001000
00010000
00000000
00001000
00000000
,
00011000
00000000
00011000
00000000
00000000
00000000
00000000
00000000
00000000
00000000
00000000
00000000
00010000
01000000
00000000
21000000
,
00000000
00000000
00000000
00000000
00000000
00000000
30100000
00000000
00000000
00000000
00000000
00000000
00010000
00000000
00000000
00000000
00000000
00000000
00100000
00000000
00000000
01000000
00000000
00000000
00100000
00000000
00000000
00000000
00010000
00000000
00000000
00000000
00001000
00000000
00000000
00000000
00000100
00000000
00000000
00000010
00000000
00000000
00000000
00000000
00000000
00000220
00000000
00000000
,
00000000
00000330
00000101
00000000
00001100
00000000
00011000
00000000
,
00110000
10100000
11000000
10010000
,
00010000
01000000
00010000
01000000
00001000
00010000
00001000
00010000
00000010
00001000
00000010
00001000
00000001
00000010
00000100
00010000
,
00002000
00000000
00000000
00020000
00000000
00000000
00033000
00000000
00000000
00011000
00000000
00000000
00010000
00000000
01000000
00000000
10000000
00000000
00100000
00000000
00010000
00000000
00001000
00000000
,
00200000
02300000
03020000
00031000
,
00011000
00000000
00011000
00000000
00001000
00000010
00000001
00000010
00001000
00000000
00010000
00001000
00010000
01000000
00000000
21000000
,
00000000
00000000
30100000
00000000
01000000
00000000
00010000
00000000
10000000
01000000
00100000
00010000
10000000
01000000
00100000
00001000
,
00020000
00000000
00000000
00000000
00030100
00001000
00000100
00001000
00000010
00000100
00000010
00000100
00000001
00000010
00000001
00000010
,
00000100
00000000
00001000
00000100
00010000
00000000
00001000
00100000
00010000
00000000
10000000
01000000
00100000
01000000
00010000
00000000
,
00011000
00000000
00011000
00000000
00010000
01000000
10000000
01000000
00010000
00000000
00001000
00000000
00010000
00000000
00000100
00000000
,
00000020
00000000
00000000
00000031
00000100
00001000
00000100
00000001
00001000
00000000
00000100
00000010
00000001
00000100
00000000
00002100
,
00000000
00000000
00013000
00001000
00010000
00000000
00100000
00000000
10100000
00000000
00000000
11000000
00000000
00000000
01100000
00000000
,
00101000
00000000
00001000
00010000
01000000
00000000
00010000
00001000
00000100
00000000
00001000
00020000
00002000
00000000
00033000
00000000
,
00011000
00000000
00011000
00000000
00010000
01000000
10000000
00100000
00010000
00000000
00001000
00010000
00001000
00000100
00000000
00000102
,
00000000
00000000
00000013
00000000
00000100
00000000
00001000
00000000
00000001
00000100
00000010
00001000
00000001
00000100
00000010
00010000
,
00000200
00000000
00000000
00000000
00001300
00000010
00001000
00000010
00010000
00001000
00010000
00001000
00100000
01000000
00100000
01000000
,
10000000
00000000
00100000
00000000
00010000
00000000
00000010
00000000
00001000
00000100
00000000
00000110
00000000
00000001
00000000
00001000
,
00000100
00000000
00010100
00000000
00010000
00001000
00010000
00100000
01000000
00100000
00000000
10100000
00000000
10000000
01000000
00000000
,
02200000
00000000
03300000
00000000
00100000
00001000
00010000
00001000
00000020
00000000
00000000
00000000
00000031
00000100
00000000
00002010
,
00000000
00000000
00003100
00010000
00001000
00000000
00100000
01000000
10000000
00000000
00100000
00010000
00001000
00000000
00000010
00000001
,
00000100
00000010
00001000
00000100
00010000
00001000
00100000
00010000
01000000
00100000
10000000
01000000
00010000
00001000
00000010
00000000
,
00000000
00002002
00000000
00000000
00000000
00000000
00000000
00000000
,
00000000
00000000
00000000
00000000
,
00000000
00003003
00000000
00000000
;

//---------------dance-single - ----------------
#NOTES:
     dance-single:
     :
     Beginner:
     5:
     0.179045,0.274856,0.079324,0.039662,0.000000,158.000000,148.000000,10.000000,5.000000,0.000000,0.000000,0.179045,0.274856,0.079324,0.039662,0.000000,158.000000,148.000000,10.000000,5.000000,0.000000,0.000000:
// measure 0
0000
0000
0000
0000
,  // measure 1
0000
0000
0000
0000
,  // measure 2
0000
0000
0000
0000
,  // measure 3
0000
0000
0000
0000
,  // measure 4
0000
0000
0000
0000
,  // measure 5
1000
0000
0000
0000
,  // measure 6
0001
0000
0000
0000
,  // measure 7
1000
0000
0001
0000
,  // measure 8
1000
0001
1000
0001
,  // measure 9
1000
0000
0000
1000
,  // measure 10
1000
0000
0100
0000
,  // measure 11
0010
0000
0001
0000
,  // measure 12
0100
0010
0100
0000
,  // measure 13
0001
0000
0000
0001
,  // measure 14
0001
0000
0010
0000
,  // measure 15
0100
0000
1000
0000
,  // measure 16
0010
0100
0020
0030
,  // measure 17
0110
0000
0110
0000
,  // measure 18
0110
0000
0100
0100
,  // measure 19
0001
0000
0010
0000
,  // measure 20
0100
0000
1000
0000
,  // measure 21
0010
0000
0100
0000
,  // measure 22
0001
0000
1000
0000
,  // measure 23
0100
0000
0010
0000
,  // measure 24
0001
0000
0100
0000
,  // measure 25
0010
0000
1000
0000
,  // measure 26
0001
0000
0010
0000
,  // measure 27
0100
0000
1000
0000
,  // measure 28
0010
0000
0100
0000
,  // measure 29
0001
0000
1000
0000
,  // measure 30
0100
0000
0010
0000
,  // measure 31
0001
0000
1000
0000
,  // measure 32
0010
0000
0100
0000
,  // measure 33
0001
0000
1000
0000
,  // measure 34
0001
1000
0001
1000
,  // measure 35
1001
0000
0000
0000
,  // measure 36
0000
0000
0000
0000
,  // measure 37
0000
0000
0000
0000
,  // measure 38
0000
0000
0000
0000
,  // measure 39
1000
0000
0100
0000
,  // measure 40
1000
0000
0001
0000
,  // measure 41
0010
0000
0001
0000
,  // measure 42
0100
0000
0010
0010
,  // measure 43
0010
0000
0000
0000
,  // measure 44
0001
0000
0000
0000
,  // measure 45
0100
0000
0000
0000
,  // measure 46
1000
0000
0000
0000
,  // measure 47
0010
0000
0000
0000
,  // measure 48
0100
0000
0100
0000
,  // measure 49
0001
1000
0010
0100
,  // measure 50
0002
0003
2000
3000
,  // measure 51
1001
0000
0000
0000
,  // measure 52
1001
0000
0100
0000
,  // measure 53
0010
0000
0000
0000
,  // measure 54
1001
0000
0010
0000
,  // measure 55
0100
0000
1000
0000
,  // measure 56
0010
0000
0001
0000
,  // measure 57
0100
0100
0100
0100
,  // measure 58
0100
0000
1000
0001
,  // measure 59
1001
0000
0000
0000
,  // measure 60
1000
0000
0000
0010
,  // measure 61
0010
0000
0001
0000
,  // measure 62
0100
0000
1000
0000
,  // measure 63
0010
0000
0100
0010
,  // measure 64
0100
0000
0001
0000
,  // measure 65
0010
0000
1000
0000
,  // measure 66
0100
0010
0100
0000
,  // measure 67
0010
0100
0010
0100
,  // measure 68
0001
0000
0000
0010
,  // measure 69
0010
0000
1000
0000
,  // measure 70
0100
0000
0001
0000
,  // measure 71
0010
0100
0010
0100
,  // measure 72
0010
0000
0001
0000
,  // measure 73
0100
0000
1000
0000
,  // measure 74
0010
0100
0010
0010
,  // measure 75
0001
1000
1001
0000
,  // measure 76
0000
2002
0000
0000
0000
0000
0000
0000
,  // measure 77
3003
0000
0000
0000
;

//---------------dance-single - ----------------
#NOTES:
     dance-single:
     :
     Easy:
     8:
     0.294630,0.366475,0.182444,0.103121,0.000000,260.000000,237.000000,23.000000,13.000000,0.000000,0.000000,0.294630,0.366475,0.182444,0.103121,0.000000,260.000000,237.000000,23.000000,13.000000,0.000000,0.000000:
0000
0000
0000
0000
,
0000
0000
0000
0000
,
0000
0000
0000
0000
,
0000
0000
0000
0000
,
0000
0000
0000
0000
,
1000
0000
1000
0000
,
0001
0000
0001
0000
,
1000
1000
0001
0001
,
1000
0001
1000
0001
,
1001
0000
0000
0100
,
0100
0000
0001
0010
,
0100
1000
0010
0100
,
0010
1000
0001
1000
,
1001
0000
0000
0010
,
0010
0000
0001
0100
,
0010
1000
0001
0010
,
0100
0100
0100
0100
,
2000
3000
0002
0003
,
1001
0000
0100
0010
,
0100
0001
0010
0001
,
0100
0001
0010
0001
,
0100
1000
0010
1000
,
0100
1000
0010
1000
,
0100
0001
1000
0001
,
0100
0001
1000
0001
,
0200
0300
1000
0001
,
1001
0010
0100
0010
,
0010
1000
0001
1000
,
0100
0001
1000
0001
,
0010
1000
0001
1000
,
0100
0001
1000
0001
,
0010
1000
0100
0010
,
0001
1000
0100
0020
,
0031
0001
0100
0100
,
1000
1000
0010
0100
,
0110
0000
0000
0000
,
0000
0000
0000
0000
,
0000
0000
0000
0000
,
0000
0000
0000
0000
,
2000
0000
3000
0000
,
0200
0000
0300
0000
,
0020
0000
0030
0000
,
0002
0000
0003
0000
,
1001
0000
0010
0100
,
0001
1000
0010
0100
,
1001
0000
0100
0010
,
1000
0001
0100
0010
,
1001
1000
0100
0000
,
1001
0001
0100
0000
,
1001
1000
0010
0001
,
0100
1000
0020
0130
,
0010
0010
0000
0000
0000
0000
0000
0000
,
1001
0001
1000
0010
,
0100
0100
0000
0000
0000
0000
1001
0000
,
1000
0001
0100
0010
,
1000
0100
0001
0010
,
1000
0100
0001
0010
,
0100
0000
0010
0000
0100
0010
0100
0000
,
0010
0100
0000
0000
0220
0000
0000
0000
,
0330
0000
0000
1001
,
0001
0100
1000
0001
,
1000
0010
0001
1000
,
1001
0001
0010
1000
,
0001
1000
0100
0001
,
1001
0010
0100
0001
,
0100
1000
0100
0001
,
1001
0100
0010
0001
,
0010
1000
0010
0001
,
1001
0000
1000
0000
0010
0000
0100
0001
,
0100
0001
0010
0100
,
1001
0000
0001
0000
0100
0000
0010
1000
,
0010
1000
0100
0010
,
1001
0100
0001
0100
,
1001
0010
1000
0010
,
1001
0100
0010
0001
,
0100
0000
1000
0000
0010
0100
0010
0000
,
0000
0220
0000
0000
0000
0000
0000
0000
,
0330
0000
0000
0000
;

//---------------dance-single - ----------------
#NOTES:
     dance-single:
     :
     Medium:
     14:
     0.569996,0.650701,0.356956,0.325226,0.257801,503.000000,458.000000,45.000000,41.000000,0.000000,0.000000,0.569996,0.650701,0.356956,0.325226,0.257801,503.000000,458.000000,45.000000,41.000000,0.000000,0.000000:
0000
0000
0000
0000
,
0000
0000
0000
0000
,
0000
0000
0000
0000
,
0000
0000
0000
0000
,
0000
0000
0000
0000
,
1000
0010
1000
0010
,
0001
0100
0001
0100
,
1000
1000
0010
0100
0001
0001
0100
0010
,
1000
0001
0010
0100
1000
0010
0100
0000
,
1001
0000
1001
0000
0000
0000
0000
0000
0000
0000
0000
0000
0010
0100
0000
0100
,
0000
0110
0000
0010
1000
0100
0010
0001
,
0100
0000
1000
0000
0100
0000
0001
0000
0100
0000
1000
0000
0100
0010
0000
0010
,
0000
0110
0000
0000
1001
0000
0000
0110
0000
0000
0010
0000
1000
0000
0001
0000
,
1001
0000
1001
0000
0000
0000
0000
0000
0000
0000
0000
0000
0100
0010
0000
0010
,
0000
0000
0110
0000
0000
0000
0100
0000
0001
0000
1000
0010
0000
0010
0000
0110
,
0000
0100
0001
0010
0100
1000
0010
0100
,
0001
1000
0100
0010
0001
0100
0010
1000
,
0001
0100
0000
0010
0000
0000
0000
0000
1000
0010
0000
0100
0000
0000
0000
0000
,
1001
0001
0010
0100
2000
0000
3002
0000
,
0103
0010
1000
0000
0100
0010
0001
0000
,
1000
0100
0010
0000
0001
0100
0010
0000
,
1000
0001
0010
0000
0001
1000
0100
0000
,
1000
0001
0100
0000
0001
1000
0010
0000
,
1000
0100
0001
0100
0010
0001
1000
0000
,
0001
0010
1000
0010
0100
1000
0001
0000
,
0100
0000
0010
0000
1000
0000
0001
0000
0100
0000
0000
0010
0000
0000
0220
0000
,
0330
0100
0001
0100
1000
0100
0010
1000
,
0001
0000
0000
0010
0000
0000
0100
0000
0000
1000
0000
0000
0020
0000
0000
0000
,
0130
0001
1000
0100
0010
0001
0100
0010
,
1000
0000
0000
0001
0000
0000
0010
0000
0000
0100
0000
0000
2000
0000
0000
0000
,
3010
0100
1000
0100
0001
0010
0100
0010
,
0011
0000
0001
0100
0010
0001
0010
1000
,
1100
0000
0100
0010
0001
1000
0010
0200
,
0000
0000
0301
1000
0000
0001
0010
0000
0001
0000
0100
0000
0010
0000
1000
0000
,
1100
0000
0011
0000
0101
0110
1010
0000
,
2002
0000
0000
3003
,
0020
0000
2030
0000
,
3200
0000
0000
0000
,
0302
0000
2003
0000
,
3020
0000
0032
0000
,
0203
0000
0320
0000
,
2030
0000
3002
0000
,
0023
0000
0200
0330
,
1001
0000
1000
0010
0000
0010
0100
0000
0100
0001
0000
0001
,
1000
0000
1000
0100
0000
0100
0010
0000
0010
0001
0000
0001
,
1001
0000
1000
0010
0000
0010
0100
0000
0100
0001
0000
0001
,
0011
0010
0100
1000
0010
0001
0010
0100
,
0110
0000
0010
1000
0100
0001
0100
0010
,
0110
0000
0100
1000
1010
0000
0010
0001
,
0101
0000
0101
0000
0000
1000
0000
0010
0100
0000
0010
0000
0000
1000
0000
0010
,
0100
0010
1000
0100
0020
0000
0031
0000
,
1001
0000
1001
0000
0000
0000
0000
0000
0000
0000
0000
0000
1000
0010
0000
0100
,
0000
0101
0000
0001
0010
1000
0010
0100
,
1001
0000
1001
0000
0000
0000
0000
0000
0000
0000
0000
0000
0001
0100
0000
0010
,
0000
1010
1000
0100
0001
0100
0010
0001
,
0200
0320
2030
3002
,
0023
0230
2300
3020
,
0130
0001
0010
1000
0001
0100
1000
0010
,
0100
0102
0000
1003
1010
0000
0101
0000
,
0220
0000
0330
0000
1000
0001
2002
3003
,
1000
0010
0001
0010
0100
0001
0010
1000
,
0010
0100
1000
0100
0001
1000
0010
0001
,
0010
0100
1000
0010
0001
1000
0100
0001
,
0010
0100
0010
0000
0100
1000
0100
0000
0010
0001
0010
0000
0001
1000
0001
0000
,
1000
1000
0010
0001
0100
0001
0010
1000
,
0001
0001
0100
1000
0010
1000
0100
0001
,
0010
0100
0010
0000
0100
0000
1000
0000
1010
0000
0000
0011
0000
0000
1001
0000
,
1000
0100
0001
1000
0010
0100
0220
0330
,
0010
0001
0010
0000
0100
0000
0001
0000
0100
0000
1000
0000
0100
0000
0010
0000
,
0100
1000
0100
0000
0010
0000
1000
0000
0010
0001
0010
0000
0100
0010
0100
0000
,
1000
0001
1000
0000
0010
0000
0001
0000
0100
0000
1000
0000
0001
0000
0010
0000
,
1000
0000
0100
0000
0001
0000
1000
0000
0010
0100
0000
0001
0000
1000
0000
0100
,
0010
0110
0100
0001
0100
0010
0001
0100
,
1000
0100
1000
0000
0100
0000
0010
0000
0001
0010
0001
0000
0010
0100
0000
0002
,
0000
1003
0100
0001
1000
0010
0001
0100
,
0010
1000
0010
0000
0100
0010
0100
0000
0001
0100
0001
0000
1000
0001
1000
0000
,
0000
2002
0000
0000
0000
0000
0000
0000
,
0000
0000
0000
0000
,
0000
3003
0000
0000
0000
0000
0000
0000
;

//---------------dance-double - ----------------
#NOTES:
     dance-double:
     :
     Easy:
     8:
     0.287831,0.335935,0.166579,0.087256,0.000000,254.000000,233.000000,21.000000,11.000000,0.000000,0.000000,0.287831,0.335935,0.166579,0.087256,0.000000,254.000000,233.000000,21.000000,11.000000,0.000000,0.000000:
00000000
00000000
00000000
00000000
,
00000000
00000000
00000000
00000000
,
00000000
00000000
00000000
00000000
,
00000000
00000000
00000000
00000000
,
00000000
00000000
00000000
00000000
,
00001000
00000000
00001000
00000000
,
00010000
00000000
00010000
00000000
,
00001000
00001000
00010000
00010000
,
00001000
00010000
00001000
00010000
,
00011000
00000000
00000000
01000000
,
01000000
00000000
00010000
10000000
,
00100000
00010000
00001000
00000010
,
00000001
00000100
00001000
00010000
,
00011000
00000000
00000000
00000010
,
00000010
00000000
00001000
00000001
,
00000100
00001000
00010000
00100000
,
10000000
01000000
00010000
00001000
,
00101000
00000000
00010010
00000000
,
00011000
00000000
00001000
00010000
,
00001000
00000100
00000001
00000100
,
00001000
00000100
00000001
00000100
,
00001000
00010000
00100000
10000000
,
00100000
00010000
00100000
10000000
,
00100000
00010000
00001000
00000010
,
00000001
00000100
00001000
00010000
,
02000000
03000000
10000000
00010000
,
10010000
00100000
01000000
00100000
,
00100000
10000000
01000000
00010000
,
00001000
00010000
00100000
00010000
,
00001000
00000100
00001000
00010000
,
00001000
00000010
00000001
00000100
,
00001000
00010000
00100000
10000000
,
01000000
00010000
00001000
00000020
,
00000031
00000001
00000100
00000100
,
00001000
00001000
00010000
00001000
,
00011000
00000000
00000000
00000000
,
00000000
00000000
00000000
00000000
,
00000000
00000000
00000000
00000000
,
00000000
00000000
00000000
00000000
,
00200000
00000000
00300000
00000000
,
00002000
00000000
00003000
00000000
,
00020000
00000000
00030000
00000000
,
00000020
00000000
00000030
00000000
,
00000110
00000000
00000100
00000001
,
00001000
00000010
00010000
00001000
,
00011000
00000000
00010000
00100000
,
10000000
01000000
00100000
00010000
,
10010000
10000000
00100000
00000000
,
00110000
00010000
00001000
00000000
,
00001010
00001000
00010000
00001000
,
00000100
00000001
00002000
00003010
,
00000100
00000100
00000000
00000000
00000000
00000000
00000000
00000000
,
00001001
00001000
00000100
00010000
,
01000000
01000000
00000000
00000000
00000000
00000000
10010000
00000000
,
10000000
00100000
00010000
00100000
,
01000000
00010000
00100000
01000000
,
00010000
00001000
00000010
00000001
,
00000100
00001000
00010000
01000000
,
00010000
00001000
00000000
00000000
00022000
00000000
00000000
00000000
,
00033000
00000000
00000000
00011000
,
00001000
00100000
01000000
10000000
,
00100000
00010000
00001000
00010000
,
00011000
00000100
00000010
00000001
,
00000100
00001000
00010000
00001000
,
00011000
01000000
00100000
10000000
,
01000000
00010000
00001000
00010000
,
00011000
00000010
00000100
00000001
,
00000010
00001000
00010000
00001000
,
00011000
00010000
00100000
10000000
,
01000000
00100000
00001000
00010000
,
00000100
00000010
00000001
00001000
,
00000010
00010000
00001000
00100000
,
01000000
10000000
01000000
00010000
,
00001000
00000010
00000001
00000010
,
00000100
00001000
00010000
00100000
,
01000000
10000000
01000000
00010000
,
00000000
00022000
00000000
00000000
00000000
00000000
00000000
00000000
,
00033000
00000000
00000000
00000000
;

//---------------dance-double - ----------------
#NOTES:
     dance-double:
     :
     Medium:
     14:
     0.545066,0.650701,0.325226,0.325226,0.253835,481.000000,440.000000,41.000000,41.000000,0.000000,0.000000,0.545066,0.650701,0.325226,0.325226,0.253835,481.000000,440.000000,41.000000,41.000000,0.000000,0.000000:
00000000
00000000
00000000
00000000
,
00000000
00000000
00000000
00000000
,
00000000
00000000
00000000
00000000
,
00000000
00000000
00000000
00000000
,
00000000
00000000
00000000
00000000
,
00100000
00001000
00100000
00001000
,
00010000
00000010
00010000
00000010
,
00001000
00001000
00000100
00000010
00000001
00000001
00001000
00000010
,
00010000
00001000
00100000
01000000
10000000
00100000
01000000
00000000
,
10010000
00000000
10010000
00000000
00000000
00000000
00000000
00000000
00000000
00000000
00000000
00000000
10000000
00100000
00000000
00100000
,
00000000
01100000
00000000
01000000
00010000
00100000
01000000
00010000
,
00001000
00000000
00010000
00000000
01000000
00000000
00010000
00000000
00001000
00000000
00000010
00000000
00000001
00000100
00000000
00000100
,
00000000
00000110
00000000
00000000
00010010
00000000
00000000
00011000
00000000
00000000
00001000
00000000
00100000
00000000
01000000
00000000
,
10010000
00000000
10010000
00000000
00000000
00000000
00000000
00000000
00000000
00000000
00000000
00000000
10000000
00100000
00000000
00100000
,
00000000
00000000
01100000
00000000
00000000
00000000
01000000
00000000
00010000
00000000
00100000
00001000
00000000
00001000
00000000
00011000
,
00000000
00010000
00000100
00000010
00000001
00001000
00000010
00000100
,
00001000
00010000
00100000
10000000
01000000
00100000
00010000
01000000
,
00001000
00010000
00000000
00000010
00000000
00000000
00000000
00000000
00010000
00001000
00000000
01000000
00000000
00000000
00000000
00000000
,
00011000
00010000
00000100
00000010
00000002
00000000
00002003
00000000
,
00003010
00010000
00001000
00000000
00100000
00001000
00010000
00000000
,
00000100
00010000
00001000
00000000
01000000
00001000
00010000
00000000
,
00100000
10000000
01000000
00000000
01000000
00010000
00001000
00000000
,
00010000
00001000
00000100
00000000
00000100
00000001
00000010
00000000
,
00000010
00000100
00001000
00000010
00010000
00001000
00100000
00000000
,
01000000
00100000
00010000
01000000
00001000
00010000
00000100
00000000
,
00000010
00000000
00000001
00000000
00000100
00000000
00001000
00000000
00010000
00000000
00000000
00001000
00000000
00000000
00022000
00000000
,
00033000
00010000
01000000
10000000
01000000
00010000
01000000
00100000
,
00010000
00000000
00000000
01000000
00000000
00000000
00001000
00000000
00000000
00010000
00000000
00000000
00000200
00000000
00000000
00000000
,
00000310
00000001
00001000
00000010
00010000
00001000
00000100
00010000
,
01000000
00000000
00000000
00100000
00000000
00000000
10000000
00000000
00000000
00010000
00000000
00000000
00200000
00000000
00000000
00000000
,
01300000
00100000
00010000
01000000
00001000
00010000
00000100
00000010
,
00000011
00000000
00000001
00000100
00001000
00010000
00100000
10000000
,
11000000
00000000
01000000
00100000
10000000
00100000
00010000
02000000
,
00000000
00000000
03001000
00000000
00000000
00010000
00000000
00000000
00000100
00000000
00000010
00000000
00000001
00000000
00001000
00000000
,
00001010
00010100
00101000
01010000
,
20200000
00000000
00000000
30300000
,
00020000
00000000
02030000
00000000
,
03002000
00000000
00000000
00000000
,
00023000
00000000
00030200
00000000
,
00002300
00000000
00003020
00000000
,
00000032
00000000
00000023
00000000
,
00000230
00000000
00002300
00000000
,
00023000
00000000
02030000
13000000
,
10010000
00000000
00010000
01000000
00000000
00001000
00010000
00000000
00000100
00001000
00000000
00000010
,
00000100
00000000
00000001
00001000
00000000
00000100
00000010
00000000
00000001
00000100
00000000
00000010
,
00001000
00000000
00000100
00010000
00000000
00001000
01000000
00000000
00100000
10000000
00000000
01000000
,
00100000
00010000
01000000
00001000
00010000
00100000
00001000
00000010
,
00000110
00000000
00000100
00000001
00000010
00001000
00010000
00100000
,
01100000
00000000
01000000
00010000
00110000
00000000
00100000
00001000
,
00011000
00000000
00011000
00000000
00000000
00010000
00000000
00000100
00001000
00000000
00000010
00000000
00000000
00010000
00000000
00000100
,
00000010
00001000
00010000
01000000
20000000
00000000
30100000
00000000
,
01100000
00000000
01100000
00000000
00000000
00000000
00000000
00000000
00000000
00000000
00000000
00000000
01000000
00001000
00000000
00010000
,
00000000
00011000
00000000
00010000
00001000
00000010
00000001
00000000
,
00001100
00000000
00001100
00000000
00000000
00000000
00000000
00000000
00000000
00000000
00000000
00000000
00000100
00010000
00000000
00001000
,
00000000
00011000
00001000
00010000
01000000
00010000
00001000
00100000
,
02000000
23000000
30200000
02300000
,
03020000
00230000
00302000
00003020
,
00000031
00000100
00001000
00010000
00100000
10000000
01000000
00010000
,
00001000
00201000
00000000
00310000
01010000
00000000
01001000
00000000
,
00022000
00000000
00033000
00000000
00010000
00000010
00002020
00003030
,
00001000
00000100
00000010
00000001
00001000
00000010
00010000
00001000
,
00100000
01000000
10000000
00100000
00010000
00100000
01000000
00010000
,
00100000
01000000
00010000
00001000
00000010
00000001
00000100
00001000
,
00010000
00001000
00000000
00000000
00001000
00100000
00000000
00000000
00100000
01000000
00000000
00000000
01000000
10000000
00000000
00000000
,
10000000
00100000
00010000
00100000
00001000
00000010
00000001
00000010
,
00000100
00001000
00010000
00100000
01000000
00010000
00100000
10000000
,
00100000
00010000
00000000
00000000
01000000
00000000
00001000
00000000
00011000
00000000
00000000
00010100
00000000
00000000
01001000
00000000
,
01000000
00001000
00010000
00000100
00000010
00000001
00002002
00003003
,
00001000
00000010
00000000
00000000
00010000
00000000
00001000
00000000
00100000
00000000
01000000
00000000
10000000
00000000
00100000
00000000
,
01000000
00010000
00000000
00000000
00100000
00000000
01000000
00000000
00010000
00001000
00000000
00000000
00001000
00000010
00000000
00000000
,
00000010
00000001
00000000
00000000
00001000
00000000
00000010
00000000
00000100
00000000
00001000
00000000
00000100
00000000
00010000
00000000
,
01000000
00000000
10000000
00000000
01000000
00000000
00100000
00000000
00010000
00001000
00000000
00100000
00000000
00001000
00000000
00010000
,
00000100
00000100
00000010
00000001
00000100
00001000
00010000
01000000
,
10000000
00100000
00000000
00000000
00010000
00000000
00001000
00000000
00010000
00100000
00000000
00000000
00010000
00001000
00000000
00000020
,
00000000
00000031
00000100
00001000
00010000
00100000
10000000
01000000
,
00100000
00010000
00000000
00000000
00001000
00000010
00000000
00000000
00000100
00000001
00000000
00000000
00000010
00000100
00000010
00000000
,
00000000
00002002
00000000
00000000
00000000
00000000
00000000
00000000
,
00000000
00000000
00000000
00000000
,
00000000
00003003
00000000
00000000
00000000
00000000
00000000
00000000
;
