#VERSION:0.83;
#TITLE:Ampun Bang Jago;
#SUBTITLE:;
#ARTIST:Tian Storm x Ever Slkr;
#TITLETRANSLIT:;
#SUBTITLETRANSLIT:;
#ARTISTTRANSLIT:;
#GENRE:XROSS;
#ORIGIN:;
#CREDIT:MUINELIM;
#BANNER:Ampun Bang Jago.png;
#BACKGROUND:Ampun Bang Jago-bg.png;
#PREVIEWVID:;
#JACKET:Ampun Bang Jago-jacket.png;
#CDIMAGE:;
#DISCIMAGE:;
#LYRICSPATH:;
#CDTITLE:;
#MUSIC:Ampun Bang Jago.ogg;
#OFFSET:-0.056000;
#SAMPLESTART:21.833778;
#SAMPLELENGTH:12.444443;
#SELECTABLE:YES;
#DISPLAYBPM:135.000000;
#BPMS:0.000=67.500,
10.000=135.000;
#STOPS:;
#DELAYS:;
#WARPS:;
#TIMESIGNATURES:0.000=4=4;
#TICKCOUNTS:0.000=4;
#COMBOS:0.000=1;
#SPEEDS:0.000=1.000=0.000=0;
#SCROLLS:0.000=1.000;
#FAKES:;
#LABELS:0.000=Song Start;
#BGCHANGES:;
#KEYSOUNDS:;
#ATTACKS:
;

//---------------dance-single - ----------------
#NOTEDATA:;
#CHARTNAME:;
#STEPSTYPE:dance-single;
#DESCRIPTION:;
#CHARTSTYLE:;
#DIFFICULTY:Beginner;
#METER:3;
#RADARVALUES:0.116927,0.155740,0.007579,0.000000,0.000000,108.000000,107.000000,1.000000,0.000000,0.000000,0.000000,0.000000,0.000000,0.000000,0.116927,0.155740,0.007579,0.000000,0.000000,108.000000,107.000000,1.000000,0.000000,0.000000,0.000000,0.000000,0.000000,0.000000;
#CREDIT:MILEN;
#DISPLAYBPM:135.000000;
#NOTES:
0000
0000
0000
0000
,
0000
0000
0000
0000
,
0000
0000
0000
0000
,
0000
0000
1000
0000
,
0000
0000
1000
0000
,
0000
0000
1000
0000
,
0000
0000
0001
0000
,
0000
0000
0001
0000
,
0000
0000
0001
0000
,
0000
0000
0100
0000
,
0100
0000
0010
0000
,
0100
0000
0010
0000
,
0100
0000
0010
0000
,
0100
0000
0010
0000
,
0000
1000
1000
0000
,
0001
0000
1000
0000
,
0001
0000
1000
0000
,
0001
0000
1000
0000
,
0000
0000
0001
0000
,
0100
0000
0001
0000
,
0000
0000
1000
0000
,
0010
0000
1000
0000
,
0000
0000
0001
0000
,
1000
0000
0001
0000
,
1000
0000
0010
0000
,
0100
0000
0010
0000
,
0000
0000
0010
0000
,
1000
0000
0100
0000
,
0000
0000
0010
0000
,
0001
0000
0100
0000
,
0000
0000
0010
0000
,
1000
0000
0001
0000
,
0100
0000
0010
0000
,
0000
0000
0010
0000
,
0000
0000
0010
0000
,
1000
0000
0010
0000
,
1000
0000
0001
0000
,
0100
0000
0001
0000
,
0000
0000
1000
0000
,
0100
0000
1000
0000
,
0100
0000
0010
0000
,
0001
0000
0010
0000
,
0000
0000
0001
0000
,
0000
0000
0100
0000
,
0000
0000
1000
0000
,
0000
0000
0010
0000
,
0000
0000
0001
0000
,
0000
0000
0100
0000
,
0000
0000
1000
0000
,
0000
0000
0010
0010
,
0010
0000
0001
0000
,
1000
0000
0100
0000
,
0010
0000
0001
0000
,
1000
0000
0100
0000
,
0010
0000
0001
0000
,
0100
0000
0010
0000
,
1000
0000
0001
0000
,
0100
0000
0010
0000
,
0010
0000
0010
0000
,
0000
0000
1001
0000
,
0000
0000
1000
0000
,
0100
0000
1000
0000
,
0100
0000
0001
0000
,
0010
0000
0001
0000
,
0010
0000
1000
0000
,
0010
0000
1000
0000
,
0010
0000
0001
0000
,
0100
0000
0001
0000
,
0100
0000
1000
0000
;

//---------------dance-single - ----------------
#NOTEDATA:;
#CHARTNAME:;
#STEPSTYPE:dance-single;
#DESCRIPTION:;
#CHARTSTYLE:;
#DIFFICULTY:Easy;
#METER:5;
#RADARVALUES:0.217613,0.265250,0.068207,0.068207,0.000000,201.000000,192.000000,9.000000,9.000000,0.000000,0.000000,0.000000,0.000000,0.000000,0.217613,0.265250,0.068207,0.068207,0.000000,201.000000,192.000000,9.000000,9.000000,0.000000,0.000000,0.000000,0.000000,0.000000;
#CREDIT:MILEN;
#DISPLAYBPM:135.000000;
#NOTES:
0000
0000
0000
0000
,
0000
0000
0000
0000
,
0000
0000
0000
0000
,
0000
1000
1000
0000
,
0000
0001
0001
0000
,
0000
1000
1000
0000
,
0001
1000
0001
0000
,
0000
0100
0100
0000
,
0000
0010
0010
0000
,
0000
0100
0010
0000
,
0100
0010
0100
0100
,
0001
0001
1000
1000
,
0010
0010
0100
0001
,
1000
0010
0110
0000
,
0000
0100
0010
0010
,
1000
1000
0001
0001
,
0100
0100
0010
1000
,
0001
0100
0110
0000
,
0000
0010
0010
1000
,
0100
0010
0100
1000
,
0100
0010
0000
0001
,
0010
0100
0010
0001
,
0010
0100
0000
0010
,
0001
0100
0100
0010
,
1000
0100
0100
0010
,
0001
0100
0110
0000
,
0000
0000
1000
0000
,
0001
0000
1000
0010
,
0200
0300
0001
0000
,
1000
0000
0001
0100
,
0020
0030
1000
0000
,
0001
0000
0100
0000
,
0010
0000
0000
0000
1000
1000
0000
0000
,
0000
0000
0000
0001
0001
0000
0000
0000
,
0000
1001
0010
1000
,
0100
1000
0010
1000
,
0100
0000
0100
0001
,
0010
0001
0100
0001
,
0010
0000
0010
1000
,
0001
1000
0010
1000
,
0001
0000
0100
0001
,
1000
0001
0100
0001
,
1000
0010
0100
0000
,
0001
0000
0010
0000
,
1000
0000
0100
0000
,
0001
0000
0010
0000
,
1000
0000
0010
0000
,
0001
0000
0100
0000
,
1000
0000
0010
0000
,
0000
0010
0100
0010
,
0220
0330
1000
1000
,
0001
0001
1000
0100
,
0001
0100
1000
1000
,
0001
0001
1000
0001
,
0100
0010
0200
0300
,
0001
0010
1000
0010
,
0001
0100
0010
1000
,
0001
0010
0100
1000
,
0001
1000
2002
0000
,
0000
3003
1001
0000
,
0000
0000
0001
0000
,
0100
0000
1000
0000
,
0010
0000
0001
0000
,
0100
0000
1000
0010
,
0100
1001
1000
0000
,
0100
0000
0001
0000
,
0010
0000
1000
0000
,
0100
0000
0001
0010
,
0100
0100
0100
0000
2002
0000
0000
0000
,
0000
0000
0000
0000
,
3003
0000
0000
0000
;

//---------------dance-single - ----------------
#NOTEDATA:;
#CHARTNAME:;
#STEPSTYPE:dance-single;
#DESCRIPTION:;
#CHARTSTYLE:;
#DIFFICULTY:Medium;
#METER:9;
#RADARVALUES:0.344284,0.424400,0.272829,0.212200,0.018946,318.000000,282.000000,36.000000,28.000000,0.000000,0.000000,0.000000,0.000000,0.000000,0.344284,0.424400,0.272829,0.212200,0.018946,318.000000,282.000000,36.000000,28.000000,0.000000,0.000000,0.000000,0.000000,0.000000;
#CREDIT:MILEN;
#DISPLAYBPM:135.000000;
#NOTES:
0000
0000
0000
0000
,
0000
0000
0000
0000
,
0000
0000
0000
0000
,
0000
1000
0100
0000
0100
0000
0000
0000
,
0000
0001
0010
0000
0010
0000
0000
0000
,
0000
1000
0100
0000
0100
0000
0000
0001
,
0010
0010
1001
0000
,
0000
1000
0010
0000
0010
0000
0000
0000
,
0000
0001
0100
0000
0100
0000
0000
0000
,
0000
1000
0001
0000
0001
0000
1000
0000
,
1000
0001
1001
0100
,
1001
0010
1001
1001
,
0110
1001
1000
0001
,
0100
0010
0220
0000
,
0330
0000
0100
0010
0100
0000
0101
0000
,
0010
1010
0100
0101
,
0010
1010
0100
1100
,
0010
0011
2002
0000
,
0000
3003
1001
0001
,
0100
0000
0001
0010
0001
0000
1000
0000
,
0010
0100
0020
0000
0030
0000
1000
0000
,
0010
0000
1000
0100
1000
0000
0001
0000
,
0100
0010
0200
0000
0300
0000
0001
1000
,
0010
0000
0100
0000
0010
0000
1000
0001
,
0100
0000
0010
0000
0100
0000
0001
1000
,
0010
0000
1000
0001
0200
0000
0000
0000
,
0020
0000
0330
0000
0110
0000
0010
1000
,
0100
0000
0010
0001
0100
0000
0010
0100
,
0010
0000
1001
0000
1000
0001
1000
0001
,
0100
0000
0001
1000
0010
0000
1000
0001
,
0100
0000
0020
0000
2030
0000
3010
0100
,
0001
0000
0020
0000
0032
0000
0013
0100
,
1000
0000
0010
1000
0100
1100
0000
0000
,
0000
0000
0001
0100
0101
0000
0000
0000
,
0000
0000
0001
1000
0001
0000
0001
0000
,
0100
0100
1000
1000
,
0010
0010
0001
1000
,
0001
0100
0220
0000
,
0330
0000
1000
0001
1000
0000
1000
0000
,
0010
0010
0001
0001
,
0100
0100
1000
0001
,
1000
0010
0220
0000
,
0000
0330
1001
1000
,
0001
0100
0010
1000
,
0001
0000
0000
0100
0000
0010
0100
0000
0000
0001
0000
0000
,
1000
0000
0000
0010
0000
0000
0100
0000
0001
1000
0000
1000
,
0002
0003
1000
0100
,
0010
0000
0000
0001
0000
0000
0100
0000
0010
0100
0000
0100
,
0010
1000
1001
0000
,
0000
0000
0010
0100
0020
0000
2030
0000
,
3002
0000
0103
0000
0100
0001
0010
0000
,
0010
0001
0100
0000
0100
0001
0010
0100
,
1000
0000
1010
0000
0000
0010
1000
0010
,
0100
0000
0001
0010
0100
0000
1000
0100
,
0010
0000
0001
0100
0020
0000
1030
0001
,
1001
0010
0100
0001
,
1000
0000
0100
0010
0001
0000
1000
0100
,
0010
0000
0001
0100
0020
0000
2030
0000
,
3002
0203
0020
0000
,
0000
0330
1001
0000
,
0001
0010
0100
1000
0010
0000
0100
0000
,
0001
0100
1000
0100
,
0010
0001
0010
1000
,
0010
0100
0101
1010
,
0101
0000
1010
0000
1000
0001
0010
0000
,
0001
1000
0010
0000
1000
0001
0100
0000
,
0001
1000
0100
0000
1000
0010
0100
0000
,
0001
0100
0010
0000
1010
0000
1100
0000
,
0011
0101
2002
0000
,
0000
0000
0000
0000
,
3003
0000
0000
0000
;

//---------------dance-single - ----------------
#NOTEDATA:;
#CHARTNAME:;
#STEPSTYPE:dance-single;
#DESCRIPTION:;
#CHARTSTYLE:;
#DIFFICULTY:Hard;
#METER:12;
#RADARVALUES:0.507764,0.530500,0.310721,0.159150,0.269039,469.000000,428.000000,41.000000,21.000000,0.000000,0.000000,0.000000,0.000000,0.000000,0.507764,0.530500,0.310721,0.159150,0.269039,469.000000,428.000000,41.000000,21.000000,0.000000,0.000000,0.000000,0.000000,0.000000;
#CREDIT:MILEN;
#DISPLAYBPM:135.000000;
#NOTES:
0000
0000
0000
0000
,
0000
0000
0000
0000
,
0000
0000
0000
0000
,
0000
1000
0010
0100
0110
0000
0000
0000
,
0000
0001
0100
0010
0110
0000
0000
0000
,
0000
1000
0010
0100
0110
0000
0000
0001
,
0010
0010
0100
0100
1001
0000
0000
0000
,
0000
1000
0010
0100
0101
0000
0000
0000
,
0000
0001
0100
0010
1010
0000
0000
0000
,
0000
1000
0001
1000
1001
0000
0010
0010
,
1100
0000
0000
0000
0011
0000
0000
0000
0001
0100
0000
0000
0010
1000
0000
0000
,
0001
0100
0000
0000
0010
0000
1000
0000
0100
0000
0001
0000
0100
0000
1000
0000
,
0020
0000
0130
0000
0002
0000
1003
0000
1000
0100
0000
0000
0010
0001
0000
0000
,
0100
1000
0000
0000
0001
0010
0000
0000
0220
0000
0000
0000
0000
0000
0300
0000
,
0000
0000
0031
1000
0001
0000
1000
0000
0010
0000
1000
0100
0000
0000
0001
0000
,
0100
0000
0001
0010
0000
0000
1000
0000
0010
0000
1000
0100
0000
0000
0001
0000
,
0010
0000
0100
0000
2000
0000
0000
0000
3001
0000
0010
0001
0000
0000
0010
0000
,
1000
0000
0100
1000
0000
0000
0100
0000
0102
0000
0000
0000
0013
0000
0100
0000
,
1000
0010
2010
0000
3001
0000
0100
0000
,
1000
0000
0000
0010
0000
0000
0001
0000
0000
0100
0000
0010
,
1000
0000
0100
0001
0000
0000
1001
0000
0000
0010
0000
0000
,
0001
0000
0000
0100
0000
0000
1000
0000
0000
0010
0000
0100
,
0001
0000
0010
1000
0000
0000
1001
0000
0000
0001
0100
0001
,
0010
0000
0010
0100
0000
0100
1000
0000
0000
1000
0010
1000
,
0100
0000
0100
0010
0000
0010
0001
0000
0000
0001
0100
0010
,
1000
0100
0010
0100
0010
0001
2002
0000
0000
0000
0000
0000
,
0000
0000
0000
0003
0000
0000
0000
0000
0000
3010
0000
0000
0110
0000
0000
0000
0000
0000
0100
0000
0000
0000
0001
0000
,
0010
0000
0000
0010
0000
1000
0100
0000
0000
0100
0000
0001
,
1000
0000
1001
0000
0001
0100
1000
0010
,
0001
0000
0000
1000
0010
0100
0010
0000
0000
0001
0010
0100
,
0010
0000
0000
0000
0000
0000
1000
0000
0000
0001
0000
0000
0010
0000
0100
0000
0010
0000
0100
0000
0010
0000
0100
0000
,
1000
0000
0000
0000
0000
0000
0001
0000
0000
1000
0000
0000
0100
0000
0010
0000
0100
0000
0010
0000
0100
0000
0010
0000
,
0001
0000
1000
0001
0100
1100
0000
0000
,
0000
0000
1000
0010
0011
0000
0000
0000
,
0000
0000
0001
1000
0001
0000
0100
0000
0010
0000
1000
0000
0010
0000
0001
0000
,
0010
1000
0010
0001
0010
1000
0100
0010
,
1000
0010
0100
1000
0020
0000
0031
0010
,
0100
0000
0001
0010
2010
0000
0000
0000
,
0000
3001
0101
0000
0100
0001
0100
1000
,
0100
0001
0100
1000
0100
0001
0010
0100
,
0001
0100
0010
0001
0200
0000
1300
0100
,
0010
0000
1000
0100
0001
0100
0010
1000
,
0010
0000
0000
0001
0000
0000
0100
0000
0000
0010
0000
0000
0110
0000
0000
0000
0100
0000
0001
0000
0000
0000
0001
0000
,
0010
0000
0010
0100
0000
0100
1000
0000
1000
0010
0000
0010
,
0100
0000
0000
0101
0000
0001
1000
0000
1000
0010
0000
0010
,
0100
0000
0100
0001
0000
0001
0010
0000
0010
0100
0000
0100
,
1000
0000
0000
1010
0000
0010
0100
0000
0100
0001
0000
0001
,
0010
0000
0010
1000
0000
1000
0001
0000
0001
0100
0000
0100
,
1000
0000
0000
0000
1000
0000
0010
0000
0100
0000
0001
0000
0020
0000
0000
0000
0000
0000
0100
0000
0000
0100
0000
0000
,
0130
0000
0110
0001
0100
1000
0001
0010
,
1000
0001
2002
3003
1000
0010
0001
0010
,
1000
0100
0001
0100
1000
0010
0001
0010
,
2000
0000
3200
0000
0000
0310
0010
0001
,
0100
1000
0100
0001
0010
1000
0010
0001
,
0100
1000
0100
0001
0011
0000
0010
0001
,
0100
1000
0010
0001
0100
0000
1010
0000
,
0101
0000
0001
0010
1000
0001
0100
1000
,
0010
0000
0001
0000
1000
0000
0100
0000
0001
0000
0000
0011
0000
0000
1100
0000
,
1010
0101
0220
0000
,
0000
0000
0330
0000
1001
0000
0001
0100
,
1000
0010
0001
0100
1000
0010
0001
0100
,
0001
0010
1000
0000
0001
0100
1000
0010
,
1000
0100
0001
0000
0010
0100
1000
0001
,
0010
0100
1000
0010
0101
0000
0011
0000
,
1100
0000
1010
0000
0010
0001
0100
1000
,
0010
0100
0010
0010
1000
0100
0001
0010
,
1000
0001
1000
1000
0010
0100
1000
0001
,
0010
0100
0010
1000
1001
0000
0001
0010
,
1000
0100
0001
0010
0220
0000
0000
0000
,
0000
0000
0000
0000
,
0330
0000
0000
0000
;

//---------------dance-double - ----------------
#NOTEDATA:;
#CHARTNAME:;
#STEPSTYPE:dance-double;
#DESCRIPTION:;
#CHARTSTYLE:;
#DIFFICULTY:Easy;
#METER:5;
#RADARVALUES:0.220861,0.291775,0.090943,0.068207,0.000000,204.000000,192.000000,12.000000,9.000000,0.000000,0.000000,0.000000,0.000000,0.000000,0.220861,0.291775,0.090943,0.068207,0.000000,204.000000,192.000000,12.000000,9.000000,0.000000,0.000000,0.000000,0.000000,0.000000;
#CREDIT:MILEN;
#DISPLAYBPM:135.000000;
#NOTES:
00000000
00000000
00000000
00000000
,
00000000
00000000
00000000
00000000
,
00000000
00000000
00000000
00000000
,
00000000
00001000
00001000
00000000
,
00000000
00010000
00010000
00000000
,
00000000
00001000
00001000
00000000
,
00010000
00001000
00010000
00000000
,
00000000
00001000
00010000
00000000
,
00000000
00010000
00001000
00000000
,
00000000
00001000
00011000
00000000
,
00010000
00011000
00000100
00001000
,
00000010
00001000
00000100
00001000
,
00000010
00001000
00000100
00010000
,
00001000
01000000
00100000
00000000
,
00000000
01000000
01000000
00010000
,
00100000
00010000
01000000
00010000
,
00100000
00010000
01000000
00001000
,
00010000
00000100
00000010
00000000
,
00000000
00000001
00000001
00000100
,
00001000
00010000
00001000
00000100
,
00001000
00010000
00000000
01000000
,
00010000
00001000
00010000
01000000
,
00010000
00001000
00000000
00100000
,
01000000
10000000
10000000
00100000
,
00010000
00001000
00001000
00000010
,
00000001
00001000
00001001
00000000
,
00000000
00000000
00000010
00000000
,
00000100
00000000
00000010
00010000
,
00002000
00003000
01000000
00000000
,
00100000
00000000
01000000
00001000
,
00020000
00030000
00000100
00000000
,
00000010
00000000
00000001
00000000
,
00000100
00000000
00000000
00000000
00001000
00001000
00000000
00000000
,
00000000
00000000
00000000
00010000
00010000
00000000
00000000
00000000
,
00000000
00011000
00001000
00100000
,
01000000
10000000
00100000
01000000
,
00001000
00000000
00010000
00000100
,
00000010
00000001
00000100
00000010
,
00010000
00000000
00001000
01000000
,
00100000
10000000
01000000
00100000
,
00001000
00000000
00010000
00000010
,
00000100
00000001
00000010
00000100
,
00010000
00001000
00011000
00000000
,
01000000
00000000
00010000
00000000
,
00100000
00000000
00001000
00000000
,
00010000
00000000
00000010
00000000
,
00001000
00000000
00000100
00000000
,
00010000
00000000
00001000
00000000
,
00100000
00000000
01000000
00000000
,
00000000
10000000
00100000
00010000
,
00022000
00033000
00001000
00001000
,
00100000
00100000
01000000
10000000
,
00100000
01100000
00010000
00000100
,
00000100
00000010
00000001
00000100
,
00000110
00001000
00020000
00030000
,
00001000
00100000
01000000
00100000
,
00010000
01000000
00001000
00010000
,
00000100
00000010
00000100
00001000
,
00000010
00010000
00022000
00000000
,
00000000
00033000
00011000
00000000
,
00000000
00000000
00001000
00000000
,
00100000
00000000
01000000
00000000
,
10000000
00000000
00100000
00000000
,
00010000
00000000
00001000
00010000
,
00001000
00011000
00010000
00000000
,
00000010
00000000
00000100
00000000
,
00000001
00000000
00000010
00000000
,
00001000
00000000
00010000
00001000
,
00010000
00010000
00010000
00000000
00022000
00000000
00000000
00000000
,
00000000
00000000
00000000
00000000
,
00033000
00000000
00000000
00000000
;

//---------------dance-double - ----------------
#NOTEDATA:;
#CHARTNAME:;
#STEPSTYPE:dance-double;
#DESCRIPTION:;
#CHARTSTYLE:;
#DIFFICULTY:Medium;
#METER:9;
#RADARVALUES:0.335622,0.424400,0.227357,0.197043,0.018946,310.000000,280.000000,30.000000,26.000000,0.000000,0.000000,0.000000,0.000000,0.000000,0.335622,0.424400,0.227357,0.197043,0.018946,310.000000,280.000000,30.000000,26.000000,0.000000,0.000000,0.000000,0.000000,0.000000;
#CREDIT:MILEN;
#DISPLAYBPM:135.000000;
#NOTES:
00000000
00000000
00000000
00000000
,
00000000
00000000
00000000
00000000
,
00000000
00000000
00000000
00000000
,
00000000
00000010
00010000
00000000
00001000
00000000
00000000
00000000
,
00000000
00100000
00001000
00000000
00010000
00000000
00000000
00000000
,
00000000
00000100
00010000
00000000
00001000
00000000
00000000
01000000
,
00001000
00010000
00011000
00000000
,
00000000
00001000
00000010
00000000
00001000
00000000
00000000
00000000
,
00000000
00010000
00100000
00000000
00010000
00000000
00000000
00000000
,
00000000
00001000
00010000
00000000
00010000
00000000
00001000
00000000
,
00001000
00010000
00011000
01000000
,
00011000
00100000
00011000
01000000
,
00001000
00011000
00010000
00000010
,
00001000
00000001
00002002
00000000
,
00003003
00000000
00001000
00000010
00010000
00000000
00011000
00000000
,
00000100
00011000
00000010
00011000
,
00000100
00010000
00011000
00001000
,
00100000
00010000
20020000
00000000
,
00000000
30030000
10010000
10000000
,
01000000
00000000
00010000
00001000
00010000
00000000
00001000
00000000
,
00000010
00000001
00000020
00000000
00000030
00000000
00000001
00000000
,
00000100
00000000
00001000
00010000
00001000
00000000
00010000
00000000
,
01000000
10000000
02000000
00000000
03000000
00000000
10000000
00100000
,
01000000
00000000
00100000
00000000
00010000
00000000
00001000
00010000
,
00000100
00000000
00001000
00000000
00000100
00000000
00000010
00000001
,
00000100
00000000
00000010
00010000
00002000
00000000
00000000
00000000
,
00020000
00000000
00033000
00000000
00011000
00000000
00010000
01000000
,
10000000
00000000
01000000
00010000
00001000
00000000
00010000
00001000
,
00000010
00000000
00000011
00000000
00001000
00000100
00001000
00000100
,
00000010
00000000
00000001
00000100
00001000
00000000
00000100
00001000
,
00010000
00002000
00203000
00320000
,
10030000
20000000
32000000
03020000
,
00031000
00000000
00001000
00000010
00001000
00010000
00000000
00000000
,
00000000
00000000
00100000
00010000
00001000
00000000
00000000
00000000
,
00000000
00000000
00000100
00001000
00010000
00000000
00100000
00000000
,
10000000
01000000
10000000
00100000
,
00010000
00100000
10000000
01000000
,
00010000
00001000
00022000
00000000
,
00033000
00000000
01000000
00010000
00001000
00000000
00000010
00000000
,
00000001
00000100
00000001
00000010
,
00001000
00000010
00000001
00000100
,
00001000
00010000
00022000
00000000
,
00000000
00033000
00011000
00001000
,
00100000
01000000
00010000
00001000
,
00100000
00000000
00000000
01000000
00000000
10000000
01000000
00000000
00000000
00100000
00000000
00000000
,
00010000
00000000
00000000
01000000
00000000
00000000
00001000
00000000
00010000
00001000
00000000
00001000
,
00020000
00030000
00000100
00000010
,
00001000
00000000
00000000
00010000
00000000
00000000
00000100
00000000
00000010
00000001
00000000
00000001
,
00000010
00001000
00011000
00000000
,
00000000
00000000
00010000
01000000
10000000
00000000
00010000
00000000
,
00001000
00000000
00000001
00000000
00000010
00000001
00000100
00000000
,
00000010
00001000
00000100
00000000
00000010
00000001
00000100
00000000
,
00001000
00000000
00011000
00000000
00000000
00010000
00001000
00010000
,
00100000
00000000
10000000
01000000
00100000
00000000
00010000
00100000
,
01000000
00000000
10000000
01000000
00100000
00000000
00010000
01000000
,
00001000
00010000
00000100
00001000
00000010
00000000
00010000
00000000
,
00001000
00000000
00100000
01000000
00010000
00000000
00001000
00000010
,
00000100
00000000
00010000
00001000
00021000
00000000
00030200
00000000
,
00000320
00000032
00002000
00000000
,
00000000
00003003
00001001
00000000
,
00000001
00000100
00001000
00000000
00010000
00000000
00100000
00000000
,
00010000
00001000
00000010
00001000
,
00010000
01000000
00010000
00001000
,
00000100
00001000
00011000
00010010
,
01001000
00000000
00011000
00000000
00010000
00100000
01000000
00000000
,
00100000
10000000
01000000
00000000
00100000
00010000
01000000
00000000
,
00001000
00000100
00000010
00000000
00000100
00000001
00000010
00000000
,
00000100
00001000
00000010
00000000
00010010
00000000
00101000
00000000
,
00010100
01001000
00022000
00000000
,
00000000
00000000
00000000
00000000
,
00033000
00000000
00000000
00000000
;

//---------------dance-double - ----------------
#NOTEDATA:;
#CHARTNAME:;
#STEPSTYPE:dance-double;
#DESCRIPTION:;
#CHARTSTYLE:;
#DIFFICULTY:Hard;
#METER:12;
#RADARVALUES:0.503434,0.530500,0.295564,0.143993,0.223568,465.000000,426.000000,39.000000,19.000000,0.000000,0.000000,0.000000,0.000000,0.000000,0.503434,0.530500,0.295564,0.143993,0.223568,465.000000,426.000000,39.000000,19.000000,0.000000,0.000000,0.000000,0.000000,0.000000;
#CREDIT:MILEN;
#DISPLAYBPM:135.000000;
#NOTES:
00000000
00000000
00000000
00000000
,
00000000
00000000
00000000
00000000
,
00000000
00000000
00000000
00000000
,
00000000
00010000
00001000
01000000
01001000
00000000
00000000
00000000
,
00000000
00001000
00010000
00000010
00010010
00000000
00000000
00000000
,
00000000
00010000
00001000
00010000
00011000
00000000
00000000
00001000
,
00010000
01000000
10000000
00010000
10010000
00000000
00000000
00000000
,
00000000
10000000
00100000
00010000
00011000
00000000
00000000
00000000
,
00000000
00000001
00000010
00001000
00011000
00000000
00000000
00000000
,
00000000
00010000
00001000
00000100
00000101
00000000
00000010
00000010
,
00001001
00000000
00011000
00000000
00010000
01000000
10000000
01000000
,
00010000
01000000
10000000
01000000
00010000
00001000
00010000
01000000
,
10000000
00100000
00010000
00001000
00000010
00000001
00000010
00001000
,
00000010
00000001
00000100
00001000
00022000
00000000
00000000
00000000
,
00033000
00000000
00010000
00001000
00010000
00000000
00001000
00000000
00000010
00000000
00000001
00000000
00000100
00000000
00000001
00000000
,
00000010
00000001
00000100
00001000
00010000
00100000
10000000
01000000
,
10000000
00100000
10000000
01000000
00010000
00001000
00000010
00000001
,
00000100
00001000
00010000
00100000
20100000
00000000
31000000
00100000
,
00010000
01000000
01002000
00000000
00013000
00000000
00001000
00000000
,
00000010
00000000
00000000
00000001
00000000
00000000
00000100
00000000
00000000
00001000
00000000
00010000
,
00000100
00000000
00001000
00100000
00000000
00000000
00011000
00000000
00000000
00010000
00000000
00000000
,
00100000
00000000
00000000
10000000
00000000
00000000
01000000
00000000
00000000
00010000
00000000
00001000
,
01000000
00000000
00010000
00000010
00000000
00000000
00011000
00000000
00000000
00001000
00100000
00001000
,
00010000
00000000
00010000
01000000
00000000
01000000
10000000
00000000
00000000
10000000
00100000
10000000
,
01000000
00000000
01000000
00010000
00000000
00010000
00001000
00000000
00000000
00010000
00000010
00010000
,
00001000
00000000
00001000
00000100
00000000
00000100
00000002
00000000
00000000
00000000
00000000
00000000
,
00002003
00000000
00000000
00000000
00000000
00000000
00000000
00000000
00000000
00003010
00000000
00000000
00000110
00000000
00000000
00000000
00000000
00000000
00000100
00000000
00000000
00000000
00000001
00000000
,
00000010
00000000
00000000
00001000
00000000
00000100
00000001
00000000
00000000
00000010
00000000
00001000
,
00010000
00000000
00011000
00000000
00001000
00010000
01000000
10000000
,
00100000
00000000
00000000
00010000
00001000
00010000
00000010
00000000
00000000
00010000
00001000
00010000
,
00100000
00000000
00000000
00000000
00000000
00000000
10000000
00000000
00000000
01000000
00000000
00000000
00010000
00000000
00001000
00000000
00010000
00000000
00001000
00000000
00010000
00000000
00001000
00000000
,
00000100
00000000
00000000
00000000
00000000
00000000
00000001
00000000
00000000
00000010
00000000
00000000
00001000
00000000
00010000
00000000
00001000
00000000
00010000
00000000
00001000
00000000
00010000
00000000
,
01000000
00000000
10000000
00100000
00010000
00011000
00000000
00000000
,
00000000
00000000
00000010
00001000
00011000
00000000
00000000
00000000
,
00000000
00000000
00010000
00001000
00010000
00000000
00100000
00000000
10000000
00000000
01000000
00000000
00010000
00000000
00001000
00000000
,
00010000
01000000
10000000
01000000
00010000
00001000
00100000
01000000
,
00010000
00001000
00000010
00000100
00020000
00000000
00031000
00000100
,
00000001
00000000
00000010
00001000
00021000
00000000
00000000
00000000
,
00000000
00031000
00011000
00000000
00000001
00000100
00001000
00010000
,
00001000
00000100
00000001
00000100
00001000
00010000
00000010
00000100
,
00001000
00010000
00100000
01000000
00002000
00000000
00013000
01000000
,
10000000
00000000
00100000
00010000
00022000
00000000
00000000
00000000
,
00000000
00000000
00000000
00033000
00000000
00000000
00011000
00000000
00001000
00100000
00000000
00100000
,
01000000
00000000
01000000
10000000
00000000
10000000
00100000
00000000
00100000
00010000
00000000
00010000
,
00001000
00000000
00000000
00001000
00010000
00001000
00000100
00000000
00000100
00000001
00000000
00000001
,
00000010
00000000
00000010
00000100
00000000
00000100
00010000
00000000
00010000
00001000
00000000
00001000
,
00100000
00000000
00000000
00100000
01000000
00100000
00010000
00000000
00010000
01000000
00000000
01000000
,
10000000
00000000
10000000
01000000
00000000
01000000
00100000
00000000
00100000
00010000
00000000
00010000
,
00001000
00000000
00000000
00000000
00001000
00000000
00000010
00000000
00001000
00000000
00000010
00000000
00000002
00000000
00000000
00000000
00000000
00000000
00000103
00000000
00000000
00001000
00000000
00000000
,
00011000
00000000
00010000
01000000
00010000
00001000
00000100
00001000
,
00010000
00100000
20000000
00000000
31000000
00010000
00001000
00100000
,
01000000
10000000
00100000
00010000
00001000
00100000
01000000
00010000
,
00002000
00000000
00003020
00000000
00000000
00000031
00000001
00000100
,
00001000
00010000
00000100
00000010
00000001
00001000
00000100
00000010
,
00001000
00010000
00100000
10000000
11000000
00000000
00110000
00010000
,
01000000
00001000
00010000
00100000
00001000
00000010
00010000
00001000
,
00000100
00000001
00000010
00000100
00001000
00000010
00010000
00001000
,
00100000
00000000
00010000
00000000
01000000
00000000
00001000
00000000
00011000
00000000
00000000
00010010
00000000
00000000
00101000
00000000
,
00011000
00010100
02002000
00000000
,
00000000
00000000
03003000
00000000
00011000
00000000
00010000
01000000
,
00010000
00001000
00000100
00001000
00010000
00100000
10000000
01000000
,
00010000
00100000
10000000
00000000
00100000
00010000
01000000
10000000
,
00100000
00010000
00001000
00000000
00000100
00000001
00000010
00001000
,
00000100
00000001
00000010
00000100
00001100
00000000
00010100
00000000
,
01001000
00000000
01010000
00000000
00010000
00100000
10000000
00010000
,
01000000
10000000
00100000
00010000
00001000
00000100
00000001
00000010
,
00001000
00000001
00000100
00001000
00000010
00010000
00100000
00001000
,
00000100
00010000
01000000
10000000
10010000
00000000
00011000
00001000
,
00000100
00000001
00000010
00000100
00000220
00000000
00000000
00000000
,
00000000
00000000
00000000
00000000
,
00000330
00000000
00000000
00000000
;

//---------------dance-single - ----------------
#NOTEDATA:;
#CHARTNAME:;
#STEPSTYPE:dance-single;
#DESCRIPTION:;
#CHARTSTYLE:;
#DIFFICULTY:Challenge;
#METER:16;
#RADARVALUES:0.663666,0.807876,0.818486,0.553236,0.549446,613.000000,505.000000,108.000000,73.000000,0.000000,0.000000,0.000000,0.000000,0.000000,0.663666,0.807876,0.818486,0.553236,0.549446,613.000000,505.000000,108.000000,73.000000,0.000000,0.000000,0.000000,0.000000,0.000000;
#CREDIT:MILEN;
#OFFSET:-0.056000;
#BPMS:0.000000=67.500000
,10.000000=135.000000
,54.000000=67.500000
,55.000000=135.000000
,101.000000=67.500000
,102.500000=135.000000
,143.500000=67.500000
,144.500000=135.000000
,158.500000=67.500000
,160.500000=135.000000
,191.500000=270.000000
,193.500000=135.000000
,263.500000=67.500000
;
#STOPS:128.000000=0.888889
,129.500000=0.888885
,209.500000=0.222221
,245.000000=0.222221
,245.500000=0.222221
,246.000000=0.222221
;
#DELAYS:;
#WARPS:;
#TIMESIGNATURES:0.000000=4=4
;
#TICKCOUNTS:0.000000=4
;
#COMBOS:0.000000=1
;
#SPEEDS:0.000000=1.000000=0.000000=0
;
#SCROLLS:0.000000=1.000000
;
#FAKES:;
#LABELS:0.000000=Song Start
;
#DISPLAYBPM:135.000000;
#NOTES:
// measure 0
0000
0000
0000
0000
,  // measure 1
0000
0000
0000
0000
,  // measure 2
0000
0000
2002
3003
,  // measure 3
0000
0000
1000
0010
0100
0000
0010
0000
2020
0000
0000
0000
3030
0000
0000
0000
,  // measure 4
0000
0000
0001
0100
0010
0000
0100
0000
0202
0000
0000
0000
0303
0000
0000
0000
,  // measure 5
0000
0001
0010
0100
2200
3300
0000
1000
,  // measure 6
1010
0110
0101
0110
2002
0000
3003
0000
,  // measure 7
0000
0000
0001
0010
0100
0000
0010
0000
0022
0000
0000
0000
0033
0000
0000
0000
,  // measure 8
0000
0010
0100
1000
2200
0000
3300
0000
,  // measure 9
0000
0000
1000
0010
0100
0000
0010
0000
0110
0000
0000
0000
0100
0000
0001
0000
,  // measure 10
0011
0000
1100
0000
1002
0103
2001
3010
,  // measure 11
1002
0013
2001
3100
1001
0101
0110
1010
,  // measure 12
0001
0100
0010
0000
1000
0010
0100
0000
0120
0000
1030
0000
0210
0000
1300
0000
,  // measure 13
0120
0000
0031
0000
0210
0000
0301
0000
2002
0000
0000
0000
3003
0000
1000
0001
,  // measure 14
0100
0000
0010
0000
0110
0000
0100
0002
0000
0000
0103
0000
0010
0000
0100
2000
,  // measure 15
0000
0000
3100
0000
0010
0000
0100
0002
0000
0000
0103
0000
0010
0000
0100
0000
,  // measure 16
0110
0000
0000
0000
1001
0000
0001
0200
0000
0000
0310
0000
0100
0000
1000
0200
,  // measure 17
0000
0000
0310
0000
1010
0000
0000
0000
0101
0000
0001
0010
0200
0000
1300
0100
,  // measure 18
0020
0000
0000
0030
0000
0000
0110
0000
0000
0000
0000
0000
1000
0000
0010
0000
0100
0000
0001
0000
0000
0000
0001
0000
,  // measure 19
0010
0000
0010
1000
0000
1000
0100
0010
0001
0101
0000
1000
,  // measure 20
1010
0000
0000
0110
0000
0000
0001
0010
0100
1000
0000
1000
,  // measure 21
0010
0000
0010
0001
0000
0001
0100
0010
1000
1100
0000
0001
,  // measure 22
0011
0000
0000
0000
0000
0000
1001
0000
0000
0000
0000
0000
1000
0010
1000
0000
0100
0000
0010
0000
0000
0000
0010
0000
,  // measure 23
0001
0000
0000
0000
0001
0000
1000
0000
0000
0000
0000
0000
0001
0010
0001
0000
0100
0000
0010
1000
0010
0000
0100
0000
,  // measure 24
0001
0000
0010
0000
0100
0000
1000
0000
0000
0000
0000
0000
0010
0100
0010
0000
1000
0000
0100
0010
0100
0000
0010
0000
,  // measure 25
0001
1000
0010
0000
0100
0000
0220
0000
0000
0000
0000
0000
0000
0000
0000
0330
0000
0000
1010
0000
0000
0101
0000
0000
,  // measure 26
0000
0000
0000
0001
0000
0010
0000
1000
0000
0010
0000
0000
0000
0000
0000
0001
0000
0100
0000
1000
0000
0100
0000
0000
,  // measure 27
0000
0000
0000
0001
0000
0010
0000
1000
0000
0010
0000
0000
0000
0000
0000
0022
0000
0000
0033
0000
0000
0001
0000
0000
,  // measure 28
0100
0000
0000
0010
0000
0000
1000
0000
0000
2200
0000
0000
3300
0000
0000
1000
0000
0010
0000
0001
0000
0010
0000
0000
,  // measure 29
0000
0000
0000
1000
0000
0100
0000
0001
0000
0100
0000
0000
0000
0000
0000
1100
0000
0000
0011
0000
0000
0001
0000
0100
,  // measure 30
0000
0010
0000
0001
0000
0010
0000
1000
0000
0100
0000
0000
0000
0000
0000
1000
0000
0010
0000
0100
0000
1000
0000
0100
,  // measure 31
0000
0000
0001
0000
0000
0000
0010
0000
0000
0000
0100
0000
0000
0000
1000
0000
0000
0000
1001
0000
0000
0000
0000
0000
0000
0000
0000
0000
0000
0000
0001
0000
0000
0010
0000
0000
0100
0000
0000
1000
0000
0000
0010
0000
0000
0000
0000
0000
,  // measure 32
0110
0000
0100
0001
0010
0000
0110
0000
0100
1000
0010
0000
0100
0000
0110
0000
,  // measure 33
1000
1100
0001
0011
1000
1001
0010
0100
,  // measure 34
0010
1000
0001
1000
0010
0100
0010
2000
,  // measure 35
0000
3001
0100
1010
0000
1000
0010
0202
,  // measure 36
0000
0303
0011
1100
0000
0010
0110
0001
,  // measure 37
0101
1000
1010
0001
1001
0010
0100
0010
,  // measure 38
1000
0001
1000
0010
0100
0020
0000
1030
,  // measure 39
0100
0011
0000
0001
0010
2200
0000
0000
,  // measure 40
3300
0000
0000
1001
0000
0000
0000
0000
0000
0001
0100
0001
0000
0010
0000
0100
0000
0000
0000
0100
0000
1000
0000
0000
,  // measure 41
0000
1000
0000
0010
0000
0000
0000
0010
0000
0001
0000
0000
0000
0001
0000
0100
0000
0000
0000
0000
0000
0100
1000
0100
,  // measure 42
0000
1000
0000
0010
0000
0000
0000
0010
0000
0100
0000
0000
0000
0100
0000
0001
0000
0000
0000
0001
0000
0010
0000
0000
,  // measure 43
0000
0010
0000
1000
0000
0000
0000
1000
0000
0100
0000
0000
0000
0100
0000
0001
0000
0000
0000
0000
0000
0001
1000
0001
,  // measure 44
0000
0100
0000
0010
0000
0000
0000
0010
0000
1000
0000
0000
0000
1000
0000
0100
0000
0000
0000
0100
0000
0001
0000
0000
,  // measure 45
0000
0001
0000
0010
0000
0000
0000
0010
0000
1000
0000
0000
0000
1000
0000
0001
0000
0000
0000
0000
0000
0100
0010
0100
,  // measure 46
0000
0010
0000
2000
0000
0000
0000
0000
0000
3010
0000
0000
0100
0000
0000
0002
0000
0000
0000
0000
0000
1003
0000
0000
,  // measure 47
0010
0001
1000
0100
0001
0010
0100
2002
,  // measure 48
0000
0000
3003
0000
0000
0000
0001
0100
0001
0100
0001
0010
0001
0010
0100
1000
,  // measure 49
0100
1000
0010
1000
0010
0100
0001
0010
0200
0000
1300
0010
0200
0000
0301
0010
,  // measure 50
0200
0000
1300
0010
0100
0000
0110
0000
0010
0000
1010
0000
1000
0000
1001
0000
,  // measure 51
0001
0000
0101
0000
0100
0000
0010
1000
0002
0000
0103
0001
2000
0000
3010
1000
,  // measure 52
0001
0100
0001
1000
0010
0000
0110
0000
1001
0000
1000
0000
0100
0000
0001
0000
,  // measure 53
0010
0000
1000
0000
0100
0010
0002
0000
0013
0100
2000
0000
3010
0100
0002
0000
,  // measure 54
0103
0010
2000
0000
3001
0000
0100
0000
1000
0000
0010
0000
0001
0000
0100
0000
,  // measure 55
0010
0000
0100
0000
0101
0000
0000
0011
0000
0000
1010
0000
1100
0000
0000
0000
,  // measure 56
0101
2002
0000
0000
,  // measure 57
3003
0000
0220
0330
1000
0010
0001
0100
,  // measure 58
1000
0001
2002
3003
1010
0011
1010
0011
,  // measure 59
0101
1100
2002
3003
1100
0101
1100
0101
,  // measure 60
0011
1010
2002
3003
0011
1010
1100
0101
,  // measure 61
1001
0110
1010
0101
0011
1100
2000
0002
,  // measure 62
3003
0000
0001
0100
0001
0100
0010
1000
0010
1000
0001
0100
0010
1000
0002
0000
,  // measure 63
0003
0000
1000
0100
1000
0100
0010
0001
0010
0001
1000
0100
0010
0001
2000
0000
,  // measure 64
3000
0000
0001
0100
0001
0100
1000
0100
1000
0100
0001
0010
0100
1000
0020
0000
,  // measure 65
0030
0000
0110
0000
0100
0001
1000
0000
1010
0000
0101
0000
0011
0000
2200
0000
,  // measure 66
0000
0000
0000
0000
0000
3300
0000
0000
;

//---------------dance-double - ----------------
#NOTEDATA:;
#CHARTNAME:;
#STEPSTYPE:dance-double;
#DESCRIPTION:;
#CHARTSTYLE:;
#DIFFICULTY:Challenge;
#METER:16;
#RADARVALUES:0.632269,0.706891,0.583550,0.666914,0.538078,584.000000,507.000000,77.000000,88.000000,0.000000,0.000000,0.000000,0.000000,0.000000,0.632269,0.706891,0.583550,0.666914,0.538078,584.000000,507.000000,77.000000,88.000000,0.000000,0.000000,0.000000,0.000000,0.000000;
#CREDIT:MILEN;
#OFFSET:-0.056000;
#BPMS:0.000000=67.500000
,10.000000=135.000000
,54.000000=67.500000
,55.000000=135.000000
,101.000000=67.500000
,102.500000=135.000000
,143.500000=67.500000
,144.500000=135.000000
,158.500000=67.500000
,160.500000=135.000000
,191.500000=270.000000
,193.500000=135.000000
,263.500000=67.500000
;
#STOPS:128.000000=0.888889
,129.500000=0.888885
,209.500000=0.222221
,245.000000=0.222221
,245.500000=0.222221
,246.000000=0.222221
;
#DELAYS:;
#WARPS:;
#TIMESIGNATURES:0.000000=4=4
;
#TICKCOUNTS:0.000000=4
;
#COMBOS:0.000000=1
;
#SPEEDS:0.000000=1.000000=0.000000=0
;
#SCROLLS:0.000000=1.000000
;
#FAKES:;
#LABELS:0.000000=Song Start
;
#DISPLAYBPM:135.000000;
#NOTES:
00000000
00000000
00000000
00000000
,
00000000
00000000
00000000
00000000
,
00000000
00000000
00022000
00033000
,
00000000
00000000
00001000
00010000
00001000
00000000
00010000
00000000
00020020
00000000
00000000
00000000
00030030
00000000
00000000
00000000
,
00000000
00000000
00010000
00001000
00010000
00000000
00001000
00000000
02002000
00000000
00000000
00000000
03003000
00000000
00000000
00000000
,
00000000
00001000
00010000
00001000
00022000
00033000
00000000
00010000
,
00010010
00001000
01001000
00010000
00022000
00000000
00033000
00000000
,
00000000
00000000
00010000
00001000
00010000
00000000
00001000
00000000
00202000
00000000
00000000
00000000
00303000
00000000
00000000
00000000
,
00000000
00100000
00001000
00010000
00020200
00000000
00030300
00000000
,
00000000
00000000
00010000
00001000
00010000
00000000
00001000
00000000
01001000
00000000
00000000
00000000
00001000
00000000
00010000
00000000
,
00010010
00000000
00011000
00000000
00012000
01003000
00021000
00030100
,
00012000
01003000
00021000
00030100
00011000
00100000
01100000
01000000
,
00010000
00001000
00010000
00000000
00001000
00010000
00001000
00000000
00021000
00000000
00030010
00000000
00012000
00000000
00103000
00000000
,
00021000
00000000
00030010
00000000
00012000
00000000
00103000
00000000
00022000
00000000
00000000
00000000
00033000
00000000
00010000
00001000
,
00010000
00000000
00000100
00000000
00000110
00000000
00000010
00000001
00000010
00000000
00000100
00000000
00001000
00000000
00000100
00010000
,
00000100
00000000
00001000
00000000
00000100
00000000
00000010
00000001
00000010
00000000
00000100
00000000
00001000
00000000
00000100
00000000
,
00010100
00000000
00000000
00000000
01001000
00000000
00001000
00010000
00001000
00000000
00100000
00000000
00010000
00000000
10000000
00100000
,
10000000
00000000
00010000
00000000
00200000
00000000
00000000
00000000
00301000
00000000
00001000
00010000
00000020
00000000
00010030
00001000
,
00000020
00000000
00000000
00000030
00000000
00000000
00000011
00000000
00000000
00000000
00000000
00000000
00000001
00000000
00000100
00000000
00001000
00000000
00010000
00000000
00001000
00000000
00010000
00000000
,
00100000
10000000
01000000
00100000
00000000
00000000
01000000
00010000
00001000
00000020
00000000
00001030
,
00020000
00000000
00000000
00130000
00000000
00000000
10000000
01000000
00010000
00001000
00010000
00001000
,
00000010
00000001
00000100
00000010
00000000
00000000
00000100
00001000
00010000
00200000
00000000
00310000
,
00002000
00000000
00000000
00003010
00000000
00000000
00000010
00000001
00000100
00001000
00010000
00001000
,
00000100
00001000
00010000
00100000
00000000
00000000
00100000
10000000
01000000
00010000
00001000
00010000
,
01000000
00010000
00001000
00000010
00000000
00000000
00000010
00000001
00000100
00001000
00010000
00100000
,
10000000
00000000
01000000
00000000
00010000
00000000
00022000
00000000
00000000
00000000
00000000
00000000
00000000
00000000
00000000
00033000
00000000
00000000
00101000
00000000
00000000
00010100
00000000
00000000
,
00000000
00000000
00000000
00000100
00000000
00001000
00000000
00000100
00000000
00010000
00000000
00000000
00000000
00000000
00000000
00000100
00000000
00001000
00000000
00000100
00000000
00000010
00000000
00000000
,
00000000
00000000
00000000
00000100
00000000
00001000
00000000
00000100
00000000
00010000
00000000
00000000
00000000
00000000
00000000
00022000
00000000
00000000
00033000
00000000
00000000
00001000
00000000
00000000
,
00010000
00000000
00000000
01000000
00000000
00000000
10000000
00000000
00000000
20020000
00000000
00000000
30030000
00000000
00000000
10000000
00000000
01000000
00000000
00100000
00000000
00010000
00000000
00000000
,
00000000
00000000
00000000
00001000
00000000
00000010
00000000
00000100
00000000
00000001
00000000
00000000
00000000
00000000
00000000
00000011
00000000
00000000
00001100
00000000
00000000
00001000
00000000
00000001
,
00000000
00000100
00000000
00001000
00000000
00010000
00000000
00100000
00000000
10000000
00000000
00000000
00000000
00000000
00000000
00010000
00000000
10000000
00000000
00100000
00000000
00010000
00000000
00001000
,
00000000
00000100
00000000
00000001
00000000
00001000
00000000
00000020
00000000
00000130
00000000
00000000
00000000
00000000
00000000
00000100
00000000
00000000
00000001
00000000
00000000
00001000
00000000
00000000
,
00001010
00000000
10000000
00000000
00010000
00000000
01010000
00000000
00000001
00000100
00001000
00000000
00010000
00000000
00002000
00000000
,
01003000
00020000
00030010
00002000
00103000
00020000
00030100
00001000
,
00010000
01000000
10000000
00100000
00010000
00001000
00010000
02000000
,
00000000
13000000
00100000
00110000
00000000
00010000
00001000
00022000
,
00000000
00033000
00010010
01001000
00000000
00020000
00030100
00002000
,
00103000
00020000
00030010
00002000
01003000
00010000
00001000
00000010
,
00000001
00000100
00001000
00010000
00001000
00000200
00000000
00000301
,
00000010
00001010
00000000
00001000
00010000
00022000
00000000
00000000
,
00033000
00000000
00000000
00011000
00000000
00000000
00000000
00000000
00000000
00001000
00000000
00010000
00000000
01000000
00000000
10000000
00000000
00100000
00000000
10000000
00000000
01000000
00000000
10000000
,
00000000
00100000
00000000
00020000
00000000
00000000
00000000
00130000
00000000
02000000
00000000
00000000
00000000
03100000
00000000
00020000
00000000
00000000
00000000
00000000
00000000
00031000
00000000
00010000
,
00000000
00001000
00000000
00000100
00000000
00000001
00000000
00000010
00000000
00000100
00000000
00001000
00000000
00000100
00000000
00010000
00000000
00001000
00000000
00100000
00000000
01000000
00000000
10000000
,
00000000
00100000
00000000
00020000
00000000
00000000
00000000
00130000
00000000
20000000
00000000
00000000
00000000
30100000
00000000
02000000
00000000
00000000
00000000
00000000
00000000
03010000
00000000
00100000
,
00000000
01000000
00000000
00010000
00000000
00001000
00000000
00000010
00000000
00000001
00000000
00001000
00000000
00000100
00000000
00000010
00000000
00000001
00000000
00000100
00000000
00002000
00000000
00000000
,
00000000
00003100
00000000
00000002
00000000
00000000
00000000
00000103
00000000
00000020
00000000
00000000
00000000
00001030
00000000
00020000
00000000
00000000
00000000
00000000
00000000
01030000
00000000
00100000
,
00000000
10000000
00000000
20020000
00000000
00000000
30030000
00000000
00000000
00010000
00000000
00000000
01000000
00000000
00000000
00002000
00000000
00000000
00000000
00000000
00000000
00013000
00000000
00000000
,
00000010
00001000
00000100
00000010
00000001
00000100
00001000
00022000
,
00000000
00000000
00033000
00000000
00000000
00000000
00010000
00001000
00010000
00001000
00100000
00010000
00100000
00010000
10000000
01000000
,
10000000
01000000
00100000
00010000
00100000
00001000
00020000
00000000
00030010
00000000
00002000
00000000
00103000
00000000
00020000
00000000
,
00030100
00002000
01003000
01100000
00100000
00110000
00010000
00011000
,
00001000
00000000
00001100
00000000
00000100
00000000
00000010
00000100
00000002
00000000
00000103
00000010
00002000
00000000
00003100
00000010
,
00000001
00001000
00000100
00010000
00001000
00000000
00011000
00000000
00010000
00000000
01000000
00000000
00010000
00000000
00001000
00000000
,
00000100
00000000
00001000
00000000
00010000
00001000
00000010
00000000
00001000
00010000
00100000
00000000
00010000
00001000
00000100
00000000
,
00001000
00010000
01000000
00000000
11000000
00000000
10000000
00000000
10100000
00000000
00100000
00000000
00110000
00000000
00010000
00000000
,
00011000
00000000
00001000
00000000
00001100
00000000
00000000
00000101
00000000
00000000
00000011
00000000
00001010
00000000
00000000
00000000
,
00011000
00200000
00000000
00000000
,
00000000
00000000
00300020
00000000
00010030
00001000
00000100
00000001
,
00000010
00001000
00022000
00033000
00011000
00000100
00011000
01000000
,
00011000
00000100
00022000
00033000
00011000
00000010
00011000
00100000
,
00011000
00000010
00022000
00033000
00011000
10000000
00011000
00000001
,
00011000
10000000
10010000
00011000
00001001
00000100
00000020
00000200
,
00000330
00000000
00000010
00001000
00000100
00010000
00001000
00010000
00000100
00001000
00000010
00000100
00000010
00001000
00000200
00000000
,
00000300
00000000
00010000
00001000
00100000
01000000
00100000
00001000
00010000
00001000
00100000
01000000
00100000
00010000
02000000
00000000
,
03000000
00000000
00100000
10000000
01000000
00100000
00010000
01000000
00100000
00010000
00001000
00000100
00000010
00001000
00000200
00000000
,
00000300
00000000
00000011
00000000
00000001
00000100
00001000
00000000
00011000
00000000
00011000
00000000
00010000
02000000
20000000
00000000
,
00000000
00000000
00000000
00000000
00000000
33000000
00000000
00000000
;
