#VERSION:0.83;
#TITLE:Amor Fati;
#SUBTITLE:;
#ARTIST:Yeon Ja Kim;
#TITLETRANSLIT:;
#SUBTITLETRANSLIT:;
#ARTISTTRANSLIT:;
#GENRE:K-POP;
#ORIGIN:;
#CREDIT:MUINELIM;
#BANNER:Amor Fati.png;
#BACKGROUND:Amor Fati-bg.png;
#PREVIEWVID:;
#JACKET:Amor Fati-jacket.png;
#CDIMAGE:;
#DISCIMAGE:;
#LYRICSPATH:;
#CDTITLE:;
#MUSIC:Amor Fati.mp3;
#OFFSET:0.056000;
#SAMPLESTART:40.018627;
#SAMPLELENGTH:14.328358;
#SELECTABLE:YES;
#BPMS:0.000=134.000;
#STOPS:;
#DELAYS:;
#WARPS:;
#TIMESIGNATURES:0.000=4=4;
#TICKCOUNTS:0.000=4;
#COMBOS:0.000=1;
#SPEEDS:0.000=1.000=0.000=0;
#SCROLLS:0.000=1.000;
#FAKES:;
#LABELS:0.000=Song Start;
#BGCHANGES:;
#KEYSOUNDS:;
#ATTACKS:
;

//---------------dance-single - ----------------
#NOTEDATA:;
#CHARTNAME:;
#STEPSTYPE:dance-single;
#DESCRIPTION:;
#CHARTSTYLE:;
#DIFFICULTY:Beginner;
#METER:3;
#RADARVALUES:0.113041,0.162422,0.016659,0.016659,0.000000,95.000000,93.000000,2.000000,2.000000,0.000000,0.000000,0.000000,0.000000,0.000000,0.113041,0.162422,0.016659,0.016659,0.000000,95.000000,93.000000,2.000000,2.000000,0.000000,0.000000,0.000000,0.000000,0.000000;
#CREDIT:MILEN;
#NOTES:
0000
0000
0000
0000
,
0000
0000
0000
0000
,
0000
0000
0000
0000
,
0000
0000
0000
0000
,
1000
0000
0000
0000
,
0001
0000
0000
0000
,
0100
0000
0000
0000
,
0010
0000
0000
0000
,
1000
0000
0000
0000
,
0001
0000
0000
0000
,
0100
0000
0000
0000
,
0010
0000
0000
0000
,
1000
0000
1000
0000
,
1000
0000
0000
0000
,
0001
0000
0001
0000
,
0001
0000
0000
0000
,
0100
0000
0100
0000
,
0100
0000
0000
0000
,
0010
0000
0010
0000
,
0020
0000
0000
0000
,
0000
0000
0000
0000
,
0000
0000
0000
0000
,
0030
0000
0000
0000
,
1000
0000
0001
0000
,
1000
0000
0001
0000
,
0100
0000
0010
0000
,
0100
0000
0010
0000
,
1000
0000
0001
0000
,
0100
0000
0010
0000
,
1000
0000
0001
0000
,
0100
0000
0010
0000
,
1000
0000
0000
0000
,
0100
0000
0000
0000
,
0010
0000
0000
0000
,
0001
0000
0000
0000
,
1000
0000
1000
0000
,
0100
0000
0100
0000
,
0010
0000
0010
0000
,
0002
0000
0000
0000
,
0003
0000
0000
0000
,
1000
1000
0000
0000
,
0001
0001
0000
0000
,
0100
0000
0010
0000
,
0100
0000
0000
0000
,
0001
0000
1000
0000
,
0001
0000
0000
0000
,
0100
0000
0010
0000
,
1000
0000
0001
0000
,
0100
0100
0000
0000
,
0010
0010
0000
0000
,
1000
0000
0001
0000
,
1000
0000
0000
0000
,
0010
0000
0100
0000
,
0010
0000
0000
0000
,
1000
0000
0001
0000
,
0100
0000
0010
0000
,
0110
0000
0000
0000
,
1000
0000
1000
0000
,
1000
0000
1000
0000
,
0010
0000
0010
0000
,
0010
0000
0010
0000
,
0001
0000
0001
0000
,
0001
0000
0001
0000
,
0100
0000
0100
0000
,
0100
0000
0100
0000
,
1001
0000
0000
0000
;

//---------------dance-single - ----------------
#NOTEDATA:;
#CHARTNAME:;
#STEPSTYPE:dance-single;
#DESCRIPTION:;
#CHARTSTYLE:;
#DIFFICULTY:Easy;
#METER:6;
#RADARVALUES:0.287956,0.351913,0.174915,0.024988,0.000000,242.000000,221.000000,21.000000,3.000000,0.000000,0.000000,0.000000,0.000000,0.000000,0.287956,0.351913,0.174915,0.024988,0.000000,242.000000,221.000000,21.000000,3.000000,0.000000,0.000000,0.000000,0.000000,0.000000;
#CREDIT:MILEN;
#NOTES:
0000
0000
0000
0000
,
0000
0000
0000
0000
,
0000
0000
0000
0000
,
0000
0000
0000
0000
,
1000
0000
0001
0000
,
0100
0000
0010
0000
,
1000
0000
0001
0000
,
0100
0000
0010
0000
,
1000
0000
0001
0000
,
0100
0000
0010
0000
,
1000
0000
0001
0000
,
0100
0000
0010
0000
,
1000
1000
0001
0001
,
0100
0100
0010
0010
,
1000
0001
0100
0010
,
1000
0001
0100
0010
,
1000
1000
0001
0001
,
0100
0100
0010
0010
,
1000
0001
0100
0010
,
2000
3000
0002
0003
,
1000
0001
1000
0001
,
1000
0001
1000
0000
0001
1000
0001
0000
,
1001
0000
0000
0000
,
1000
0100
0010
0001
,
1000
0100
0010
1001
,
0001
0010
0100
1000
,
0001
0010
0100
1001
,
1000
0010
0100
0001
,
1000
0010
0100
1001
,
0001
0100
0010
1000
,
0001
0100
0010
1001
,
1000
1000
0100
0100
,
0010
0010
0001
0001
,
1000
0100
0010
0001
,
1000
0100
0010
0001
,
1000
1000
0100
0100
,
0001
0001
0010
0010
,
1000
0100
0001
0010
,
1000
1000
0001
0001
,
1001
0000
0000
0000
,
1000
1000
0000
0000
0100
0000
1000
0000
,
0001
0001
0000
0000
0010
0000
0001
0000
,
1000
1010
0001
0011
,
1000
1100
0001
0101
,
1000
0100
0010
0001
,
0100
0010
0100
0000
0001
0000
0010
0000
,
0100
1000
0010
0100
,
0110
0010
1000
0001
,
0100
0100
0000
0000
0001
0000
1000
0000
,
0010
0010
0000
0000
1000
0000
0001
0000
,
0100
0101
0010
1010
,
0100
1100
0010
0011
,
0100
0001
1000
0010
,
1000
0001
1000
0000
0010
0000
1000
0000
,
0001
0100
0010
1000
,
0100
0010
0110
1001
,
0110
0000
0000
0000
,
0001
0100
1000
0100
,
0001
0100
0010
0110
,
1000
0010
0001
0010
,
1000
0010
0200
0300
,
0110
1000
0100
0010
,
0001
0100
1000
0100
,
0001
0010
0100
1000
,
0010
0001
0010
1000
,
1001
0000
0000
0000
;

//---------------dance-double - ----------------
#NOTEDATA:;
#CHARTNAME:;
#STEPSTYPE:dance-double;
#DESCRIPTION:;
#CHARTSTYLE:;
#DIFFICULTY:Easy;
#METER:6;
#RADARVALUES:0.276057,0.324843,0.108281,0.024988,0.000000,232.000000,219.000000,13.000000,3.000000,0.000000,0.000000,0.000000,0.000000,0.000000,0.276057,0.324843,0.108281,0.024988,0.000000,232.000000,219.000000,13.000000,3.000000,0.000000,0.000000,0.000000,0.000000,0.000000;
#CREDIT:MILEN;
#NOTES:
00000000
00000000
00000000
00000000
,
00000000
00000000
00000000
00000000
,
00000000
00000000
00000000
00000000
,
00000000
00000000
00000000
00000000
,
00001000
00000000
00010000
00000000
,
00000100
00000000
00001000
00000000
,
00000010
00000000
00010000
00000000
,
00001000
00000000
00100000
00000000
,
00010000
00000000
01000000
00000000
,
00001000
00000000
00010000
00000000
,
00000100
00000000
00001000
00000000
,
00000010
00000000
00010000
00000000
,
00001000
00001000
00100000
00100000
,
00010000
00010000
01000000
01000000
,
00001000
00100000
00010000
01000000
,
00001000
00100000
00010000
01000000
,
00001000
00001000
00010000
00010000
,
00000100
00000100
00001000
00001000
,
00000010
00010000
00000100
00001000
,
00000020
00000030
00020000
00030000
,
00001000
00100000
00010000
01000000
,
00001000
00010000
00001000
00000000
00010000
00001000
00010000
00000000
,
00011000
00000000
00000000
00000000
,
00001000
00010000
00100000
10000000
,
00100000
00010000
00001000
00011000
,
00010000
00001000
00000100
00000001
,
00000100
00001000
00010000
00011000
,
00001000
00010000
01000000
10000000
,
01000000
00010000
00001000
00011000
,
00010000
00001000
00000010
00000001
,
00000010
00001000
00010000
00011000
,
00001000
00001000
00010000
00010000
,
01000000
01000000
10000000
10000000
,
00100000
00010000
00001000
00010000
,
00100000
00010000
00001000
00011000
,
00010000
00010000
00001000
00001000
,
00000010
00000010
00000001
00000001
,
00000010
00001000
00010000
00001000
,
00000010
00001000
00010000
00001000
,
00011000
00000000
00000000
00000000
,
01000000
01000000
00000000
00000000
00001000
00000000
00010000
00000000
,
00000010
00000010
00000000
00000000
00010000
00000000
00001000
00000000
,
00100000
01000000
00010000
00001000
,
00000010
00000100
00010000
00011000
,
00001000
00000100
00000001
00000010
,
00001000
00010000
01000000
10000000
,
00100000
00010000
00001000
00010000
,
00011000
00001000
00010000
00000100
,
00000010
00000010
00000000
00000000
00001000
00000000
00010000
00000000
,
01000000
01000000
00000000
00000000
00010000
00000000
00001000
00000000
,
00000100
00000001
00000010
00001000
,
00010000
01000000
10000000
00100000
,
00010000
00001000
00100000
01000000
,
00010000
00001000
00000010
00000100
,
00010000
00001000
00100000
01000000
,
10000000
00100000
00010000
00001000
,
00011000
00000000
00000000
00000000
,
00010000
01000000
10000000
00100000
,
00010000
00001000
00010000
00011000
,
00001000
00000100
00000001
00000010
,
00001000
00010000
00002000
00003000
,
00011000
00010000
00100000
10000000
,
00100000
00001000
00010000
00000100
,
00000001
00000100
00001000
00010000
,
00100000
10000000
01000000
00010000
,
00011000
00000000
00000000
00000000
;

//---------------dance-single - ----------------
#NOTEDATA:;
#CHARTNAME:;
#STEPSTYPE:dance-single;
#DESCRIPTION:;
#CHARTSTYLE:;
#DIFFICULTY:Medium;
#METER:10;
#RADARVALUES:0.405756,0.487265,0.241550,0.208233,0.104116,341.000000,312.000000,29.000000,25.000000,0.000000,0.000000,0.000000,0.000000,0.000000,0.405756,0.487265,0.241550,0.208233,0.104116,341.000000,312.000000,29.000000,25.000000,0.000000,0.000000,0.000000,0.000000,0.000000;
#CREDIT:MILEN;
#NOTES:
0000
0000
0000
0000
,
0000
0000
0000
0000
,
0000
0000
0000
0000
,
0000
0000
0000
0000
,
1000
0001
1000
0001
,
0100
0010
0100
0010
,
1000
0001
0100
0010
,
1000
0001
0100
0010
,
1000
0001
1000
0001
,
0010
0100
0010
0100
,
1000
0001
0010
0100
,
1000
0001
2002
3003
,
1000
1100
0001
0101
,
1000
1010
0001
0011
,
2000
3200
0320
0032
,
2003
0000
3010
0100
0010
0000
1000
0001
,
1000
1010
0001
0011
,
1000
1100
0001
0101
,
2000
3020
0230
0302
,
1003
1000
0001
0001
,
0101
1010
1100
0011
,
0001
0100
0010
1000
0001
0100
0010
1000
,
2002
3000
0000
1000
1003
0000
0010
0100
,
0010
0000
0000
0010
0000
0000
0010
0000
1000
0000
0000
1000
0000
0000
1000
0000
,
0001
0000
0000
0001
0000
0000
0001
0000
0100
0000
0010
0000
0100
0000
0000
0000
,
0100
0000
0000
0100
0000
0000
0100
0000
0001
0000
0000
0001
0000
0000
0001
0000
,
1000
0000
0000
1000
0000
0000
1000
0000
0010
0000
0100
0000
0010
0000
0000
0000
,
1000
0000
0000
1000
0000
0000
1000
0000
0100
0000
0000
0100
0000
0000
0100
0000
,
0010
0000
0000
0010
0000
0000
0010
0000
0001
0000
1000
0000
0001
0000
0000
0000
,
0001
0000
0000
0001
0000
0000
0001
0000
0010
0000
0000
0010
0000
0000
0010
0000
,
0100
0000
0000
0100
0000
0000
0100
0000
1000
0000
0001
0000
1000
0000
0001
0000
,
0100
0100
1000
1000
,
0010
0010
0001
0001
,
0100
1000
0010
0001
,
1000
0100
0001
0010
,
2000
3100
0002
0103
,
2000
3010
0002
0013
,
2000
3001
0020
0130
,
1100
0011
1010
0101
,
2002
0000
0000
3003
,
1000
0001
1000
0100
0010
0000
0010
0000
,
0001
1000
0001
0010
0100
0000
0100
0000
,
1000
0010
0100
0000
0001
0010
0100
0000
,
1000
0010
0100
0000
0010
0000
0110
0000
,
1000
0001
0010
0000
0001
1000
0100
0000
,
1000
0001
0010
0000
0001
0000
1001
0000
,
1000
0100
0001
0000
0100
1000
0001
0000
,
1000
0100
0110
0000
0011
0000
1100
0000
,
0001
0100
0010
1000
0001
0000
0001
0000
,
1000
0010
0100
0001
1000
0000
1000
0000
,
0001
0010
0100
0000
1000
0010
0100
0000
,
0001
0010
0100
0000
0010
0000
0110
0000
,
0001
1000
0010
0000
1000
0001
0100
0000
,
0001
1000
0010
0000
0100
0000
0110
0000
,
0001
0100
1000
0000
0100
0001
1000
0000
,
0001
0000
0100
0000
1000
0000
0100
0000
0001
0000
0000
1000
0000
0000
0001
0000
,
2002
0003
0000
0001
3001
0000
0010
0100
,
0010
0000
0000
1000
0000
0000
0010
0000
0100
0000
0000
0001
0000
0000
0100
0000
,
0010
0000
0000
1000
0000
0000
0010
0000
0100
0000
0001
0000
1000
0000
0100
0000
,
0010
0000
0000
0001
0000
0000
0010
0000
0100
0000
0000
1000
0000
0000
0100
0000
,
0010
0000
0000
0001
0000
0000
0010
0000
0200
0000
0000
0000
0310
0000
0100
0000
,
0110
0000
0000
0010
0000
0000
0001
0000
0100
0000
0000
0010
0000
0000
1000
0000
,
0100
0000
0000
0010
0000
0000
0001
0000
1000
0000
0010
0000
0100
0000
0001
0000
,
0010
0000
0000
0100
0000
0000
1000
0000
0001
0000
0000
0100
0000
0000
0010
0000
,
1000
0000
0000
0100
0000
0000
0010
0000
0002
0000
0000
0000
1003
0000
0001
0000
,
1001
0000
0000
0000
;

//---------------dance-double - ----------------
#NOTEDATA:;
#CHARTNAME:;
#STEPSTYPE:dance-double;
#DESCRIPTION:;
#CHARTSTYLE:;
#DIFFICULTY:Medium;
#METER:10;
#RADARVALUES:0.392667,0.406054,0.191574,0.208233,0.104116,330.000000,307.000000,23.000000,25.000000,0.000000,0.000000,0.000000,0.000000,0.000000,0.392667,0.406054,0.191574,0.208233,0.104116,330.000000,307.000000,23.000000,25.000000,0.000000,0.000000,0.000000,0.000000,0.000000;
#CREDIT:MILEN;
#NOTES:
00000000
00000000
00000000
00000000
,
00000000
00000000
00000000
00000000
,
00000000
00000000
00000000
00000000
,
00000000
00000000
00000000
00000000
,
00001000
00010000
00001000
00010000
,
01000000
00100000
01000000
00100000
,
00001000
00010000
01000000
00100000
,
00001000
00010000
01000000
00100000
,
00001000
00010000
00001000
00010000
,
00000100
00000010
00000100
00000010
,
00001000
00010000
00000100
00000010
,
00001000
00010000
00022000
00033000
,
00001000
01001000
00010000
00010100
,
00001000
00101000
00010000
00010010
,
00000020
00002030
00003200
00000320
,
00000032
00000103
00001000
00010000
,
00001000
00101000
00010000
00010010
,
00001000
01001000
00010000
00010100
,
00000200
00002300
00003020
00000230
,
00000301
00000001
00000010
00000010
,
00001000
00010000
01000000
10000000
,
00100000
00010000
00001000
00010000
00100000
00010000
00001000
00010000
,
00022000
00003000
00000000
00001000
00031000
00000000
00001000
00010000
,
00000100
00000000
00000000
00000100
00000000
00000000
00000100
00000000
00001000
00000000
00000000
00001000
00000000
00000000
00001000
00000000
,
00000001
00000000
00000000
00000001
00000000
00000000
00000001
00000000
00000100
00000000
00001000
00000000
00010000
00000000
00000000
00000000
,
00100000
00000000
00000000
00100000
00000000
00000000
00100000
00000000
10000000
00000000
00000000
10000000
00000000
00000000
10000000
00000000
,
00010000
00000000
00000000
00010000
00000000
00000000
00010000
00000000
01000000
00000000
00100000
00000000
00010000
00000000
00000000
00000000
,
00001000
00000000
00000000
00001000
00000000
00000000
00001000
00000000
00100000
00000000
00000000
00100000
00000000
00000000
00100000
00000000
,
01000000
00000000
00000000
01000000
00000000
00000000
01000000
00000000
00010000
00000000
00001000
00000000
00000100
00000000
00000000
00000000
,
00000001
00000000
00000000
00000001
00000000
00000000
00000001
00000000
00001000
00000000
00000000
00001000
00000000
00000000
00001000
00000000
,
00000010
00000000
00000000
00000010
00000000
00000000
00000010
00000000
00010000
00000000
00001000
00000000
00010000
00000000
00001000
00000000
,
01000000
01000000
00100000
00100000
,
10000000
10000000
01000000
01000000
,
00010000
00001000
00000010
00000001
,
00000100
00000010
00010000
00001000
,
00200000
01300000
00020000
00031000
,
00000020
00000130
00020000
00031000
,
02000000
03100000
00020000
00031000
,
01001000
00010100
00101000
00010010
,
00022000
00000000
00000000
00033000
,
00001000
00010000
01000000
00000000
10000000
00000000
00100000
00000000
,
00010000
00001000
00000010
00000000
00000001
00000000
00000100
00000000
,
00001000
00010000
00000100
00000000
00010000
00001000
00100000
00000000
,
00001000
00010000
00000100
00000000
00010000
00000000
00011000
00000000
,
00001000
00010000
00100000
00000000
00010000
00001000
00000100
00000000
,
00001000
00010000
00100000
00000000
00010000
00000000
00011000
00000000
,
00001000
00000010
00000001
00000000
00000100
00001000
00010000
00000000
,
00100000
10000000
01000000
00010000
00001000
00000000
00011000
00000000
,
00010000
00001000
00000100
00000000
00000001
00000000
00000010
00000000
,
00001000
00010000
00100000
00000000
10000000
00000000
01000000
00000000
,
00010000
00001000
01000000
00000000
00001000
00010000
00000010
00000000
,
00010000
00001000
01000000
00000000
00001000
00000000
00011000
00000000
,
00010000
00001000
00000010
00000000
00001000
00010000
01000000
00000000
,
00010000
00001000
00000010
00000000
00001000
00000000
00011000
00000000
,
00010000
00100000
10000000
00000000
01000000
00010000
00001000
00000000
,
00000010
00000000
00000001
00000000
00000100
00000000
00001000
00000000
00010000
00000000
00000000
00001000
00000000
00000000
00010000
00000000
,
00022000
00030000
00000000
00010000
00013000
00000000
00010000
00001000
,
00100000
00000000
00000000
00010000
00000000
00000000
00100000
00000000
01000000
00000000
00000000
10000000
00000000
00000000
01000000
00000000
,
00100000
00000000
00000000
00010000
00000000
00000000
00100000
00000000
00001000
00000000
00010000
00000000
00001000
00000000
00010000
00000000
,
00000010
00000000
00000000
00001000
00000000
00000000
00000010
00000000
00000100
00000000
00000000
00000001
00000000
00000000
00000100
00000000
,
00000010
00000000
00000000
00001000
00000000
00000000
00000010
00000000
00020000
00000000
00000000
00000000
00031000
00000000
00010000
00000000
,
00011000
00000000
00000000
00001000
00000000
00000000
00000100
00000000
00000001
00000000
00000000
00000010
00000000
00000000
00001000
00000000
,
00010000
00000000
00000000
01000000
00000000
00000000
10000000
00000000
00100000
00000000
10000000
00000000
00100000
00000000
01000000
00000000
,
00010000
00000000
00000000
00100000
00000000
00000000
01000000
00000000
00010000
00000000
00000000
00001000
00000000
00000000
00000010
00000000
,
00000100
00000000
00000000
00001000
00000000
00000000
00000010
00000000
00020000
00000000
00000000
00000000
00031000
00000000
00010000
00000000
,
00011000
00000000
00000000
00000000
;

//---------------dance-single - ----------------
#NOTEDATA:;
#CHARTNAME:;
#STEPSTYPE:dance-single;
#DESCRIPTION:;
#CHARTSTYLE:;
#DIFFICULTY:Hard;
#METER:15;
#RADARVALUES:0.744878,0.839178,0.558064,0.358160,0.549734,626.000000,559.000000,67.000000,43.000000,0.000000,0.000000,0.000000,0.000000,0.000000,0.744878,0.839178,0.558064,0.358160,0.549734,626.000000,559.000000,67.000000,43.000000,0.000000,0.000000,0.000000,0.000000,0.000000;
#CREDIT:MILEN;
#NOTES:
0000
0000
0000
0000
,
0000
0000
0000
0000
,
0000
0000
0000
0000
,
0000
0000
0000
0000
,
1000
0100
0010
0002
0000
1003
0010
0100
,
0001
0010
0100
2000
3002
0103
0010
1000
,
1100
0101
0011
1010
,
1001
0000
2002
0000
3003
0000
0010
0100
0010
0000
1000
0000
0100
0000
0010
0000
,
0001
0000
0100
0010
0100
0000
0020
0000
0000
0000
1030
0000
0100
0000
0010
0000
,
0011
0000
0101
0000
1100
0000
1010
0010
,
0100
0002
0000
0013
0100
1000
0001
0100
,
0010
2000
3200
0320
0032
0000
1003
0000
,
1000
0010
0110
0100
0001
0010
0011
0001
,
0010
0100
1100
1000
0010
0100
0101
0001
,
2000
3010
0002
0013
2000
3100
0002
0103
,
1000
0000
0010
0000
0100
0001
0100
0001
0100
0000
0010
0000
1010
0000
1000
0000
,
0100
0010
0011
0001
0100
0010
1010
1000
,
0002
0013
2000
3010
0002
0103
2000
3100
,
0001
0000
0010
0100
0010
0000
0100
0000
1000
0000
0010
0100
0010
0000
0100
0000
,
0201
0300
0021
0030
0201
0300
2001
3000
,
1020
0030
1200
0300
1020
0030
1002
0003
,
2000
0000
3200
0000
0320
0000
0032
0000
1003
0010
0100
0001
0010
0100
1000
0001
,
0200
0000
0000
0010
0310
0000
0010
0100
,
0110
0000
0010
1000
0000
0100
1000
0000
0010
0000
0100
0001
0000
0010
0001
0000
,
0100
0000
0010
1000
0000
0100
1000
0000
0100
0010
0001
0000
1000
0100
0010
0000
,
0001
0000
1000
0010
0000
1000
0100
0000
1000
0000
0001
0100
0000
0001
0010
0000
,
0001
0000
1000
0010
0000
1000
0100
0000
0010
0001
0100
0000
0010
1000
0100
0000
,
0110
0000
0010
0001
0000
0010
0100
0000
0001
0000
0100
0010
0000
0100
1000
0000
,
0010
0000
0001
0010
0000
0100
0010
0000
1000
0100
0010
0000
0001
0100
0010
0000
,
1000
0000
0100
0001
0000
0100
0010
0000
1000
0000
0010
0001
0000
0010
0100
0000
,
1000
0000
0100
0001
0000
0100
0010
0000
0002
0000
1000
0000
1003
0000
0100
0000
,
0110
0010
0002
1003
0010
0100
0001
0020
,
0230
1300
0010
0100
0001
1000
0100
0010
,
0001
0100
0001
0000
1000
0010
1000
0000
0001
0010
0001
0000
1000
0100
1000
0000
,
0010
0100
0010
0000
1000
0001
1000
0001
1000
0000
0100
0000
0010
0000
0001
0000
,
0201
0010
0000
1000
0000
0001
0000
0310
,
1020
0100
0000
0001
0000
1000
0000
0130
,
0100
0001
0010
1000
0001
0100
1000
0010
,
0100
0001
0100
0001
1000
0010
1000
0010
0100
0001
0010
0100
1000
0010
0100
0001
,
2000
0001
0001
3001
,
1001
0000
1001
0000
0010
0100
0001
0100
0010
0000
1000
0000
0100
0000
0010
0000
,
1001
0000
1001
0000
0100
0010
1000
0010
0100
0000
0001
0000
0010
0000
0100
0000
,
1100
0000
0000
1000
0010
0000
0100
0000
0101
0000
0000
0001
0100
0000
0010
0000
,
1010
1000
0100
0001
1000
0010
0001
0100
,
0010
1000
0100
1000
0010
0000
0100
0000
0001
0010
0100
0010
0001
0000
1000
0000
,
0010
0100
0001
0100
0010
0000
0100
0000
0001
0000
0010
0000
0100
0000
1000
0000
,
0001
0100
0010
0100
0001
0000
0010
0000
0100
1000
0001
1000
0100
0000
0010
0000
,
0001
0100
0010
0000
1010
0000
1000
0000
1001
0000
0001
0000
0101
0000
0000
0000
,
0110
0000
0110
0000
1000
0100
0010
0001
0100
0000
1000
0000
0100
0000
0010
0000
,
0110
0000
0110
0000
0001
0010
0100
1000
0010
0000
0001
0000
0010
0000
0100
0000
,
0101
0000
0001
0010
0100
0000
1000
0000
1100
0000
1000
0010
0100
0000
0001
0000
,
0011
0000
0001
0100
0010
0000
1000
0000
1010
0000
1000
0100
0010
0000
0001
0000
,
0100
0001
0100
0000
0010
1000
0010
0000
1000
0100
1000
0000
0001
0010
0001
0000
,
1000
0001
1000
0000
0010
0100
0010
0000
1000
0100
0010
0000
0001
0100
0010
0000
,
1000
0100
1000
0100
1000
0010
1000
0010
0100
0001
0100
0001
0010
0001
0010
0001
,
0010
0100
1000
0010
0100
0001
1000
0100
0010
0000
0000
0011
0000
0000
1100
0000
,
2002
0000
3000
0100
0103
0000
0110
0110
,
1001
0000
0010
1000
0000
0100
0010
0000
1001
0000
0100
0001
0000
0010
0100
0000
,
1001
0000
0010
1000
0000
0100
0010
0000
0001
0100
0010
0000
1000
0100
0010
0000
,
0110
0000
1000
0010
0000
0001
1000
0000
0110
0000
0001
0100
0000
1000
0001
0000
,
0110
0000
0010
1000
0100
0010
0001
0100
0020
0000
0000
0000
0000
0000
0130
0000
,
0101
0000
0001
0010
0100
1000
0100
0000
0011
0000
0001
0100
0010
1000
0010
0000
,
0101
0000
0001
0010
0100
1000
0010
0000
0100
0001
0100
0010
1000
0010
0100
0000
,
0101
0000
1000
0100
0010
0001
0010
0000
1100
0000
1000
0010
0100
0001
0100
0000
,
1010
0000
0001
0010
0100
0001
0100
1000
0020
0000
0000
0000
0130
0000
0110
0000
,
1001
0000
0000
0000
;

//---------------dance-double - ----------------
#NOTEDATA:;
#CHARTNAME:;
#STEPSTYPE:dance-double;
#DESCRIPTION:;
#CHARTSTYLE:;
#DIFFICULTY:Hard;
#METER:16;
#RADARVALUES:0.752017,0.839178,1.041163,0.366490,0.428959,632.000000,507.000000,125.000000,44.000000,0.000000,0.000000,0.000000,0.000000,0.000000,0.752017,0.839178,1.041163,0.366490,0.428959,632.000000,507.000000,125.000000,44.000000,0.000000,0.000000,0.000000,0.000000,0.000000;
#CREDIT:MILEN;
#NOTES:
// measure 0
00000000
00000000
00000000
00000000
,  // measure 1
00000000
00000000
00000000
00000000
,  // measure 2
00000000
00000000
00000000
00000000
,  // measure 3
00000000
00000000
00000000
00000000
,  // measure 4
10000000
01000000
00010000
00002000
00000000
00013000
00001000
00000100
,  // measure 5
00000001
00000010
00000100
00020000
00032000
00103000
01000000
10000000
,  // measure 6
10100000
01001000
00010100
00000011
,  // measure 7
00001001
00000000
00002002
00000000
00003003
00000000
00000010
00000100
00000010
00000000
00010000
00000000
00001000
00000000
01000000
00000000
,  // measure 8
00010000
00000000
00100000
01000000
00100000
00000000
02000000
00000000
00000000
00000000
13000000
00000000
00100000
00000000
00010000
00000000
,  // measure 9
00010010
00000000
00101000
00000000
00010100
00000000
01001000
00001000
,  // measure 10
00010000
00200000
00000000
10300000
01000000
00100000
00010000
01000000
,  // measure 11
00100000
00020000
00032000
00003200
00000020
00000330
00001001
00000000
,  // measure 12
00000001
00000100
00000110
00000010
00001000
00000100
00010100
00010000
,  // measure 13
00001000
00100000
00110000
00010000
01000000
00100000
10100000
10000000
,  // measure 14
02000000
03010000
02000000
13000000
00200000
00310000
00200000
10300000
,  // measure 15
01000000
00000000
00100000
00000000
00001000
00010000
00001000
00010000
00001000
00000000
00000100
00000000
00000101
00000000
00000001
00000000
,  // measure 16
00000010
00000100
00000110
00000010
00001000
00010000
00011000
00001000
,  // measure 17
00020000
00030010
00002000
00103000
00020000
00030100
00002000
01003000
,  // measure 18
00001000
00000000
00010000
00001000
00010000
00000000
01000000
00000000
00010000
00000000
00001000
00010000
00001000
00000000
00000100
00000000
,  // measure 19
00000102
00000003
00000021
00000030
00002010
00003000
00021000
00030000
,  // measure 20
02010000
03000000
21000000
30000000
10200000
00300000
00120000
00030000
,  // measure 21
00012000
00000000
00023000
00000000
00032000
00000000
00023000
00000000
00031000
00010000
00001000
00010000
00001000
00010000
00001000
00010000
,  // measure 22
00002000
00000000
00000000
00010000
00013000
00000000
00001000
00010000
,  // measure 23
00011000
00000000
00000000
01010000
00000000
00000000
11000000
00000000
10100000
00000000
00000000
00110000
00000000
00000000
00011000
00000000
,  // measure 24
00001100
00000000
00000000
00000101
00000000
00000000
00000011
00000000
00000001
00000010
00000100
00000000
00000010
00001000
00010000
00000000
,  // measure 25
00011000
00000000
00000000
00001100
00000000
00000000
00000101
00000000
00000011
00000000
00000000
00001010
00000000
00000000
00011000
00000000
,  // measure 26
01010000
00000000
00000000
11000000
00000000
00000000
10100000
00000000
10000000
00100000
01000000
00000000
00100000
00010000
00001000
00000000
,  // measure 27
00011000
00000000
00000000
00110000
00000000
00000000
01001000
00000000
10010000
00000000
00000000
01100000
00000000
00000000
00110000
00000000
,  // measure 28
00011000
00000000
00000000
00001100
00000000
00000000
00010010
00000000
00000010
00001000
00000100
00000000
00000010
00001000
00010000
00000000
,  // measure 29
00011000
00000000
00000000
00001010
00000000
00000000
00010100
00000000
00001001
00000000
00000000
00000110
00000000
00000000
00001010
00000000
,  // measure 30
00011000
00000000
00000000
01010000
00000000
00000000
00101000
00000000
00011000
00000000
00010000
00000000
00001000
00000000
00000100
00000000
,  // measure 31
00000110
00000010
00002000
00003001
00000100
00001000
00010000
00200000
,  // measure 32
20300000
30010000
01000000
10000000
00010000
00100000
01000000
00001000
,  // measure 33
00101000
00010000
00010010
00001000
01001000
00010000
00010100
00001000
,  // measure 34
00011000
00000000
00010000
00000000
00000100
00001000
00000100
00000010
00000001
00000000
00000100
00000000
00001000
00000000
00010000
00000000
,  // measure 35
00012000
00000100
00000000
00000001
00000000
00000100
00000000
00013000
,  // measure 36
00021000
01000000
00000000
10000000
00000000
01000000
00000000
00031000
,  // measure 37
00011000
00010000
00100000
10000000
01000000
00010000
00001000
00000010
,  // measure 38
00000001
00000100
00000001
00000100
00000010
00001000
00000010
00001000
00000100
00010000
00001000
00100000
00010000
01000000
00100000
10000000
,  // measure 39
02000000
03020000
00032000
00003010
,  // measure 40
00000011
00000000
00001000
00000000
00010000
00001000
00010000
00100000
00010000
00000000
00001000
00000000
00010000
00000000
01000000
00000000
,  // measure 41
11000000
00000000
00010000
00000000
00001000
00010000
00001000
00000100
00001000
00000000
00010000
00000000
00001000
00000000
00000100
00000000
,  // measure 42
00000101
00000000
00000001
00000010
00001000
00000000
00010000
00000000
00011000
00000000
00001000
00010000
01000000
00000000
10000000
00000000
,  // measure 43
10100000
00100000
00010000
00001000
00100000
01000000
00010000
00001000
,  // measure 44
00000010
00000001
00000100
00000001
00000010
00000000
00001000
00000000
00010000
00001000
00000100
00001000
00010000
00000000
01000000
00000000
,  // measure 45
10000000
00100000
01000000
00100000
10000000
00000000
00010000
00000000
00100000
00000000
01000000
00000000
00010000
00000000
00001000
00000000
,  // measure 46
00000010
00000100
00001000
00000100
00000010
00000000
00000001
00000000
00000100
00001000
00010000
00001000
00000100
00000000
00000010
00000000
,  // measure 47
00010000
00001000
01000000
00000000
01010000
00000000
00001000
00000000
00011000
00000000
00000010
00000000
00001010
00000000
00000000
00000000
,  // measure 48
00001100
00000000
00000001
00000000
00000100
00001000
00010000
00100000
01000000
00000000
00100000
00000000
10000000
00000000
00010000
00000000
,  // measure 49
00110000
00000000
10000000
00000000
00100000
00010000
00001000
00000100
00000010
00000000
00000100
00000000
00000001
00000000
00000010
00000000
,  // measure 50
00000011
00000000
00000001
00000100
00001000
00000000
00010000
00000000
00011000
00000000
00001000
00010000
00100000
00000000
10000000
00000000
,  // measure 51
11000000
00000000
01000000
00010000
00001000
00000000
00010000
00000000
00011000
00000000
00001000
00000010
00000001
00000000
00000100
00000000
,  // measure 52
00000010
00001000
00000010
00000000
00000100
00000001
00000100
00000000
00000010
00010000
00000010
00000000
00010000
00001000
00010000
00000000
,  // measure 53
00001000
00100000
00001000
00000000
00100000
00010000
00100000
00000000
01000000
10000000
01000000
00000000
00010000
00001000
00010000
00000000
,  // measure 54
00000100
00001000
00000100
00001000
00000001
00000010
00000001
00000010
00001000
00010000
00001000
00010000
00100000
10000000
00100000
10000000
,  // measure 55
01000000
00100000
00010000
01000000
00100000
00010000
00001000
00000100
00000001
00000010
00000000
00000010
00001000
00000000
00010000
00000000
,  // measure 56
00022000
00000000
00003000
00000010
00030010
00000000
01001000
01001000
,  // measure 57
00011000
00000000
00000000
00110000
00000000
00000000
10010000
00000000
01010000
00000000
00000000
00011000
00000000
00000000
00001100
00000000
,  // measure 58
00001001
00000000
00000000
00001010
00000000
00000000
01010000
00000000
00010000
00100000
01000000
00000000
10000000
00100000
00010000
00000000
,  // measure 59
00011000
00000000
00000000
00001010
00000000
00000000
00001001
00000000
00001100
00000000
00000000
00011000
00000000
00000000
01010000
00000000
,  // measure 60
10010000
00000000
01100000
00000000
00100000
00010000
00001000
00000000
00001200
00000000
00000000
00000000
00000301
00000000
00000010
00000000
,  // measure 61
00000011
00000000
00000000
00001100
00000000
00000000
00010010
00000000
00001001
00000000
00000000
00000110
00000000
00000000
00010100
00000000
,  // measure 62
00001001
00000000
00000000
00000110
00000000
00000000
00011000
00000000
00001000
00010000
00100000
00000000
00010000
00100000
10000000
00000000
,  // measure 63
11000000
00000000
00000000
00110000
00000000
00000000
00001010
00000000
00000101
00000000
00000000
00010010
00000000
00000000
00101000
00000000
,  // measure 64
11000000
00000000
10000000
00100000
00010000
00001000
00000100
00000001
00000020
00000000
00000000
00000000
00001030
00000000
00010000
00000000
,  // measure 65
00011000
00000000
00000000
00000000
;
