#TITLE:Altale;
#SUBTITLE:;
#ARTIST:Sakuzyo;
#TITLETRANSLIT:;
#SUBTITLETRANSLIT:;
#ARTISTTRANSLIT:;
#GENRE:VARIETY;
#CREDIT:MUINELIM;
#BANNER:Altale.png;
#BACKGROUND:Altale-bg.png;
#LYRICSPATH:;
#CDTITLE:;
#MUSIC:Altale.mp3;
#OFFSET:-0.216000;
#SAMPLESTART:93.383987;
#SAMPLELENGTH:13.333336;
#SELECTABLE:YES;
#DISPLAYBPM:90.000000;
#BPMS:0.000000=90,186.000000=83;
#STOPS:
;
#BGCHANGES:0.000=Altale.avi=1.000=0=0=0=StretchNoLoop====,
99999=-nosongbg-=1.000=0=0=0 // don't automatically add -songbackground-
;
#KEYSOUNDS:;
#ATTACKS:;

//---------------dance-single - ----------------
#NOTES:
     dance-single:
     :
     Hard:
     14:
     0.495476,0.657316,0.426872,0.313484,0.353503,520.000000,456.000000,64.000000,47.000000,0.000000,0.000000,0.495476,0.657316,0.426872,0.313484,0.353503,520.000000,456.000000,64.000000,47.000000,0.000000,0.000000:
0000
0000
0000
0000
,
0000
0000
0000
0000
,
0000
0000
0000
0000
,
0000
0000
0000
0000
0000
0000
0000
0000
0000
0000
0000
0000
0000
0000
0000
1000
0000
0100
1000
0000
0000
0000
0000
0000
,
0001
0000
0100
0001
0000
0000
0000
0000
0000
1000
0000
0010
1000
0000
0000
0001
0000
0000
0010
0000
0001
0010
0000
0000
,
0110
0000
0000
0100
0000
1000
0010
0000
0000
0000
0000
0000
0100
0000
0001
0010
0000
0000
0100
0000
0000
0010
0000
0000
,
0011
0100
1100
0010
1010
0100
0101
1000
,
1001
0010
0110
0001
0101
0101
1010
1010
,
1100
1100
0011
0011
1010
0101
1100
0011
,
1001
1000
0010
0001
0100
1000
0110
0001
,
0010
0000
1000
0000
0100
0000
0001
0000
1001
0000
1000
0100
0010
0001
0010
0000
,
0001
0100
0110
1000
0001
0110
0001
1000
,
1001
0001
0100
0110
1010
0101
1001
1000
,
0100
0000
0011
0000
0001
0100
0010
1000
0010
0000
0100
0000
0001
0010
1000
0000
,
0010
0011
0101
1000
0100
0001
0010
0100
,
2000
0010
3010
0002
0100
0103
2000
0001
,
3001
0020
0100
0130
0002
0010
0013
2000
,
0100
3100
0002
1000
1003
0200
0010
0310
,
0002
0010
1000
0100
0010
0103
2000
0100
,
0001
0010
0100
3010
0200
0001
1300
0020
,
0001
1030
0200
0001
0010
1000
0010
0301
,
0001
0100
0010
0100
0001
0100
0010
1000
0100
0010
0001
0000
1000
0010
0100
0010
,
1000
0010
0100
0001
0010
0100
1000
0000
0001
1000
0010
0100
0010
1000
0100
0001
,
0100
1000
0010
0000
0100
0001
0010
1000
0010
0001
0100
1000
0100
0001
0010
0100
,
1100
0000
1000
0010
0100
0001
0011
0000
0101
0000
1010
0000
1100
0000
0101
0000
,
0011
0000
1010
0000
2000
0000
3002
0000
0103
0000
1100
0000
0011
0000
0001
0100
,
0010
1000
0010
0100
1001
0000
1000
0000
0001
0000
1000
0100
0010
0001
0010
0100
,
1001
0000
0001
0000
1000
0000
0001
0100
1000
0100
0001
0010
0200
0000
0000
0000
,
0000
0000
0000
0000
0000
0000
0000
0000
0000
0000
0000
0000
0310
0000
0000
0000
0000
0000
0001
0000
0100
0010
0000
0000
,
0000
0000
0000
1000
0000
0010
0100
0000
0000
0001
0000
0000
0010
0000
0100
1000
0000
0000
0000
0000
0000
0010
0000
0000
,
0011
0000
0100
1100
1000
0001
0020
0000
,
0000
0000
0000
0130
0000
0000
0010
0000
0000
0001
0000
0100
0020
0000
0000
0000
0000
0000
0000
0000
0000
2030
0000
0000
,
0000
0000
0000
3000
0000
0001
0010
0000
0000
0001
0000
0000
0200
0000
0000
0310
0000
0000
0000
0000
0000
2000
0000
0000
,
3001
0000
0010
0100
1000
0020
0031
0000
,
0200
1300
0000
0000
2002
0000
3003
0020
,
0230
0000
0000
0320
0000
0000
1030
0000
0000
0001
0000
0000
0100
0000
0010
0100
0000
0000
0001
0000
0000
0010
0000
0100
,
0010
0000
0000
1000
0000
0000
0001
0000
0100
1000
0000
0000
0010
0000
0000
0001
0000
0010
0100
0000
0000
1000
0000
0000
,
0100
0000
0001
0010
0000
0010
0100
0000
0100
1000
0000
1000
0010
0000
0000
0001
0000
0000
1000
0000
0100
0010
0000
0000
,
0100
0000
0000
0001
0000
0010
1000
0000
0000
0010
0000
0000
0001
0000
0100
1000
0000
0000
0100
0000
0000
0001
0000
0010
,
0110
0000
0000
1100
0000
0000
1010
0000
0000
0011
0000
0000
0101
0000
1000
0000
,
0010
0000
0001
2000
0000
0000
3200
0000
0000
0320
0000
0000
0032
0000
0000
0103
0000
0000
0010
0000
1000
0001
0000
0000
,
0100
0000
0000
1000
0000
0100
0010
0000
0100
0001
0000
0010
0100
0000
1000
0010
0000
0000
0100
0001
1000
0010
0000
0000
,
0110
0000
0000
1000
0000
0100
0001
0000
0100
0010
0000
0001
0100
0000
1000
0100
0000
0010
0001
0000
0000
0010
0000
0000
,
1000
0000
0100
0010
0000
0000
0001
0000
0000
1000
0000
0010
0001
0000
0010
0100
0000
1000
0100
0000
0001
0010
0000
0100
,
0010
0000
0000
0000
1000
0000
0010
0000
0000
0000
0001
0000
1001
0000
0000
0000
0000
0000
0000
0000
0000
0110
0000
0000
0100
0000
0000
0001
0000
0000
1000
0000
0010
0000
0100
0000
0010
0000
0100
0000
0001
0000
0010
0000
0100
0000
1000
0000
,
0010
0000
0100
0001
0000
0010
0100
0000
1000
0010
0000
0001
0010
0000
1000
0100
0000
0001
0200
0000
0000
0000
0000
0310
,
0002
0000
0000
2003
0000
0000
0000
0000
0000
3020
0000
0000
0130
0000
0000
0000
0000
0000
0001
0000
0010
0100
0000
0000
,
0000
0000
0000
1000
0000
0010
0100
0000
0000
0001
0000
0000
1000
0000
0100
0010
0000
0000
0000
0000
0000
0001
0000
0000
,
0101
0000
1000
1010
0001
0010
0200
0000
,
0000
0000
0000
2300
0000
0000
0000
0000
0000
3010
0000
0100
0001
0000
0000
0000
0000
0000
1000
0000
0100
0010
0000
0000
,
0000
0000
0000
0000
0000
0000
0002
0000
0000
0203
0000
0000
2300
0000
0000
3002
0000
0000
0023
0000
0000
0130
0000
0001
,
1000
0000
0000
0000
0000
0000
0100
0000
0010
0001
0000
0000
1000
0000
0000
0100
0000
0000
0110
0000
0000
0000
0000
0000
,
0011
1100
0101
1010
0220
0000
0000
0000
,
0330
2002
0000
0000
,
0000
0000
0000
0000
0000
0000
0000
0000
0000
0000
0000
0000
0000
0000
0000
0000
0000
0000
0000
0000
3003
0000
0000
0100
0010
0000
0000
0000
0000
0000
0000
0000
;

//---------------dance-double - ----------------
#NOTES:
     dance-double:
     :
     Hard:
     14:
     0.485948,0.657316,0.373513,0.320154,0.346833,510.000000,454.000000,56.000000,48.000000,0.000000,0.000000,0.485948,0.657316,0.373513,0.320154,0.346833,510.000000,454.000000,56.000000,48.000000,0.000000,0.000000:
00000000
00000000
00000000
00000000
,
00000000
00000000
00000000
00000000
,
00000000
00000000
00000000
00000000
,
00000000
00000000
00000000
00000000
00000000
00000000
00000000
00000000
00000000
00000000
00000000
00000000
00000000
00000000
00000000
10000000
00000000
00100000
10000000
00000000
00000000
00000000
00000000
00000000
,
00010000
00000000
00100000
00010000
00000000
00000000
00000000
00000000
00000000
00001000
00000000
00000010
00001000
00000000
00000000
00000001
00000000
00000000
00000100
00000000
00000010
00000100
00000000
00000000
,
00000101
00000000
00000000
00000001
00000000
00001000
00000010
00000000
00000000
00000000
00000000
00000000
00001000
00000000
00000001
00000100
00000000
00000000
00001000
00000000
00000000
00010000
00000000
00000000
,
00011000
00001000
00101000
00100000
01100000
01000000
01010000
00010000
,
00010100
00000100
00000110
00000010
00000011
00001100
00000011
00001100
,
00011000
00011000
01010000
10100000
01010000
10100000
01100000
01100000
,
10010000
10000000
00100000
00010000
00001000
00010000
00011000
00001000
,
00000100
00000000
00000001
00000000
00001000
00000000
00000001
00000000
00001001
00000000
00001000
00000010
00010000
00001000
00100000
00000000
,
01000000
10000000
10100000
00100000
00010000
00011000
00001000
00000100
,
00000101
00000001
00000010
00000110
00010100
01001000
01100000
00100000
,
10000000
00000000
11000000
00000000
01000000
00100000
00010000
00100000
00001000
00000000
00010000
00000000
00000100
00001000
00000001
00000000
,
00000100
00000110
00001010
00001000
00000001
00000100
00001000
00010000
,
00200000
10000000
10300000
02000000
00010000
03010000
00002000
00000010
,
00003010
00000002
00000100
00000103
00002000
01000000
01003000
00020000
,
00000100
00030100
00002000
00100000
00103000
00020000
00000010
00030010
,
00002000
00010000
00100000
01000000
00010000
00103000
00020000
00001000
,
00000010
00000100
00001000
00030010
00000200
00000001
00001300
00200000
,
00010000
10300000
02000000
00100000
03010000
00000020
00001000
00000130
,
00000001
00001000
00000100
00000010
00000001
00000010
00000100
00001000
00000100
00010000
00001000
00000000
00100000
00010000
00100000
01000000
,
10000000
00010000
01000000
00100000
10000000
00010000
00100000
00000000
01000000
00010000
00001000
00010000
00000100
00001000
00000010
00000100
,
00000001
00001000
00000100
00000000
00000010
00001000
00010000
00001000
00100000
00010000
00100000
01000000
10000000
00100000
00010000
00001000
,
00011000
00000000
00010000
00000100
00001000
00000010
00000101
00000000
00001000
00000000
00010000
00000000
10100000
00000000
00010000
00000000
,
00001000
00000000
00011000
00000000
00000200
00000000
00000320
00000000
00000031
00000000
00000101
00000000
00001100
00000000
00001000
00010000
,
00100000
01000000
00100000
10000000
01000000
00000000
00010000
00000000
00011000
00000000
00010000
00001000
00000100
00000010
00000100
00000001
,
00000010
00000000
00001000
00000000
00011000
00000000
00001000
00010000
01000000
10000000
00100000
00010000
00002000
00000000
00000000
00000000
,
00000000
00000000
00000000
00000000
00000000
00000000
00000000
00000000
00000000
00000000
00000000
00000000
00003010
00000000
00000000
00000000
00000000
00000000
00000001
00000000
00001000
00000010
00000000
00000000
,
00000000
00000000
00000000
00010000
00000000
00001000
00100000
00000000
00000000
01000000
00000000
00000000
10000000
00000000
00100000
00010000
00000000
00000000
00000000
00000000
00000000
00001000
00000000
00000000
,
01001000
00000000
00010000
00010100
00000100
00000010
00000002
00000000
,
00000000
00000000
00000000
00000103
00000000
00000000
00001000
00000000
00000000
00010000
00000000
00100000
20000000
00000000
00000000
00000000
00000000
00000000
00000000
00000000
00000000
30020000
00000000
00000000
,
00000000
00000000
00000000
00000000
00000000
01030000
00100000
00000000
00000000
01000000
00000000
00000000
00002000
00000000
00000000
00103000
00000000
00000000
00000000
00000000
00000000
00020000
00000000
00000000
,
00030010
00000000
00000010
00001000
00000100
00000020
00000031
00000000
,
00000200
00001300
00000000
00000000
00022000
00000000
00030000
00010000
,
00010000
00000000
00000000
00013000
00000000
00000000
00011000
00000000
00000000
00010000
00000000
00000000
01000000
00000000
10000000
01000000
00000000
00000000
00100000
00000000
00000000
00010000
00000000
00100000
,
00001000
00000000
00000000
00010000
00000000
00000000
00000100
00000000
00001000
00000100
00000000
00000000
00000010
00000000
00000000
00000001
00000000
00000100
00000001
00000000
00000000
00001000
00000000
00000000
,
00000010
00000000
00010000
00001000
00000000
00100000
00001000
00000000
00010000
00001000
00000000
00010000
00000100
00000000
00000000
00000010
00000000
00000000
00000001
00000000
00000100
00001000
00000000
00000000
,
00000100
00000000
00000000
00000010
00000000
00010000
00001000
00000000
00000000
00100000
00000000
00000000
01000000
00000000
10000000
00100000
00000000
00000000
00010000
00000000
00000000
00001000
00000000
00000000
,
00011000
00000000
00000000
01001000
00000000
00000000
00010100
00000000
00000000
00101000
00000000
00000000
00010010
00000000
00010000
00000000
,
00001000
00000000
00000100
00000002
00000000
00000000
00000023
00000000
00000000
00000230
00000000
00000000
00002300
00000000
00000000
00003010
00000000
00000000
00010000
00000000
00001000
00100000
00000000
00000000
,
01000000
00000000
00000000
10000000
00000000
00100000
01000000
00000000
00010000
01000000
00000000
00001000
00010000
00000000
00000100
00001000
00000000
00000000
00000100
00000010
00000001
00000100
00000000
00000000
,
00001010
00000000
00000000
00001000
00000000
00000100
00010000
00000000
00001000
00010000
00000000
00100000
01000000
00000000
00100000
10000000
00000000
01000000
00100000
00000000
00000000
01000000
00000000
00000000
,
00010000
00000000
00001000
00010000
00000000
00000000
00000100
00000000
00000000
00001000
00000000
00000001
00000100
00000000
00000010
00010000
00000000
00001000
00000100
00000000
00001000
00010000
00000000
00100000
,
01000000
00000000
00000000
00000000
00100000
00000000
10000000
00000000
00000000
00000000
01000000
00000000
11000000
00000000
00000000
00000000
00000000
00000000
00000000
00000000
00000000
01010000
00000000
00000000
00010000
00000000
00000000
00001000
00000000
00000000
00010000
00000000
00000100
00000000
00001000
00000000
00000100
00000000
00001000
00000000
00000100
00000000
00000010
00000000
00000001
00000000
00001000
00000000
,
00000100
00000000
00000100
00000010
00000000
00000010
00000001
00000000
00000001
00000100
00000000
00000100
00001000
00000000
00001000
00010000
00000000
00010000
00200000
00000000
00000000
00000000
00000000
10300000
,
02000000
00000000
00000000
03200000
00000000
00000000
00000000
00000000
00000000
00320000
00000000
00000000
00031000
00000000
00000000
00000000
00000000
00000000
00001000
00000000
00000010
00001000
00000000
00000000
,
00000000
00000000
00000000
00000001
00000000
00000010
00000001
00000000
00000000
00000100
00000000
00000000
00001000
00000000
00010000
00001000
00000000
00000000
00000000
00000000
00000000
00100000
00000000
00000000
,
01100000
00000000
10000000
11000000
01000000
00010000
00002000
00000000
,
00000000
00000000
00000000
00003020
00000000
00000000
00000000
00000000
00000000
00000031
00000000
00000100
00000010
00000000
00000000
00000000
00000000
00000000
00001000
00000000
00000100
00010000
00000000
00000000
,
00000000
00000000
00000000
00000000
00000000
00000000
00002000
00000000
00000000
00023000
00000000
00000000
00230000
00000000
00000000
02300000
00000000
00000000
03020000
00000000
00000000
10030000
00000000
01000000
,
00010000
00000000
00000000
00000000
00000000
00000000
00001000
00000000
00010000
00000100
00000000
00000000
00000010
00000000
00000000
00000001
00000000
00000000
00000101
00000000
00000000
00000000
00000000
00000000
,
00000200
00002300
00023000
00230000
02000000
00000000
00000000
00000000
,
03300000
20020000
00000000
00000000
,
00000000
00000000
00000000
00000000
00000000
30000000
00031000
00000000
;

//---------------dance-single - ----------------
#NOTES:
     dance-single:
     :
     Beginner:
     3:
     0.090520,0.127811,0.040019,0.013340,0.000000,95.000000,89.000000,6.000000,2.000000,0.000000,0.000000,0.090520,0.127811,0.040019,0.013340,0.000000,95.000000,89.000000,6.000000,2.000000,0.000000,0.000000:
0000
0000
0000
0000
,
0000
0000
0000
0000
,
0000
0000
0000
0000
,
0000
0000
0000
1000
,
0000
1000
0000
0000
1000
0000
0000
0001
,
0000
0000
0001
0000
0000
0001
0000
0000
,
0100
0000
0000
0010
,
0000
0000
0100
0000
,
0000
0010
0000
0000
,
0100
0000
0000
0001
0000
0000
0100
0000
,
0000
0001
0000
0000
1000
0000
0000
0010
,
0000
0000
1000
0000
0000
0010
0000
0000
,
1000
0000
0000
0100
0000
0000
1000
0000
,
0000
0100
0000
0000
0010
0000
0000
0001
,
0000
0000
0010
0000
0000
0001
0000
0000
,
0010
0000
0000
0000
,
0000
0000
0100
0000
,
0000
0000
0000
0000
,
1000
0000
0000
0001
,
0000
0000
0100
0000
,
0000
0010
0000
0000
,
1000
0000
0000
1000
0000
0000
1000
0000
,
0000
1000
0000
0000
0001
0000
0000
0001
,
0000
0000
0001
0000
0000
0001
0000
0000
,
0100
0000
0000
0010
0000
0000
0100
0000
,
0000
0010
0000
0000
0100
0000
0000
0100
,
0000
0000
0010
0000
0000
0010
0000
0000
,
1001
0000
0000
1001
,
0000
0000
1001
0000
,
0000
0000
0000
0000
,
0000
0000
0000
0100
,
0000
0000
0010
0000
,
0000
0010
0000
0000
,
0010
0000
0000
0010
,
0000
0000
0000
0000
,
0000
0000
1000
0000
0000
0100
0000
0000
,
0010
0000
0000
0001
0000
0000
1000
0000
,
0000
0100
0000
0000
0010
0000
0000
0010
,
0000
0000
0001
0000
0000
0100
0000
0000
,
0010
0000
0000
1000
,
0000
0000
0000
0000
0001
0000
0000
0100
,
0000
0000
0001
0000
0000
0010
0000
0000
,
0100
0000
0000
1000
0000
0000
0010
0000
,
0000
0100
0000
0000
0010
0000
0000
0010
,
0000
1001
0000
0000
,
1000
0000
0000
0001
,
0000
0000
0100
0000
,
0000
0100
0000
0000
,
0100
0000
0000
0000
,
0000
0000
0010
0000
,
0000
0010
0000
0000
,
0010
0000
0000
0000
,
0000
0000
0110
0000
,
0000
2002
0000
0000
,
0000
0000
0000
3003
;

//---------------dance-single - ----------------
#NOTES:
     dance-single:
     :
     Easy:
     5:
     0.160077,0.237364,0.113388,0.066699,0.000000,168.000000,151.000000,17.000000,10.000000,0.000000,0.000000,0.160077,0.237364,0.113388,0.066699,0.000000,168.000000,151.000000,17.000000,10.000000,0.000000,0.000000:
0000
0000
0000
0000
,
0000
0000
0000
0000
,
0000
0000
0000
0000
,
0000
0000
0000
1000
,
0000
0001
0000
0000
1000
0000
0000
0001
,
0000
0000
1000
0000
0000
0001
0000
0000
,
1000
1000
1000
0010
,
0010
0010
0001
0001
,
0001
0100
0100
0100
,
1001
0000
0000
0001
0000
0000
1000
0000
,
0000
0010
0000
0000
0100
0000
0010
0010
,
0000
0000
1000
0000
0000
0001
0000
0000
,
0100
0000
0000
0010
0010
0010
1000
0000
,
0000
0100
0100
0100
0001
0000
0000
0010
,
0000
1000
1000
0000
0000
0001
0000
0000
,
1000
0000
0000
0001
0000
0000
0010
0000
,
0000
0100
0000
0000
1000
0000
0000
0001
,
0000
0000
0100
0000
0000
0010
0000
0000
,
0110
0000
0000
0100
0000
0000
0010
0000
,
0000
1000
0000
0000
0001
0000
0000
1000
,
0000
0000
1001
0000
0000
0001
0000
0000
,
0100
0000
0100
0010
0000
0100
0001
0000
,
0100
0010
0000
0000
1000
0000
0010
0100
,
0000
0010
1000
0000
0010
0100
0000
0000
,
0110
0000
0000
1001
0000
0000
0110
0000
,
0000
1001
0000
0001
0001
0000
0000
0110
,
0000
1000
1000
0000
0000
1001
0000
0100
,
0100
0000
0000
0010
0100
0010
0200
0000
,
0000
0300
1001
0000
,
0000
0000
0000
0000
,
0000
0000
0000
1001
,
0000
0000
0000
0000
0001
0000
0000
0001
,
0000
0000
0010
0000
0000
0010
0000
0000
,
0100
0000
0000
0100
0000
0000
2000
0000
,
0000
0000
3000
0000
,
0000
0000
0001
0000
0000
0100
0000
0000
,
1000
0000
0000
0010
0000
0000
0001
0000
,
0000
1000
0000
0000
1001
0000
0000
0010
,
0000
0000
0100
0000
0000
0010
0000
0000
,
2002
0000
0000
3003
,
0001
1000
0001
1000
0001
0000
0010
0010
,
0000
0100
0100
0000
1000
1000
0000
0010
,
0010
0000
0100
0100
0000
0001
0001
0000
,
0000
1001
0000
1000
0010
0000
0010
0100
,
0000
0100
0002
0000
0000
2003
0000
0000
,
3100
0000
0100
0010
0000
0010
0001
0000
,
0001
1000
0000
0000
1001
0000
0000
0000
,
0000
0000
0000
0000
0000
0000
0000
0100
,
0100
0000
0000
0000
,
0000
0000
0000
0000
0010
0000
0000
1000
,
0000
0000
0100
0000
0000
0010
0000
0000
,
0001
0000
0000
1000
0000
0000
0010
0000
,
0000
0100
0000
0000
0220
0000
0000
0000
,
0330
2002
0000
0000
,
0000
0000
0000
3003
;

//---------------dance-double - ----------------
#NOTES:
     dance-double:
     :
     Easy:
     6:
     0.160077,0.237364,0.113388,0.060029,0.000000,168.000000,151.000000,17.000000,9.000000,0.000000,0.000000,0.160077,0.237364,0.113388,0.060029,0.000000,168.000000,151.000000,17.000000,9.000000,0.000000,0.000000:
00000000
00000000
00000000
00000000
,
00000000
00000000
00000000
00000000
,
00000000
00000000
00000000
00000000
,
00000000
00000000
00000000
00001000
,
00000000
00010000
00000000
00000000
00001000
00000000
00000000
00010000
,
00000000
00000000
00001000
00000000
00000000
00010000
00000000
00000000
,
00001000
00001000
00001000
00000100
,
00000100
00000100
00010000
00010000
,
00010000
00100000
00100000
00100000
,
01100000
00000000
00000000
10000000
00000000
00000000
00100000
00000000
,
00000000
00010000
00000000
00000000
00001000
00000000
00000100
00000100
,
00000000
00000000
00000001
00000000
00000000
00000010
00000000
00000000
,
00000100
00000000
00000000
00010000
00001000
00010000
00001000
00000000
,
00000000
00010000
00001000
00010000
00001000
00000000
00000000
00100000
,
00000000
01000000
01000000
00000000
00000000
10000000
00000000
00000000
,
10010000
00000000
00000000
00010000
00000000
00000000
01000000
00000000
,
00000000
00001000
00000000
00000000
00010000
00000000
00000000
00000100
,
00000000
00000000
00001000
00000000
00000000
00000001
00000000
00000000
,
00001001
00000000
00000000
00001000
00000000
00000000
00000010
00000000
,
00000000
00010000
00000000
00000000
00001000
00000000
00000000
00100000
,
00000000
00000000
01100000
00000000
00000000
01000000
00000000
00000000
,
10000000
00000000
00100000
00010000
00000000
00001000
00010000
00000000
,
00100000
00010000
00000000
00000000
00001000
00000000
00000010
00001000
,
00000000
00010000
00001000
00000000
00000010
00001000
00000000
00000000
,
00011000
00000000
00000000
00001100
00000000
00000000
00000101
00000000
,
00000000
00001001
00000000
00000010
00000010
00000000
00000000
00011000
,
00000000
01000000
01000000
00000000
00000000
10010000
00000000
00100000
,
00100000
00000000
00000000
00001000
00010000
00001000
00020000
00000000
,
00000000
00030000
00011000
00000000
,
00000000
00000000
00000000
00000000
,
00000000
00000000
00000000
00011000
,
00000000
00000000
00000000
00000000
00001000
00000000
00000000
00001000
,
00000000
00000000
00000100
00000000
00000000
00000100
00000000
00000000
,
00000010
00000000
00000000
00000010
00000000
00000000
00000220
00000000
,
00000000
00000000
00000330
00000000
,
00000000
00000000
00000001
00000000
00000000
00000100
00000000
00000000
,
00001000
00000000
00000000
00010000
00000000
00000000
00100000
00000000
,
00000000
10000000
00000000
00000000
10010000
00000000
00000000
01000000
,
00000000
00000000
00100000
00000000
00000000
00010000
00000000
00000000
,
00022000
00000000
00000000
00033000
,
00001000
00010000
00001000
00010000
00000100
00000000
00000100
00000010
,
00000000
00000010
00000001
00000000
00000001
00000100
00000000
00000100
,
00001000
00000000
00001000
00010000
00000000
00010000
00100000
00000000
,
00000000
10010000
00000000
10000000
01000000
00000000
01000000
00100000
,
00000000
00100000
00002000
00000000
00000000
00023000
00000000
00000000
,
00030010
00000000
00000010
00000100
00000000
00000100
00000001
00000000
,
00000001
00000010
00000000
00000000
00001001
00000000
00000000
00000000
,
00000000
00000000
00000000
00000000
00000000
00000000
00000000
00001000
,
00001000
00000000
00000000
00000000
,
00000000
00000000
00000000
00000000
00010000
00000000
00000000
01000000
,
00000000
00000000
00100000
00000000
00000000
10000000
00000000
00000000
,
01000000
00000000
00000000
00100000
00000000
00000000
00010000
00000000
,
00000000
01000000
00000000
00000000
00002000
00000000
00000000
00000000
,
00000000
00020000
00000000
00000000
,
00000000
00000000
00000000
00033000
;

//---------------dance-single - ----------------
#NOTES:
     dance-single:
     :
     Medium:
     11:
     0.385900,0.438210,0.240115,0.273465,0.096713,405.000000,369.000000,36.000000,41.000000,0.000000,0.000000,0.385900,0.438210,0.240115,0.273465,0.096713,405.000000,369.000000,36.000000,41.000000,0.000000,0.000000:
0000
0000
0000
0000
,
0000
0000
0000
0000
,
0000
0000
0000
0000
,
0000
0000
0000
0000
0000
1000
0010
0000
,
0001
0100
0000
1000
0010
0100
0001
1000
,
0100
0010
0001
0000
0001
0010
0100
1000
,
1001
0001
0100
0001
0100
0001
1001
1000
,
0010
1000
0010
1000
1001
0001
0010
0001
,
0010
0001
1001
1000
0100
1000
0100
1000
,
0002
0103
0100
0010
1000
0100
0020
0031
,
0001
1000
0010
0100
0002
0013
0010
0100
,
1000
0010
0110
0100
0001
0110
0010
1000
,
0200
0310
0001
0100
0100
0100
0020
1030
,
0100
0010
0010
0010
0002
0103
0010
2000
,
3010
0100
0002
0013
0100
1000
0100
0010
,
1001
0001
0100
2000
0000
3100
0001
0010
,
0100
1000
0010
0100
1001
1000
0010
0002
,
0000
0013
1000
0100
0010
0001
0100
0010
,
0110
1000
0100
0002
0000
1003
0010
0001
,
0100
1000
0100
0001
0021
0000
0130
2000
,
0000
3010
0200
0000
0301
2000
0001
3001
,
0001
0100
0010
0000
0100
0000
0001
0000
0010
0000
1000
0000
0010
0000
0001
0000
,
0100
0000
1000
0000
0100
0000
0010
0000
1000
0010
0100
0000
0010
0000
1000
0000
,
0100
0001
0100
1000
0100
0010
0001
0010
,
0110
1000
0100
0110
0001
0010
1001
0100
,
1000
0000
1010
0000
0101
0000
1001
0000
0020
0000
0000
0000
1030
0000
1000
0100
,
0010
0001
0010
0000
0200
0000
0000
0000
0310
0000
0001
0010
0100
1000
0100
0000
,
1100
0000
0001
0000
0100
0000
0010
1000
0001
0100
0010
2000
0002
0000
0000
0000
,
0000
0000
3003
0000
1001
0000
0001
0100
,
0000
0100
1000
0010
0100
0001
0000
0001
,
0010
0000
0010
0001
1000
0100
0220
0000
,
0000
0000
0330
0000
1001
0000
1000
0010
,
0000
0010
0001
0100
0010
1000
0000
1000
,
0100
0000
0100
0001
1000
0010
0110
0000
,
0002
2000
3003
0000
0220
0000
0330
0001
,
0100
0000
0000
1000
0000
0000
0010
0000
0000
0001
0000
0000
0100
0000
0010
0100
0000
0000
1000
0000
0000
0100
0000
0010
,
0100
0000
0000
0001
0000
0000
0100
0000
0010
0100
0000
0000
1000
0000
0000
0200
0000
0000
0301
0000
0000
0010
0000
0000
,
1000
0001
0100
1000
0010
0100
0001
1001
,
1000
0000
0000
0010
0000
0100
0010
0000
0000
0001
0000
0000
0010
0000
0100
0010
0000
0000
1000
0000
0000
0100
0000
0000
,
0101
0000
0000
0011
0000
0000
1010
0000
0000
1100
0000
0000
0110
0000
0001
0000
,
0100
0000
0000
1000
0000
0000
0001
0000
0000
0010
0000
0000
1000
0000
0000
0100
0000
0000
0010
0000
0100
0010
0000
0000
,
0001
0000
0000
0010
0000
0100
0010
0000
0000
1000
0000
0000
0010
0000
0100
0010
0000
0000
0001
0000
0000
0100
0000
0000
,
1010
1000
0100
0011
0001
0100
0110
0001
,
0010
0000
0000
1000
0000
0000
0100
0000
0000
0010
0000
0100
0010
0000
0000
0001
0000
0000
0010
0000
0100
0010
0000
0000
,
1000
0000
0000
0000
0000
0000
0100
0000
0000
0000
0010
0000
0002
0000
0000
0000
0000
0000
0000
0000
0000
0203
0000
0000
0000
0000
0000
0000
0000
0000
0320
0000
0000
0000
0000
0000
0000
0000
0000
2030
0000
0000
0000
0000
0000
0000
0000
0000
,
3001
0000
0010
0100
0000
0000
1000
0000
0010
0100
0000
0000
0001
0000
1000
0100
0000
0010
0001
0000
0000
1000
0000
0010
,
0100
1000
0010
0001
1001
0000
0100
0020
,
0000
1030
0100
0001
1000
0020
0000
0031
,
0200
0000
1300
0001
0010
0100
0110
0000
,
0000
1001
0000
1000
0020
0000
0031
0200
,
0000
0000
1300
0010
0100
0001
0010
0100
,
2000
0000
3010
0100
0001
1000
0200
0000
,
0310
0001
1000
0200
0020
0000
0000
0000
,
0330
2002
0000
0000
,
0000
0000
0000
0000
0000
3003
1001
0000
;

//---------------dance-double - ----------------
#NOTES:
     dance-double:
     :
     Medium:
     11:
     0.382088,0.419952,0.213436,0.260125,0.096713,401.000000,369.000000,32.000000,39.000000,0.000000,0.000000,0.382088,0.419952,0.213436,0.260125,0.096713,401.000000,369.000000,32.000000,39.000000,0.000000,0.000000:
// measure 0
00000000
00000000
00000000
00000000
,  // measure 1
00000000
00000000
00000000
00000000
,  // measure 2
00000000
00000000
00000000
00000000
,  // measure 3
00000000
00000000
00000000
00000000
00000000
01000000
00001000
00000000
,  // measure 4
00001000
00010000
00000000
00010000
00000100
00001000
00000100
00000010
,  // measure 5
00000001
00000100
00000010
00000000
00001000
00000100
00010000
00001000
,  // measure 6
00011000
00010000
00000010
00010000
00000010
00010000
00011000
00001000
,  // measure 7
00100000
00001000
00100000
00001000
00011000
00010000
00000100
00010000
,  // measure 8
00000100
00010000
00011000
00001000
01000000
00001000
01000000
00001000
,  // measure 9
00020000
00030100
00000100
00000010
00000001
00001000
00000200
00010300
,  // measure 10
00010000
00001000
00100000
01000000
20000000
30100000
00100000
00010000
,  // measure 11
00001000
00010000
00011000
00000100
00001000
00001001
00000001
00000010
,  // measure 12
00000200
00001300
00000010
00010000
00010000
00010000
00002000
00103000
,  // measure 13
01000000
10000000
10000000
10000000
00200000
00310000
00001000
00000200
,  // measure 14
00000301
00000010
00000200
00001300
00000010
00010000
00001000
00010000
,  // measure 15
00011000
00001000
00100000
02000000
00000000
03100000
00001000
00010000
,  // measure 16
00100000
01000000
00100000
00010000
00011000
00010000
00000100
00000020
,  // measure 17
00000000
00000130
00010000
00001000
00000100
00000010
00000100
00001000
,  // measure 18
00011000
00001000
00010000
02000000
00000000
03010000
00001000
00000100
,  // measure 19
00001000
00010000
00100000
00010000
00012000
00000000
00003010
00000002
,  // measure 20
00000000
00000103
00002000
00000000
00013000
00200000
01000000
01300000
,  // measure 21
00100000
10000000
00100000
00000000
01000000
00000000
00010000
00000000
00100000
00000000
00001000
00000000
00010000
00000000
00000100
00000000
,  // measure 22
00001000
00000000
00000010
00000000
00000100
00000000
00000001
00000000
00000010
00000001
00000010
00000000
00000100
00000000
00001000
00000000
,  // measure 23
00000010
00010000
00001000
01000000
00010000
00100000
01000000
10000000
,  // measure 24
11000000
01000000
00010000
00011000
00001000
00000010
00000011
00000001
,  // measure 25
00000100
00000000
00001000
00000000
00010000
00000000
00011000
00000000
00200000
00000000
00000000
00000000
00310000
00000000
01000000
10000000
,  // measure 26
01000000
10000000
01000000
00000000
00020000
00000000
00000000
00000000
00031000
00000000
00000100
00001000
00000100
00001000
00000100
00000000
,  // measure 27
00000010
00000000
00000001
00000000
00000100
00000000
00001000
00010000
00001000
00010000
00001000
00020000
00002000
00000000
00000000
00000000
,  // measure 28
00000000
00000000
00033000
00000000
00011000
00000000
00010000
01000000
,  // measure 29
00000000
01000000
10000000
00100000
00010000
00001000
00000000
00001000
,  // measure 30
00000100
00000000
00000100
00000001
00000010
00001000
00022000
00000000
,  // measure 31
00000000
00000000
00033000
00000000
00011000
00000000
00001000
00000100
,  // measure 32
00000000
00000100
00000001
00000010
00001000
00010000
00000000
00010000
,  // measure 33
01000000
00000000
01000000
10000000
00100000
00010000
00011000
00000000
,  // measure 34
00002000
02000000
03003000
00000000
00020200
00000000
00030300
00010000
,  // measure 35
00001000
00000000
00000000
00000100
00000000
00000000
00000001
00000000
00000000
00000010
00000000
00000000
00000100
00000000
00000010
00000100
00000000
00000000
00001000
00000000
00000000
00000100
00000000
00000010
,  // measure 36
00000100
00000000
00000000
00000001
00000000
00000000
00000100
00000000
00000010
00000100
00000000
00000000
00001000
00000000
00000000
00000200
00000000
00000000
00010300
00000000
00000000
00001000
00000000
00000000
,  // measure 37
00100000
01000000
10000000
00100000
00010000
00001000
00010000
00011000
,  // measure 38
00001000
00000000
00000000
00100000
00000000
01000000
00100000
00000000
00000000
00010000
00000000
00000000
00100000
00000000
01000000
00100000
00000000
00000000
00001000
00000000
00000000
00100000
00000000
00000000
,  // measure 39
01100000
00000000
00000000
11000000
00000000
00000000
10100000
00000000
00000000
00110000
00000000
00000000
00011000
00000000
00010000
00000000
,  // measure 40
00001000
00000000
00000000
00000100
00000000
00000000
00000001
00000000
00000000
00000010
00000000
00000000
00000100
00000000
00000000
00001000
00000000
00000000
00000100
00000000
00010000
00001000
00000000
00000000
,  // measure 41
01000000
00000000
00000000
00001000
00000000
00010000
00000100
00000000
00000000
00001000
00000000
00000000
00000010
00000000
00010000
00001000
00000000
00000000
00100000
00000000
00000000
00010000
00000000
00000000
,  // measure 42
01010000
10000000
01000000
11000000
00010000
00100000
00110000
00001000
,  // measure 43
00010000
00000000
00000000
00000100
00000000
00000000
00000010
00000000
00000000
00000001
00000000
00000100
00000010
00000000
00000000
00001000
00000000
00000000
00000010
00000000
00000100
00000001
00000000
00000000
,  // measure 44
00000010
00000000
00000000
00000000
00000000
00000000
00000100
00000000
00000000
00000000
00000010
00000000
00002000
00000000
00000000
00000000
00000000
00000000
00000000
00000000
00000000
00023000
00000000
00000000
00000000
00000000
00000000
00000000
00000000
00000000
02030000
00000000
00000000
00000000
00000000
00000000
00000000
00000000
00000000
23000000
00000000
00000000
00000000
00000000
00000000
00000000
00000000
00000000
,  // measure 45
30100000
00000000
00010000
00001000
00000000
00000000
00010000
00000000
00000100
00001000
00000000
00000000
00000100
00000000
00000010
00000001
00000000
00001000
00000010
00000000
00000000
00010000
00000000
00001000
,  // measure 46
00100000
01000000
10000000
00100000
00110000
00000000
00010000
00002000
,  // measure 47
00000000
00003100
00000001
00000010
00000100
00000020
00000000
00001030
,  // measure 48
00020000
00000000
01030000
10000000
00100000
01000000
01100000
00000000
,  // measure 49
00000000
10010000
00000000
00010000
02000000
00000000
03001000
00020000
,  // measure 50
00000000
00000000
00030100
00000010
00000001
00001000
00000010
00010000
,  // measure 51
00002000
00000000
00103000
01000000
10000000
00100000
00020000
00000000
,  // measure 52
00031000
00000100
00000001
00000010
00002000
00000000
00000000
00000000
,  // measure 53
00000000
00020000
00000000
00000000
,  // measure 54
00000000
00000000
00000000
00000000
00000000
00033000
00011000
00000000
;
