#TITLE:All I Want for X-Mas;
#SUBTITLE:;
#ARTIST:BanYa;
#TITLETRANSLIT:;
#SUBTITLETRANSLIT:;
#ARTISTTRANSLIT:;
#GENRE:VARIETY;
#CREDIT:;
#BANNER:All I Want for X-Mas.png;
#BACKGROUND:All I Want for X-Mas-bg.PNG;
#LYRICSPATH:;
#CDTITLE:;
#MUSIC:All I Want for X-Mas.MP3;
#OFFSET:-0.057000;
#SAMPLESTART:22.210844;
#SAMPLELENGTH:11.960001;
#LASTBEATHINT:215.364029;
#SELECTABLE:YES;
#BPMS:0.000000=130
;
#STOPS:
;
#BGCHANGES:;
#KEYSOUNDS:;
#ATTACKS:;

//---------------dance-single - ----------------
#NOTES:
     dance-single:
     :
     Beginner:
     3:
     0.125834,0.153652,0.009897,0.000000,0.000000,89.000000,88.000000,1.000000,0.000000,0.000000,0.000000,0.125834,0.153652,0.009897,0.000000,0.000000,89.000000,88.000000,1.000000,0.000000,0.000000,0.000000:
0000
0000
0000
0000
,
0000
0000
0000
0000
,
0000
0000
0000
0000
,
0000
0000
0000
0000
,
1000
0000
1000
0000
,
1000
0000
1000
0000
,
0001
0000
0001
0000
,
0001
0000
0001
0000
,
1000
0000
1000
0000
,
0001
0000
0001
0000
,
1000
0000
0001
0000
,
1000
1000
1000
0000
,
0010
0000
0000
0000
,
0001
0000
0000
0000
,
0100
0000
0000
0000
,
1000
0000
0000
0000
,
0010
0000
0010
0000
,
0010
0000
0010
0010
,
0000
0100
0000
0100
,
0000
0100
0100
0000
,
1001
0000
0000
0000
,
0000
0000
0000
0000
,
0000
0000
0000
0000
,
0000
0000
0000
0000
,
1000
0000
0100
0000
,
0010
0000
0010
0000
,
0001
0000
0100
0000
,
0010
0000
0010
0010
,
0010
0000
1000
0000
,
0100
0000
0001
0000
,
0010
0000
0010
0000
,
1000
0000
1000
1000
,
1000
0000
0001
0000
,
1000
0000
0001
0000
,
1000
0000
0001
0000
,
1000
0000
0001
0000
,
0010
0000
0100
0000
,
0010
0000
0100
0000
,
0010
0000
0100
0000
,
0010
0010
0010
0000
,
0001
0000
0000
0000
,
0100
0000
0000
0000
,
1000
0000
0000
0000
,
0010
0000
0000
0000
,
0001
0000
0001
0000
,
0001
0000
0001
0001
,
0000
1000
0000
1000
,
0000
1000
1000
0000
,
0000
0010
0000
0100
,
0000
0010
0000
0100
,
0000
0001
0000
1000
,
0000
0001
0001
0001
;

//---------------dance-single - ----------------
#NOTES:
     dance-single:
     :
     Easy:
     4:
     0.188044,0.230478,0.108868,0.000000,0.000000,133.000000,122.000000,11.000000,0.000000,0.000000,0.000000,0.188044,0.230478,0.108868,0.000000,0.000000,133.000000,122.000000,11.000000,0.000000,0.000000,0.000000:
0000
0000
0000
0000
,
0000
0000
0000
0000
,
0000
0000
0000
0000
,
0000
0000
0000
0000
,
1000
0000
0001
0000
,
1000
0100
0010
0000
,
0001
0000
1000
0000
,
0001
0010
0100
0000
,
1000
0000
0001
0000
,
1000
0010
0100
0000
,
0001
0000
1000
0000
,
0001
0100
0010
0000
,
0110
1000
0001
1000
,
1000
0000
0010
0000
,
0001
0000
0100
0000
,
1000
0010
0010
0000
,
0110
0001
1000
0001
,
0001
0000
0100
0000
,
1000
0000
0010
0000
,
0001
0100
0100
0000
,
1001
0000
0000
0000
,
0010
0000
0000
0000
,
1001
0000
0000
0000
,
0100
0000
0100
0000
,
0010
1000
0010
0000
,
0100
0001
0100
0000
,
0010
1000
0001
0000
,
0100
0001
1000
1000
,
0010
0001
0100
0000
,
0100
1000
0010
0000
,
0001
0001
1000
1000
,
0001
1000
0001
0110
,
0000
1000
0000
0010
,
0000
1000
0000
0010
,
0000
1000
0000
0010
,
1000
0100
1100
0000
,
0000
0001
0000
0010
,
0000
0001
0000
0010
,
0000
0001
0000
0010
,
0001
0100
0101
0000
,
1001
0010
0100
0000
,
0010
0000
1000
0000
,
0001
0000
0100
0000
,
0010
0100
0010
0000
,
1001
0100
0010
0000
,
0100
0000
0001
0000
,
1000
0000
0010
0000
,
0100
0010
0100
0000
,
0000
0001
0000
1000
,
0000
0001
1000
1001
,
0000
1000
0000
0001
,
0000
0100
0010
1001
;

//---------------dance-single - ----------------
#NOTES:
     dance-single:
     :
     Medium:
     7:
     0.323776,0.384130,0.178147,0.000000,0.000000,229.000000,211.000000,18.000000,0.000000,0.000000,0.000000,0.323776,0.384130,0.178147,0.000000,0.000000,229.000000,211.000000,18.000000,0.000000,0.000000,0.000000:
0000
0000
0000
0000
,
0000
0000
0000
0000
,
0000
0000
0000
0000
,
0000
0000
0000
0000
,
0001
1000
0010
0100
,
0001
1000
0100
0010
,
0001
1000
0010
0100
,
0001
0010
0100
1000
,
0010
0100
0001
1000
,
0100
0010
0001
1000
,
0010
0100
0001
1000
,
1010
0101
1001
0000
,
0010
0000
0010
0000
0010
0000
0001
0100
,
0000
1000
0100
0010
0100
0000
0110
0000
,
1000
1000
0001
0001
,
1000
0100
0010
0000
0100
0000
0000
0000
,
0100
0000
0100
0000
0100
0000
1000
0010
,
0000
0001
0010
0100
0000
0010
1000
0000
,
0100
0001
0010
1000
,
0100
0010
0100
0000
1001
0000
0000
0000
,
0110
0000
0000
1000
0000
0000
0000
0000
,
0110
0000
0000
0001
0000
0000
0100
0100
,
0000
0000
0010
1000
0100
0000
0001
0000
,
0010
0000
0100
0000
1001
0000
0000
0001
,
0100
0100
0000
1000
0010
0010
0000
0001
,
0000
1000
0000
0100
0000
0100
0000
0010
,
0000
0010
0000
0001
0000
0100
0000
1000
,
0000
0010
0000
0100
0001
0100
0100
0000
,
1000
0010
1000
0000
1100
0000
1100
0000
,
0001
0010
0001
0000
0101
0000
0101
0000
,
1000
0100
0010
0000
0001
0010
0100
0000
,
1000
0001
1000
0001
0010
0100
0010
0000
,
1000
0100
0001
0100
,
1000
0100
0001
0100
,
1000
0010
0001
0010
,
1000
0010
0001
0010
,
1000
0100
1000
0010
,
0001
0100
0001
0010
,
1000
0100
1000
0010
,
0110
0101
1010
0000
,
0001
0000
0001
0000
0001
0000
1000
0100
,
0000
0001
0100
0010
0100
0000
1100
0000
,
0010
0010
0001
0001
,
0100
1000
0010
0000
0100
0000
0000
0000
,
1000
0000
1000
0000
1000
0000
0001
0010
,
0000
1000
0010
0100
0000
0001
0100
0000
,
1000
0010
0001
0100
,
1000
0001
1000
0000
0110
0000
0000
0000
,
0000
1000
1000
1000
0000
0010
0010
0010
,
0000
0001
0000
0100
0000
1000
0010
0100
,
0000
0001
0001
0001
0000
0010
0010
0010
,
0000
1000
0000
0100
0000
0001
1001
0000
;

//---------------dance-single - ----------------
#NOTES:
     dance-single:
     :
     Hard:
     10:
     0.394469,0.512173,0.227633,0.000000,0.128662,279.000000,256.000000,23.000000,0.000000,0.000000,0.000000,0.394469,0.512173,0.227633,0.000000,0.128662,279.000000,256.000000,23.000000,0.000000,0.000000,0.000000:
// measure 0
0000
0000
0000
0000
,  // measure 1
0000
0000
0000
0000
,  // measure 2
0000
0000
0000
0000
,  // measure 3
0000
0000
0000
0000
,  // measure 4
1000
0010
0001
0100
,  // measure 5
1000
0010
0001
0100
,  // measure 6
0001
0010
1000
0100
,  // measure 7
0001
0010
1000
0100
,  // measure 8
1000
0010
0001
0100
,  // measure 9
1000
0010
1000
0100
,  // measure 10
0001
0010
0100
1000
,  // measure 11
1010
0011
1001
0000
,  // measure 12
1000
0100
0000
0000
1000
0100
0000
0000
1000
0100
0000
0000
1000
0000
0010
0000
,  // measure 13
0000
0001
0010
0100
0010
0000
0110
0000
,  // measure 14
1000
0010
0100
0000
0001
0100
0010
0000
,  // measure 15
1000
0001
0010
0100
1000
0000
0110
0000
,  // measure 16
0001
0100
0000
0000
0001
0100
0000
0000
0001
0100
0000
0000
0001
0000
0010
0000
,  // measure 17
0000
0001
0100
1000
0000
0100
0010
0100
,  // measure 18
0110
1000
0110
0001
,  // measure 19
1000
0100
0010
0001
1000
0000
1001
0000
,  // measure 20
0110
0000
0000
0001
0000
0000
0000
0000
,  // measure 21
0110
0000
0000
1000
0000
0000
0010
0010
,  // measure 22
0100
0000
0001
1000
0100
0000
1000
0001
,  // measure 23
0010
0010
0100
0000
1010
0000
0101
0000
,  // measure 24
0001
0000
0000
1000
0000
0000
0100
0000
1000
0000
0000
0001
0000
0000
0100
0010
,  // measure 25
0000
0000
0100
0000
0001
0010
0001
0000
1000
0000
0000
1000
0000
0000
1000
0000
,  // measure 26
0000
0000
0010
0000
0010
0000
0100
0000
0001
0000
0000
0010
0000
0000
0100
0000
,  // measure 27
0000
0000
1000
0000
0100
0000
0010
0000
0001
0100
0001
0000
1000
0000
0000
0000
,  // measure 28
0100
0000
0100
0000
0010
0000
0000
0000
0001
0000
0000
0100
0000
0000
1000
0000
,  // measure 29
0100
0000
0100
0000
0010
0000
0000
0000
0001
0000
0000
0100
0000
0000
1000
0001
,  // measure 30
1000
0001
0100
0010
0100
0000
0010
0000
1000
0000
0100
0010
0000
0000
0010
0000
,  // measure 31
0001
0010
0100
1000
0010
0100
0110
0000
,  // measure 32
1000
0010
0001
0100
,  // measure 33
1000
0010
0001
0100
,  // measure 34
0001
0010
1000
0100
,  // measure 35
0001
0010
1000
0100
,  // measure 36
1000
0010
0001
0100
,  // measure 37
0001
0010
1000
0100
,  // measure 38
1000
0010
0100
0001
,  // measure 39
0011
1010
1001
0000
,  // measure 40
0100
0001
0000
0000
0100
1000
0000
0000
0100
0001
0000
0000
0010
0000
0100
0000
,  // measure 41
0000
1000
0010
0001
0100
0000
0110
0000
,  // measure 42
0001
0100
1000
0000
1000
0010
0001
0000
,  // measure 43
0010
0100
1000
0001
0100
0000
0110
0000
,  // measure 44
0010
1000
0000
0000
0010
0001
0000
0000
0010
1000
0000
0000
0100
0000
0010
0000
,  // measure 45
0000
0001
0100
1000
0000
0010
0100
0010
,  // measure 46
0110
1000
0110
0001
,  // measure 47
1000
0010
0100
0001
1000
0000
1001
0000
,  // measure 48
0000
0001
0100
1000
0000
1000
0010
0001
,  // measure 49
1000
0000
0000
0010
0000
0000
0100
0000
0000
0000
0010
0000
0010
0000
0110
0000
,  // measure 50
0000
1000
0100
0001
0000
0001
0010
1000
,  // measure 51
0000
0001
0000
1000
0000
0010
0110
0000
;

//---------------dance-double - ----------------
#NOTES:
     dance-double:
     :
     Easy:
     5:
     0.186630,0.230478,0.079177,0.000000,0.000000,132.000000,124.000000,8.000000,0.000000,0.000000,0.000000,0.186630,0.230478,0.079177,0.000000,0.000000,132.000000,124.000000,8.000000,0.000000,0.000000,0.000000:
00000000
00000000
00000000
00000000
,
00000000
00000000
00000000
00000000
,
00000000
00000000
00000000
00000000
,
00000000
00000000
00000000
00000000
,
00001000
00000000
00010000
00000000
,
00100000
10000000
01000000
00000000
,
00010000
00000000
00001000
00000000
,
00000010
00000001
00000100
00000000
,
00001000
00000000
00010000
00000000
,
01000000
10000000
00100000
00000000
,
00010000
00000000
00001000
00000000
,
00000100
00000001
00000010
00000000
,
00000110
00000001
00000100
00001000
,
00010000
00000000
00100000
00000000
,
00010000
00000000
00001000
00000000
,
00010000
00100000
01000000
00000000
,
01100000
10000000
01000000
00010000
,
00001000
00000000
00000010
00000000
,
00001000
00000000
00010000
00000000
,
00001000
00000010
00000100
00000000
,
00000110
00000000
00000000
00000000
,
00011000
00000000
00000000
00000000
,
01100000
00000000
00000000
00000000
,
00010000
00000000
00001000
00000000
,
00010000
00100000
00010000
00000000
,
00001000
00000010
00001000
00000000
,
00010000
01000000
00010000
00000000
,
00001000
00000100
00001000
00010000
,
00100000
10000000
01000000
00000000
,
01000000
00010000
00001000
00000000
,
00010000
00001000
00000100
00000001
,
00000010
00000100
00001000
00001001
,
00000000
00000001
00000000
00000100
,
00000000
00000001
00000000
00000100
,
00000000
00000001
00000000
00000100
,
00001000
00010000
01000000
00000000
,
00000000
10000000
00000000
01000000
,
00000000
10000000
00000000
01000000
,
00000000
10000000
00000000
01000000
,
00010000
00001000
00000100
00000000
,
00000001
00000010
00001000
00000000
,
00001000
00000010
00000001
00000000
,
00000100
00000000
00001000
00000000
,
00010000
00100000
01100000
00000000
,
10000000
01000000
00010000
00000000
,
00010000
01000000
10000000
00000000
,
00100000
00000000
00010000
00000000
,
00001000
00000010
00000110
00000000
,
00000000
00000001
00000000
00000100
,
00000000
00001000
00010000
00100000
,
00000000
00010000
00000000
00001000
,
00000000
00010000
01000000
10000000
;

//---------------dance-double - ----------------
#NOTES:
     dance-double:
     :
     Medium:
     7:
     0.312465,0.332913,0.128662,0.000000,0.000000,221.000000,208.000000,13.000000,0.000000,0.000000,0.000000,0.312465,0.332913,0.128662,0.000000,0.000000,221.000000,208.000000,13.000000,0.000000,0.000000,0.000000:
00000000
00000000
00000000
00000000
,
00000000
00000000
00000000
00000000
,
00000000
00000000
00000000
00000000
,
00000000
00000000
00000000
00000000
,
00001000
01000000
00100000
01000000
,
00001000
01000000
00100000
01000000
,
00001000
00010000
00001000
00100000
,
00001000
00010000
00001000
00100000
,
00010000
00100000
01000000
00100000
,
00010000
00100000
01000000
00100000
,
00010000
01000000
00001000
00010000
,
00000100
00001000
00001001
00000000
,
00000001
00000000
00000001
00000000
00000001
00000000
00000100
00001000
,
00000000
00010000
00001000
00000100
00000010
00000000
00000110
00000000
,
00001000
00000001
00000100
00001000
,
00010000
00100000
10010000
00000000
,
10000000
00000000
10000000
00000000
10000000
00000000
00100000
00010000
,
00000000
00001000
00010000
00100000
00000000
01000000
00100000
00000000
,
10000000
01000000
00010000
00001000
,
00000010
00000001
00000101
00000000
,
00001100
00000000
00000000
00011000
00000000
00000000
00000000
00000000
,
00110000
00000000
00000000
00011000
00000000
00000000
00000000
00000000
,
00001000
00000000
00010000
00100000
00010000
00000000
00001000
00000000
,
00000010
00000100
00000010
00000000
00000001
00000000
00000100
00000000
,
00001000
00010000
00100000
00010000
,
00001000
00010000
01000000
00010000
,
00001000
00010000
00100000
00010000
,
00001000
00000000
00010000
00000000
01000000
10000000
00100000
00000000
,
01000000
00010000
00100000
00000000
01000000
00010000
00001000
00000000
,
00010000
00001000
00000010
00000000
00000100
00001000
00000010
00000000
,
00000001
00000010
00000100
00000000
00000010
00010000
00001000
00000000
,
01000000
00001000
00010000
00000000
00100000
01000000
00010000
00000000
,
10000000
01000000
00010000
00001000
,
00100000
01000000
00010000
00001000
,
00000010
00000100
00001000
00000010
,
00000001
00000010
00000100
00001000
,
00010000
00100000
01000000
10000000
,
01000000
00010000
00100000
01000000
,
00010000
00001000
00000010
00000001
,
00000100
00001000
00011000
00000000
,
00010000
00000000
00010000
00000000
00010000
00000000
00001000
00000010
,
00000000
00001000
00010000
00100000
01000000
00000000
01100000
00000000
,
10000000
01000000
00010000
00001000
,
00100000
01000000
00010000
00000000
00011000
00000000
00000000
00000000
,
00001000
00000000
00001000
00000000
00001000
00000000
00010000
00100000
,
00000000
00010000
00001000
00000010
00000000
00000100
00000010
00000000
,
00000001
00000100
00001000
00010000
,
00100000
10000000
01000000
00000000
01100000
00000000
00000000
00000000
,
00000000
10000000
01000000
00010000
00000000
01000000
00010000
00001000
,
00000000
00010000
00000000
00000100
00000000
00000010
00000001
00000010
,
00000000
00000001
00000100
00001000
00000000
00000100
00001000
00010000
,
00000000
00001000
00000000
01000000
00000000
00100000
10100000
00000000
;

//---------------dance-double - ----------------
#NOTES:
     dance-double:
     :
     Hard:
     11:
     0.418505,0.512173,0.287015,0.000000,0.069279,296.000000,267.000000,29.000000,0.000000,0.000000,0.000000,0.418505,0.512173,0.287015,0.000000,0.069279,296.000000,267.000000,29.000000,0.000000,0.000000,0.000000:
00000000
00000000
00000000
00000000
,
00000000
00000000
00000000
00000000
,
00000000
00000000
00000000
00000000
,
00000000
00000000
00000000
00000000
,
00010000
00001000
01000000
00000000
00010000
01000000
00001000
00000000
,
00010000
00001000
01000000
00010000
01000000
00001000
00010000
00000000
,
00001000
00010000
00000010
00000000
00001000
00000010
00010000
00000000
,
00001000
00010000
00000010
00001000
00000010
00010000
00001000
00000000
,
00100000
00001000
00010000
00000000
00000010
00010000
00001000
00000000
,
01000000
00001000
00010000
00000100
00001000
00000010
00010000
00001000
,
00100000
00000000
00010000
00100000
01000000
10000000
00100000
00000000
,
00010000
00001000
00011000
00000000
,
00001100
00000000
00000010
00000000
00000101
00000000
00001000
00000100
,
00000000
00000001
00000100
00000010
00000001
00000100
00001100
00000000
,
00001000
00010000
00100000
00000000
00010000
00001000
00100000
00000000
,
00001000
00010000
00100000
10000000
10010000
00000000
00000000
00000000
,
11000000
00000000
00100000
00000000
01010000
00000000
10000000
00100000
,
00000000
00010000
00100000
01000000
00000000
00010000
00110000
00000000
,
00000000
00100000
01000000
00010000
00001000
00000010
00000100
00010000
,
00001000
00000100
00000001
00000000
00000010
00000000
00000110
00000000
,
00001100
00000000
00000000
00011000
00000000
00000000
00000000
00000000
,
01010000
00000000
00000000
00011000
00000000
00000000
00000000
00000000
,
00001010
00000000
00000000
00011000
00000000
00000000
00000000
00000000
,
00001000
00010000
01000000
00000000
11000000
00000000
00000000
10000000
,
10000000
00000000
00000000
00100000
00000000
00000000
00010000
00000000
00001000
00000000
00000000
00000010
00000000
00000000
00000001
00000000
,
00000000
00000000
00000100
00000000
00000010
00001000
00000010
00000000
00010000
00000000
00000000
00001000
00000000
00000000
00100000
00000000
,
00000000
00000000
01000000
00000000
00100000
00000000
00010000
00000000
01000000
00000000
00000000
10000000
00000000
00000000
00100000
00000000
,
00000000
00000000
00010000
00000000
00001000
00000000
00000010
00000000
00000001
00000100
00000001
00000000
00001000
00000000
00000000
00000000
,
00000010
00000000
00010000
00000000
00001000
00000000
00000000
00000000
00010000
00000000
00000000
00100000
00000000
00000000
10000000
00000000
,
01000000
00100000
01000000
00000000
00010000
00000000
00000000
00000000
00001000
00000000
00000000
00010000
00000000
00000000
00000100
00000000
,
00000010
00000001
00000010
00000001
00000010
00000000
00001000
00000000
00010000
00000000
00001000
00100000
00000000
00000000
01000000
00000000
,
10000000
00000000
01000000
00010000
01000000
00000000
00010000
00000000
00001000
00000000
00000010
00000001
00000000
00000000
00000000
00000000
,
00000000
00000001
00000000
00000100
00000000
00001000
00000000
00010000
,
00000000
00100000
00000000
10000000
00000000
01000000
00000000
00010000
,
00000000
00011000
00000000
00100000
00000000
00011000
00000000
00000100
,
00000000
00011000
00000000
01000000
00000000
00011000
00000000
00001000
,
00000000
00000010
00000000
00000001
00000000
00000100
00000000
00001000
,
00000000
00010000
00000000
00000100
00000000
00000010
00000000
00000001
,
00000000
00001001
00000000
00000100
00000000
00011000
00000000
01000000
,
00000000
10010000
00000000
10000000
00000000
00100000
00000000
00010000
,
00010000
00001000
00000010
00000001
00000100
00001000
00010000
00001000
,
00000010
00000001
00000100
00001000
00010000
00000000
01100000
00000000
,
00000000
00100000
10000000
01000000
00010000
01000000
10000000
00100000
,
00010000
00001000
00011000
00000000
,
00001000
00010000
00100000
10000000
01000000
00010000
00001000
00010000
,
00100000
10000000
01000000
00010000
00000000
00001000
00011000
00000000
,
00000000
00010000
00001000
00000010
00000100
00010000
00001000
00100000
,
01000000
00010000
00001000
00000000
00000110
00000000
00001001
00000000
,
00000001
00000100
00001000
00000000
00010000
00100000
10000000
00000000
,
10000000
01000000
00010000
00000000
00001000
00000010
00000001
00000000
,
00000100
00001000
00010000
00000000
01000000
00010000
00001000
00000000
,
00000010
00001000
00010000
00000000
00100000
00010000
00011000
00000000
;
