#VERSION:0.83;
#TITLE:After a thousand years;
#SUBTITLE:;
#ARTIST:TOTO;
#TITLETRANSLIT:;
#SUBTITLETRANSLIT:;
#ARTISTTRANSLIT:;
#GENRE:VARIETY;
#ORIGIN:;
#CREDIT:MUINELIM;
#BANNER:After a thousand years.png;
#BACKGROUND:After a thousand years-bg.png;
#PREVIEWVID:;
#JACKET:After a thousand years-jacket.png;
#CDIMAGE:;
#DISCIMAGE:;
#LYRICSPATH:;
#CDTITLE:;
#MUSIC:After a thousand years.mp3;
#OFFSET:-0.137000;
#SAMPLESTART:32.116055;
#SAMPLELENGTH:11.940011;
#SELECTABLE:YES;
#BPMS:0.000=180.000;
#STOPS:;
#DELAYS:;
#WARPS:;
#TIMESIGNATURES:0.000=4=4;
#TICKCOUNTS:0.000=4;
#COMBOS:0.000=1;
#SPEEDS:0.000=1.000=0.000=0;
#SCROLLS:0.000=1.000;
#FAKES:;
#LABELS:0.000=Song Start;
#BGCHANGES:0.000=After a thousand years.avi=1.000=1=0=0=StretchNoLoop==CrossFade==,
99999=-nosongbg-=1.000=0=0=0 // don't automatically add -songbackground-
;
#KEYSOUNDS:;
#ATTACKS:
;

//---------------dance-single - ----------------
#NOTEDATA:;
#CHARTNAME:;
#STEPSTYPE:dance-single;
#DESCRIPTION:;
#CHARTSTYLE:;
#DIFFICULTY:Hard;
#METER:15;
#RADARVALUES:0.759398,0.917605,0.396574,0.556892,0.362823,630.000000,583.000000,47.000000,66.000000,0.000000,0.000000,0.000000,0.000000,0.000000,0.759398,0.917605,0.396574,0.556892,0.362823,630.000000,583.000000,47.000000,66.000000,0.000000,0.000000,0.000000,0.000000,0.000000;
#CREDIT:MILEN;
#NOTES:
0000
0000
0000
0000
,
0000
0000
0000
0000
,
0000
0000
0000
0000
,
0000
0000
0000
0000
,
0001
0010
0100
2000
0000
3010
0100
0002
,
0000
0013
0100
2000
0000
3010
0100
0001
,
0200
0000
0000
0000
0310
0000
0010
1000
0200
0000
0000
0000
0320
0000
0000
0000
,
0031
0100
0001
0000
1000
0000
0001
0000
1000
0010
1000
0000
0001
0000
1000
0000
,
0010
0010
0010
0010
,
0010
0000
0000
0001
0000
0000
0100
0000
0000
0000
1100
0000
1000
0000
0010
0000
,
0100
0100
0001
0000
0001
0000
0001
0000
,
0001
0000
0000
0010
0000
0000
1000
0000
0000
0000
1100
0000
0100
0000
0010
0000
,
0011
0001
0100
0010
1000
0001
0010
0100
,
1100
1000
0010
0100
0001
1000
0100
0010
,
0110
0100
0010
0001
0100
0010
1000
0001
,
1001
1000
0001
0100
1000
0001
0010
0100
,
0101
0000
0011
0011
0000
1010
0000
2200
,
0000
0000
0000
3300
0000
1000
0100
0010
,
0011
0000
1010
1010
0000
1100
0000
0202
,
0000
0000
0000
0303
0000
0001
0010
0100
,
0120
1030
0120
0031
,
0120
1030
0120
0031
,
0001
0100
1000
0001
0010
1000
0100
0010
,
2002
0000
0000
0000
3003
0000
0000
0000
0110
0000
0010
0100
0020
0000
0000
0000
,
1030
0100
0010
0001
0100
0010
1000
0001
,
0010
0000
0100
0000
1000
0000
0010
0000
0100
0001
0100
0000
0010
1000
0010
0000
,
1000
0100
0001
0100
0010
1000
0010
0001
,
0100
0000
0010
0000
1000
0000
0001
0000
0010
0001
0010
0000
0100
1000
0100
1000
,
0100
0010
0001
0100
1000
0001
0010
1000
,
0100
0000
0001
0000
1000
0000
0010
0000
0001
0000
0100
0010
0100
0000
0001
1000
,
0001
0100
1000
0001
0010
1000
0100
0010
,
0001
0100
0010
0000
0100
0000
0001
0100
0010
0000
0100
0000
0001
0010
0001
0010
,
0200
0000
1300
0010
0200
0000
0302
0000
0000
0000
1003
0000
0100
0000
0020
0000
,
0000
0000
0032
0203
,
1300
0100
0010
2000
0000
3001
0010
0100
,
1000
0010
0100
0000
0001
0010
0100
0000
1000
0100
0010
0000
0001
0100
0001
0100
,
0010
0000
1000
0010
0100
0000
0010
0000
1000
0100
0010
0000
0100
0000
1000
0010
,
0100
0000
0010
0000
1000
0100
0010
0000
0100
0000
1000
0010
1000
0010
0100
0001
,
2000
0000
3200
0320
0000
0032
0203
0320
,
1030
0001
1000
0010
0100
0000
0001
1000
0001
0100
0010
0000
1000
0001
0100
0000
,
0220
0000
0000
0000
,
0000
0000
0300
0000
,
1030
0010
1000
0100
0010
0001
1000
0010
,
1000
0100
0010
0001
1000
0010
1000
0100
,
0010
0110
0001
0001
0000
0110
1000
1000
,
0000
1010
0000
0101
0000
1001
0010
0100
,
0000
0110
0110
0000
0010
1000
0100
0001
,
1000
0010
0001
0100
0000
0001
0010
1000
,
0001
0100
1000
1010
0000
0011
0000
2002
,
0000
0000
0000
3003
0000
0000
1000
0100
0010
0001
1000
0100
,
0020
1000
0001
0030
,
0200
0001
1000
0300
,
0020
0001
0100
0030
,
0200
1000
0010
0300
,
0020
0031
0020
1030
,
0020
0031
0020
1030
,
0010
0000
0001
0000
0010
0000
1000
0000
0010
0000
0001
0000
0010
1000
0010
0001
,
0200
0000
0000
0000
0000
0000
0000
0000
0000
0000
0301
1000
0002
0000
0000
0000
,
1003
0010
0100
1000
0001
0010
0100
0001
,
1000
0000
0100
0000
0010
0000
0001
0000
0100
0010
0100
0010
1000
0001
1000
0001
,
0100
0010
1000
0100
0001
1000
0010
0001
,
0100
0000
0010
0000
1000
0000
0001
0000
0010
0100
0010
0100
1000
0001
1000
0001
,
0010
0100
1000
0001
0010
1000
0001
0100
,
1000
0000
0001
0000
0010
0000
0100
0000
1000
0001
1000
0001
0100
0010
0100
0010
,
1000
0000
0100
0000
0010
0000
0001
0100
0020
0000
0030
0000
1010
0000
0000
0000
,
1000
0100
1000
0100
0010
0000
0001
0010
0001
0010
0100
0000
1000
0010
0100
0001
,
1000
0000
0000
0000
,
0000
0000
0000
0000
0000
0000
0000
0000
0000
0000
0010
0100
0020
0000
0030
0000
,
0210
0000
0301
0010
0100
0001
0100
2000
,
0000
0000
3010
0000
0100
0000
1000
0000
0100
0010
0100
0000
0001
0000
0010
0000
,
0011
0000
0001
0100
1000
0100
0010
1000
,
0001
0100
0001
0000
1000
0100
1000
0000
0001
0010
0001
0000
1000
0010
1000
0010
,
0200
0000
0301
1000
0100
0001
0100
0020
,
0000
0000
0031
0000
0100
0000
1000
0000
0100
0010
0100
0000
0010
0000
1000
0000
,
1100
0000
0100
0010
0001
1000
0100
0010
,
0001
0100
0001
0100
0020
0000
1030
0100
0010
0000
0010
0000
0010
0000
0000
0000
,
0101
0100
0010
1010
0000
1100
0000
0022
,
0000
0033
0101
1010
,
0011
0010
0100
2000
0000
3010
0100
0002
,
0000
1003
0100
0001
1000
0010
0001
0100
,
0110
0010
1000
0200
0000
0310
0001
2000
,
0000
3010
1000
0002
0000
0013
0100
1000
,
1020
0000
0000
0000
0000
0000
0130
0001
0010
0000
0100
0000
0110
0000
0000
0000
,
0100
1000
0200
0000
0300
0000
0010
0100
0020
0000
0030
0000
0001
0010
0001
0000
,
1000
0010
2000
0000
3000
0000
0001
1000
0002
0000
0003
0000
0100
0001
0100
0000
,
0010
1000
0200
0000
0300
0000
1000
0100
0020
0000
0030
0000
0100
0010
0001
0000
,
0100
0010
0100
0010
1000
0001
0010
0100
2000
0000
0000
0000
0000
0000
0000
0000
,
3000
0000
0000
0000
;

//---------------dance-double - ----------------
#NOTEDATA:;
#CHARTNAME:;
#STEPSTYPE:dance-double;
#DESCRIPTION:;
#CHARTSTYLE:;
#DIFFICULTY:Hard;
#METER:14;
#RADARVALUES:0.694306,0.770789,0.320635,0.388137,0.189849,576.000000,538.000000,38.000000,46.000000,0.000000,0.000000,0.000000,0.000000,0.000000,0.694306,0.770789,0.320635,0.388137,0.189849,576.000000,538.000000,38.000000,46.000000,0.000000,0.000000,0.000000,0.000000,0.000000;
#CREDIT:MILEN;
#NOTES:
00000000
00000000
00000000
00000000
,
00000000
00000000
00000000
00000000
,
00000000
00000000
00000000
00000000
,
00000000
00000000
00000000
00000000
,
00001000
00010000
00100000
02000000
00000000
03100000
01000000
00020000
,
00000000
00130000
00001000
00020000
00000000
00031000
00010000
00000100
,
00000020
00000000
00000000
00000000
00000031
00000000
00000001
00000100
00000001
00000000
00000000
00000000
00001001
00000000
00000000
00000000
,
00001000
00000100
00001000
00000000
00000100
00000000
00010000
00000000
00001000
00010000
00001000
00000000
00100000
00000000
00010000
00000000
,
01000000
01000000
01000000
01000000
,
01000000
00000000
00000000
00001000
00000000
00000000
00010000
00000000
00000000
00000000
00011000
00000000
00010000
00000000
00000100
00000000
,
00000010
00000010
00000001
00000000
00000001
00000000
00000001
00000000
,
00000001
00000000
00000000
00000100
00000000
00000000
00001000
00000000
00000000
00000000
00011000
00000000
00010000
00000000
00100000
00000000
,
10000000
01000000
00100000
01000000
10000000
01000000
00010000
00001000
,
00000010
00000001
00000010
00000100
00000010
00000001
00000100
00001000
,
00010000
00100000
00010000
00001000
00010000
00100000
10000000
01000000
,
00010000
01000000
10000000
01000000
00010000
00001000
00000100
00000001
,
00001001
00000000
00001000
00001100
00000000
00010100
00000000
00022000
,
00000000
00000000
00000000
00033000
00000000
00001000
00010000
00100000
,
10100000
00000000
10000000
11000000
00000000
01100000
00000000
00202000
,
00000000
00000000
00000000
00303000
00000000
00001000
00010000
00000100
,
00000010
00000001
00000100
00001000
,
00010000
00100000
10000000
01000000
,
00010000
00001000
00100000
00001000
00010000
00000010
00010000
00001000
,
00022000
00000000
00000000
00000000
00003000
00000000
00000000
00000000
00030100
00000000
00000100
00001000
00000200
00000000
00000000
00000000
,
00000310
00000001
00000100
00001000
00000100
00000010
00001000
00000100
,
00010000
00000000
00001000
00000000
00100000
00000000
01000000
00000000
10000000
00100000
00000000
00000000
00100000
01000000
00000000
00000000
,
01000000
00010000
00100000
01000000
00010000
00001000
00000010
00000001
,
00001000
00000000
00000100
00000000
00000010
00000000
00001000
00000000
00010000
00001000
00010000
00000000
01000000
00000000
10000000
00100000
,
10000000
00100000
01000000
00010000
00100000
01000000
00010000
00001000
,
00000010
00000001
00000100
00000110
00000000
00000010
00010000
00001000
,
00101000
00000000
00000000
00000000
00100000
00000000
01000000
10000000
01000000
00000000
00010000
00000000
00001000
00000000
00100000
00000000
,
01000000
00010000
00001000
00000010
00000100
00001000
00000010
00000100
,
00000002
00000000
00001003
00000010
00001000
00000000
00000200
00000000
00000000
00000000
00010300
00000000
00001000
00000000
00200000
00000000
,
00000000
00000000
02300000
23000000
,
30100000
01000000
00010000
00200000
00000000
01300000
00010000
00001000
,
00000010
00000001
00000000
00000000
00000001
00000100
00000000
00000000
00000100
00001000
00000000
00000000
00001000
00010000
00000000
00000000
,
00011000
00000000
00010000
00001000
00010000
00000000
00100000
00000000
10000000
00000000
01000000
00000000
00010000
00000000
00001000
00010000
,
00001000
00000000
00000100
00000000
00000001
00000000
00000010
00000000
00001000
00000000
00010000
00001000
00010000
00000000
01000000
00000000
,
20000000
00000000
30100000
02100000
00000000
03001000
00010000
00000100
,
00000010
00000001
00000010
00000000
00000100
00000000
00010000
00001000
00010000
00000000
01000000
00000000
10000000
00010000
10000000
00000000
,
10010000
00000000
00000000
00000000
,
00000000
00000000
00010000
00000000
01000000
00000000
00001000
00000000
00010000
00000100
00010000
00000000
00000100
00000000
00000010
00000100
,
00000010
00000010
00000001
00000100
00001000
00000100
00000001
00000100
,
00001000
00010000
00001000
00000100
00001000
00010000
00100000
10000000
,
01000000
00100000
00010000
02000000
00000000
03100000
00010000
00002000
,
00000000
00003010
00000000
00000011
00000000
00001100
00000100
00010000
,
00000000
00001000
00011000
00000000
00010000
00100000
10000000
01000000
,
00010000
00001000
00010000
00011000
00000000
00001000
00000010
00000001
,
00000100
00001000
00010000
00011000
00000000
01001000
00000000
00020020
,
00000000
00000000
00000000
00030030
00000000
00000000
00010000
00001000
00010000
00001000
00010000
00001000
,
00200000
00000000
01000000
00300000
,
00002000
00000000
00010000
00003000
,
00000020
00000000
00000100
00000030
,
00002000
00000000
00010000
00003000
,
02000000
03000000
00020000
00030000
,
00000200
00000300
00002000
00003000
,
00010000
00001000
00000010
00000001
00000100
00001000
00010000
00100000
,
20100000
00000000
00000000
00000000
00000000
00000000
00000000
00000000
00000000
00000000
30010000
01000000
00100000
00000000
00000000
00000000
,
00100000
10000000
01000000
00010000
01000000
00100000
00010000
01000000
,
00001000
00000000
00010000
00000000
00000010
00000000
00000100
00000000
00000001
00000010
00000000
00000000
00000010
00000100
00000000
00000000
,
00000100
00001000
00000010
00000100
00001000
00010000
00100000
10000000
,
00010000
00000000
01000000
00000000
00100000
00000000
00010000
00000000
00001000
00010000
00001000
00000000
00000100
00000000
00000001
00000010
,
00000001
00000010
00000100
00001000
00000010
00000100
00001000
00010000
,
00100000
10000000
01000000
01100000
00000000
00100000
00001000
00010000
,
00010010
00000000
00000000
00000000
00000010
00000000
00000100
00000001
00000100
00000000
00001000
00000000
00010000
00000000
00000010
00000000
,
00000100
00001000
00010000
00100000
01000000
00010000
00100000
01000000
,
11000000
00000000
10000000
00200000
00000000
00310000
00001000
00000020
,
00000000
00000000
00000000
00000000
00000000
00000000
00000000
00000000
00000000
00000000
00000031
00000100
00000010
00000000
00000000
00000000
,
00001010
00000000
00001000
00000100
00000010
00000001
00000100
00002000
,
00000000
00000000
00003100
00000000
00001000
00000000
00010000
00000000
00100000
01000000
00100000
00000000
10000000
00000000
01000000
00000000
,
01010000
00000000
00010000
00001000
00100000
01000000
10000000
00100000
,
00010000
00001000
00000000
00000000
00001000
00000010
00000000
00000000
00000010
00000001
00000000
00000000
00000001
00000100
00000010
00000000
,
00002000
00000000
00003100
00010000
00001000
00100000
01000000
20000000
,
00000000
00000000
30100000
00000000
10000000
00000000
01000000
00000000
00100000
00001000
00100000
00000000
00010000
00000000
01000000
00000000
,
01001000
00000000
00001000
00010000
00000100
00000010
00000001
00001000
,
00000010
00000100
00000010
00000000
00010000
00000000
00001000
00010000
00001000
00000000
00100000
00000000
01000000
00000000
00000000
00000000
,
11000000
01000000
00010000
00001000
00000000
00000010
00000000
00000002
,
00000100
00000103
00001100
00011000
,
00110000
00100000
10000000
02000000
00000000
03100000
00001000
00020000
,
00000000
00030100
00001000
00000100
00000010
00000001
00000100
00000010
,
00001010
00001000
00000100
00020000
00000000
00031000
00010000
00200000
,
00000000
00310000
00100000
20000000
00000000
31000000
00100000
00001000
,
00021000
00000000
00000000
00000000
00000000
00000000
00030100
00001000
00000010
00000000
00000000
00000000
00000110
00000000
00000000
00000000
,
00000100
00000001
00000010
00000100
00010000
00001000
00100000
01000000
,
10000000
00100000
00010000
00001000
00000100
00000001
00000010
00000100
,
00000001
00000100
00010000
00001000
00100000
10000000
00100000
00001000
,
00010000
00001000
00020000
00000000
00000000
00000000
00000000
00000000
00000020
00000000
00000000
00000000
00000000
00000000
00000000
00000000
,
00030030
00000000
00000000
00000000
;

//---------------dance-single - ----------------
#NOTEDATA:;
#CHARTNAME:;
#STEPSTYPE:dance-single;
#DESCRIPTION:;
#CHARTSTYLE:;
#DIFFICULTY:Beginner;
#METER:4;
#RADARVALUES:0.149469,0.255453,0.016876,0.008438,0.000000,124.000000,122.000000,2.000000,1.000000,0.000000,0.000000,0.000000,0.000000,0.000000,0.149469,0.255453,0.016876,0.008438,0.000000,124.000000,122.000000,2.000000,1.000000,0.000000,0.000000,0.000000,0.000000,0.000000;
#CREDIT:MILEN;
#NOTES:
0000
0000
0000
0000
,
0000
0000
0000
0000
,
0000
0000
0000
0000
,
0000
0000
0000
0000
,
1000
0000
0000
0000
,
0001
0000
0000
0000
,
1000
0000
0000
0000
,
0001
0000
0000
0000
,
1000
0000
1000
0000
,
1000
0000
0000
0000
,
0100
0000
0100
0000
,
0100
0000
0000
0000
,
0010
0000
0010
0000
,
0010
0000
0000
0000
,
0001
0000
0001
0000
,
0001
0000
0000
0000
,
0100
0000
0100
0100
,
0100
0000
0000
0000
,
0010
0000
0010
0010
,
0010
0000
0000
0000
,
1000
0000
0000
0000
,
0001
0000
0000
0000
,
1000
0000
0001
0000
,
1001
0000
0000
0000
,
1000
0000
0000
0000
,
0100
0000
0000
0000
,
0001
0000
0000
0000
,
0010
0000
0000
0000
,
1000
0000
0000
0000
,
0100
0000
0000
0000
,
0001
0000
0000
0000
,
0010
0000
0000
0000
,
1000
0000
1000
0000
,
1000
0000
0000
0000
,
0001
0000
0001
0000
,
0001
0000
0000
0000
,
0100
0000
0100
0000
,
0010
0000
0010
0000
,
0100
0000
0010
0000
,
0100
0000
0100
0100
,
0100
0000
0000
0000
,
0000
0000
0000
0000
,
0001
0000
0000
0000
,
0010
0000
0000
0000
,
1000
0000
0000
0000
,
0100
0000
0000
0000
,
0001
0000
0000
0000
,
0010
0000
0000
0000
,
1000
0000
0000
0000
,
0100
0000
0000
0000
,
0001
0000
0000
0000
,
0001
0000
0000
0000
,
0001
0000
1000
0000
,
0001
0000
0001
0000
,
1000
0000
0000
0000
,
1000
0000
0000
0000
,
1000
0000
0001
0000
,
1001
0000
0000
0000
,
1000
0000
0000
0000
,
0010
0000
0000
0000
,
0001
0000
0000
0000
,
0100
0000
0000
0000
,
1000
0000
0000
0000
,
0010
0000
0000
0000
,
0001
0000
0000
0000
,
0100
0000
0000
0000
,
1000
0000
0000
0000
,
0000
0000
0000
0000
,
0010
0000
0010
0000
,
0100
0000
0100
0000
,
0010
0000
0100
0000
,
0010
0000
0010
0000
,
1000
0000
1000
0000
,
0001
0000
0001
0000
,
1000
0000
0001
0000
,
1000
0000
1000
1000
,
1000
0000
0100
0000
,
0010
0000
0010
0000
,
0001
0000
0010
0000
,
0100
0000
0100
0000
,
1000
0000
0010
0000
,
0100
0000
0001
0000
,
0010
0000
0100
0000
,
1000
0000
1000
1000
,
0001
0000
0001
0001
,
0100
0000
0100
0100
,
0020
0000
0030
0000
;

//---------------dance-single - ----------------
#NOTEDATA:;
#CHARTNAME:;
#STEPSTYPE:dance-single;
#DESCRIPTION:;
#CHARTSTYLE:;
#DIFFICULTY:Easy;
#METER:7;
#RADARVALUES:0.278446,0.367042,0.168755,0.075940,0.000000,231.000000,211.000000,20.000000,9.000000,0.000000,0.000000,0.000000,0.000000,0.000000,0.278446,0.367042,0.168755,0.075940,0.000000,231.000000,211.000000,20.000000,9.000000,0.000000,0.000000,0.000000,0.000000,0.000000;
#CREDIT:MILEN;
#NOTES:
0000
0000
0000
0000
,
0000
0000
0000
0000
,
0000
0000
0000
0000
,
0000
0000
0000
0000
,
1000
0000
0001
0000
,
0100
0000
0010
0000
,
1000
0000
0001
0000
,
0100
0010
0100
0010
,
0110
0000
1000
0000
,
1000
0001
1000
0001
,
0110
0000
0001
0000
,
0001
1000
0001
1000
,
0110
0000
0001
0000
,
0100
0000
1000
0000
,
0010
0000
0001
0000
,
1000
0000
0010
0100
,
0001
0100
0010
0100
,
0002
0000
0003
1000
,
0010
0100
0010
1000
,
0020
0000
0030
0100
,
0100
0000
0001
0000
,
1000
0000
0010
0000
,
0100
0001
1000
0010
,
0110
0000
0000
1001
,
0001
0100
0001
0100
,
0001
1000
0001
1000
,
0100
1000
0100
1000
,
0001
1000
0001
1000
,
1001
0000
0001
0000
,
0100
0000
1000
0000
,
0010
0000
0001
0000
,
0100
0010
1000
0001
,
0100
0000
0100
0000
,
0100
0000
0010
1000
,
0001
0100
0010
0000
,
0010
1000
0100
0010
,
0001
0100
0001
1000
,
0010
1000
0001
0100
,
0001
1000
0010
2000
,
0002
0000
0000
3003
,
1001
0000
0000
0000
,
0000
0000
0000
0000
,
0010
0000
0000
0000
,
1000
0000
0000
0000
,
0100
0000
0000
0000
,
0001
0000
0000
0000
,
0010
0000
1000
0000
,
0100
0000
0001
0000
,
0010
0100
0010
0010
,
0220
0000
0330
0000
,
1001
0000
0000
0000
,
0100
0000
0000
0000
,
1001
0000
0000
0000
,
0010
0000
0000
0000
,
1001
0000
0100
0000
,
1001
0000
0010
0000
,
0100
0001
1000
0010
,
0110
0000
0000
1001
,
1000
0100
1000
0100
,
1000
0001
1000
0001
,
0100
0001
0100
0001
,
1000
0001
1000
0001
,
1001
0000
1000
0000
,
0100
0000
0001
0000
,
0010
0000
1000
0000
,
0100
0010
0001
1000
,
0110
0000
0000
0000
,
0000
0000
0000
0000
,
0010
1000
0010
0000
,
0100
0001
0100
0000
,
0010
1000
0001
0100
,
0010
0010
0020
0030
,
1000
0100
1000
0000
,
0001
0010
0001
0000
,
1000
0100
0010
0001
,
0100
0100
0200
0300
,
0010
0000
1000
0000
,
0001
0000
0100
0000
,
0010
0000
1000
0000
,
0001
0000
0100
0000
,
1000
0000
0010
0000
,
0001
0000
1000
0000
,
0010
0000
0100
0000
,
0101
0001
1000
0000
,
1100
1000
0001
0000
,
0011
0001
1000
0000
,
1010
1000
0002
0000
,
0003
0000
0000
0000
;

//---------------dance-double - ----------------
#NOTEDATA:;
#CHARTNAME:;
#STEPSTYPE:dance-double;
#DESCRIPTION:;
#CHARTSTYLE:;
#DIFFICULTY:Easy;
#METER:7;
#RADARVALUES:0.260365,0.367042,0.194068,0.084378,0.000000,216.000000,193.000000,23.000000,10.000000,0.000000,0.000000,0.000000,0.000000,0.000000,0.260365,0.367042,0.194068,0.084378,0.000000,216.000000,193.000000,23.000000,10.000000,0.000000,0.000000,0.000000,0.000000,0.000000;
#CREDIT:MILEN;
#NOTES:
00000000
00000000
00000000
00000000
,
00000000
00000000
00000000
00000000
,
00000000
00000000
00000000
00000000
,
00000000
00000000
00000000
00000000
,
01000000
00000000
00100000
00000000
,
00010000
00000000
00001000
00000000
,
00000100
00000000
00000010
00000000
,
00010000
00000000
00001000
00000000
,
00011000
00000000
01000000
00000000
,
00001000
00010000
00001000
00000000
,
00011000
00000000
00000010
00000000
,
00010000
00001000
00010000
00000000
,
00011000
00000000
00001000
00000000
,
00100000
00000000
00001000
00000000
,
00010000
00000000
00000100
00000000
,
00010000
00000000
00001000
00010000
,
01000000
00010000
00001000
00010000
,
02000000
00000000
03000000
00010000
,
00001000
00000010
00001000
00010000
,
00002000
00000000
00003000
00000010
,
00000010
00000000
00000001
00000000
,
00000100
00000000
00001000
00000000
,
00010000
00100000
10000000
01000000
,
00200000
00000000
00300000
01100000
,
01000000
00010000
00001000
00010000
,
00000010
00000000
00001000
00000000
,
00000100
00010000
00001000
00010000
,
01000000
00000000
10000000
00000000
,
10010000
00000000
00010000
00000000
,
01000000
00000000
00001000
00000000
,
00010000
00000000
00000010
00000000
,
00001000
00000100
00000010
00000001
,
00000101
00000000
00001000
00000000
,
00001000
00000000
00000010
00010000
,
00001000
00010000
00100000
00000000
,
10000000
01000000
00100000
01000000
,
00010000
00001000
00010000
00000010
,
00000100
00000010
00010000
00001000
,
00010000
01000000
10000000
00100000
,
00020000
00000000
00000000
00000000
,
00031000
00000000
00000000
00000000
,
00000000
00000000
00000000
00000000
,
00001000
00000000
00000000
00000000
,
00000010
00000000
00000000
00000000
,
00000001
00000000
00000000
00000000
,
00000100
00000000
00000000
00000000
,
00001000
00000000
00010000
00000000
,
00100000
00000000
10000000
00000000
,
01000000
00000000
00010000
00000000
,
00022000
00000000
00000000
00033000
,
00011000
00000000
00000000
00000000
,
01000000
00000000
00000000
00000000
,
00011000
00000000
00000000
00000000
,
00000100
00000000
00000000
00000000
,
00011000
00000000
00100000
00000000
,
00011000
00000000
00000010
00000000
,
00010000
00001000
00000100
00000001
,
00001001
00000000
00000000
00000110
,
00000100
00001000
00010000
00001000
,
00100000
00000000
00010000
00000000
,
01000000
00001000
00010000
00001000
,
00000100
00000000
00000001
00000000
,
00001001
00000000
00001000
00000000
,
00000100
00000000
00010000
00000000
,
00001000
00000000
00100000
00000000
,
00010000
01000000
00100000
10000000
,
11000000
00000000
00000000
00000000
,
00000000
00000000
00000000
00000000
,
01000000
00010000
00001000
00000000
,
00010000
00001000
00000100
00000000
,
00001000
00000100
00000001
00000010
,
00000100
00000100
00000200
00000300
,
00000010
00001000
00010000
00000000
,
00001000
00010000
00100000
00000000
,
00010000
00100000
10000000
01000000
,
00100000
00100000
00200000
00300000
,
00010000
00000000
01000000
00000000
,
00001000
00000000
00010000
00000000
,
00000100
00000000
00001000
00000000
,
00000010
00000000
00010000
00000000
,
00001000
00000000
00100000
00000000
,
00010000
00000000
10000000
00000000
,
00100000
00000000
00010000
00000000
,
00011000
00000000
00001100
00000000
,
00000101
00000000
00000011
00000000
,
00001010
00000000
00011000
00000000
,
00110000
00000000
20200000
00000000
,
30300000
00000000
00000000
00000000
;

//---------------dance-single - ----------------
#NOTEDATA:;
#CHARTNAME:;
#STEPSTYPE:dance-single;
#DESCRIPTION:;
#CHARTSTYLE:;
#DIFFICULTY:Medium;
#METER:10;
#RADARVALUES:0.470103,0.550563,0.261570,0.278446,0.000000,390.000000,359.000000,31.000000,33.000000,0.000000,0.000000,0.000000,0.000000,0.000000,0.470103,0.550563,0.261570,0.278446,0.000000,390.000000,359.000000,31.000000,33.000000,0.000000,0.000000,0.000000,0.000000,0.000000;
#CREDIT:MILEN;
#NOTES:
0000
0000
0000
0000
,
0000
0000
0000
0000
,
0000
0000
0000
0000
,
0000
0000
0000
0000
,
1000
0001
1000
0001
,
0100
0010
0100
0010
,
1000
0001
0010
0100
,
1000
0010
1000
0000
0001
0100
0001
0000
,
1001
0010
0010
0010
,
0010
1000
0000
0001
0100
0000
0010
0000
,
1001
0100
0100
0100
,
0100
0001
0000
1000
0010
0000
0100
0000
,
0010
0100
0010
0000
1000
0000
0001
0000
,
0100
0010
0100
0000
0001
0000
1000
0000
,
1010
0001
0011
1000
,
1100
0000
0001
0000
0101
0000
1000
0100
,
0010
0000
0001
0001
0000
0100
0000
2020
,
0000
0000
0000
0000
3030
0000
0001
0010
,
0100
0000
1000
1000
0000
0010
0000
0202
,
0000
0000
0000
0000
0303
0000
1000
0100
,
0020
0000
0001
0030
,
0200
0000
1000
0300
,
0020
0032
2003
3200
,
0020
0000
0330
0110
,
0100
0010
0001
0000
0100
0000
0010
0000
,
1000
0100
0010
0000
0001
0000
0100
0000
,
0010
1000
0100
0000
0010
0000
0001
0000
,
0100
0010
1000
0000
0100
0010
0001
0000
,
1000
0010
0100
0000
0001
0000
0010
0000
,
0100
1000
0010
0000
0100
0000
0001
0000
,
0010
0100
1000
0000
0010
0000
0100
0000
,
0001
0010
0100
0000
1000
0010
0100
0000
,
0002
0013
2000
3010
,
0002
0000
1000
1003
,
2000
3100
0002
0103
,
1000
0010
1000
0000
0001
0100
0001
0000
,
1000
0100
1000
0100
0010
0000
0010
0000
,
0001
0010
0001
0010
0100
0000
0100
0000
,
1000
0010
0100
0000
0001
0100
0010
0000
,
1000
0001
1000
0001
0010
0100
0010
0000
,
0110
0000
0000
0000
,
0000
0000
0000
0000
,
1001
1000
0001
1000
,
1001
0000
0001
0000
1000
0000
0001
0100
,
0000
0100
0010
1000
0000
1000
0010
0100
,
0000
0001
0000
1000
0000
0100
0010
0001
,
0000
0100
0200
0000
0000
0310
0000
0010
,
1000
0010
0100
0002
0000
0000
1003
0000
,
1000
0100
0010
0001
0000
0101
0000
2010
,
0000
0000
0100
3100
,
0002
0000
0100
0003
,
2000
0000
0010
3000
,
0002
0000
0010
0003
,
2000
0000
0100
3000
,
0001
0100
0001
1000
,
0010
1000
0001
0100
,
0010
1000
0100
0010
,
2002
0000
3003
1001
,
1000
0010
0100
0000
0001
0000
1000
0000
,
0010
0100
0001
0000
1000
0000
0010
0000
,
0100
0001
1000
0000
0010
0000
0100
0000
,
0001
1000
0010
0000
0100
0001
1000
0000
,
0001
0010
0100
0000
1000
0000
0001
0000
,
0010
0100
1000
0000
0001
0000
0010
0000
,
0100
1000
0001
0000
0010
0000
0100
0000
,
1000
0010
0100
0000
0001
0010
0100
0000
,
1001
0000
0000
0000
,
0000
0000
0000
0110
,
0110
0000
0010
1000
0010
0000
0100
0001
,
0100
0000
0010
1000
0100
0000
0010
0001
,
0100
0000
0010
1000
0001
0000
0100
0001
,
2000
3200
0320
0032
,
0103
0100
0010
0000
1000
0000
0001
0000
,
0010
0010
0100
0000
1000
0000
0001
0000
,
0100
0010
1000
0000
0010
0100
0001
0000
,
1000
1000
0000
0001
0001
0000
0100
0100
,
0110
0000
0010
1000
0100
0000
1000
0000
,
0010
0000
0100
0010
1000
0000
0001
0000
,
0100
0000
0010
0100
0001
0000
0100
0000
,
0010
0000
0100
0001
0010
0000
0001
0000
,
1000
0010
0001
0000
0100
0000
1000
0000
,
0001
0010
1000
0000
0100
0000
0001
0000
,
1000
0100
0010
0100
0010
0001
0100
0000
,
0110
0000
0000
0110
0000
0000
1010
0000
,
1100
0000
0000
1100
0000
0000
0101
0000
,
0011
0000
0000
0011
0000
0000
1001
0000
,
0220
0330
2002
0000
,
3003
0000
0000
0000
;

//---------------dance-double - ----------------
#NOTEDATA:;
#CHARTNAME:;
#STEPSTYPE:dance-double;
#DESCRIPTION:;
#CHARTSTYLE:;
#DIFFICULTY:Medium;
#METER:10;
#RADARVALUES:0.452022,0.550563,0.244695,0.278446,0.000000,375.000000,346.000000,29.000000,33.000000,0.000000,0.000000,0.000000,0.000000,0.000000,0.452022,0.550563,0.244695,0.278446,0.000000,375.000000,346.000000,29.000000,33.000000,0.000000,0.000000,0.000000,0.000000,0.000000;
#CREDIT:MILEN;
#NOTES:
// measure 0
00000000
00000000
00000000
00000000
,  // measure 1
00000000
00000000
00000000
00000000
,  // measure 2
00000000
00000000
00000000
00000000
,  // measure 3
00000000
00000000
00000000
00000000
,  // measure 4
01000000
00010000
01000000
00010000
,  // measure 5
00100000
00001000
00100000
00001000
,  // measure 6
00010000
00000100
00001000
00000010
,  // measure 7
00010000
00001000
01000000
00010000
,  // measure 8
10010000
10000000
01000000
10000000
,  // measure 9
01000000
00010000
00000000
00010000
00001000
00000000
00000010
00000000
,  // measure 10
00001001
00000001
00000100
00000001
,  // measure 11
00000010
00001000
00000000
00001000
00010000
00000000
00100000
00000000
,  // measure 12
10000000
01000000
00100000
00000000
01000000
00000000
00010000
00000000
,  // measure 13
00001000
00010000
00000100
00000000
00001000
00000000
00000100
00000000
,  // measure 14
00000110
00000001
00000100
00001000
,  // measure 15
00011000
00000000
00010000
00000000
00100000
00000000
10000000
00010000
,  // measure 16
01000000
00000000
00001000
00010000
00000000
00000100
00000000
00002002
,  // measure 17
00000000
00000000
00000000
00000000
00003003
00000000
00000001
00001000
,  // measure 18
00000010
00000000
00010000
00001000
00000000
00100000
00000000
20020000
,  // measure 19
00000000
00000000
00000000
00000000
30030000
00000000
10000000
01000000
,  // measure 20
00200000
00000000
00302000
00000000
,  // measure 21
00023000
00000000
00030200
00000000
,  // measure 22
00000320
00000032
00000203
00002300
,  // measure 23
00020000
00000000
00033000
00011000
,  // measure 24
00001000
00010000
00001000
00000000
01000000
00000000
00100000
00000000
,  // measure 25
10000000
00010000
10000000
00000000
00100000
00000000
01000000
00000000
,  // measure 26
00001000
00010000
00001000
00000000
01000000
00000000
00100000
00000000
,  // measure 27
10000000
01000000
10000000
00000000
01000000
00000000
00010000
00000000
,  // measure 28
00001000
00010000
00001000
00000000
00000100
00000000
00000010
00000000
,  // measure 29
00001000
00000001
00001000
00000000
00000010
00000000
00000100
00000000
,  // measure 30
00001000
00010000
00001000
00000000
00000100
00000000
00000010
00000000
,  // measure 31
00001000
00000100
00001000
00000000
00000001
00000000
00000010
00000000
,  // measure 32
00002000
00013000
00020000
00030100
,  // measure 33
00000200
00000000
00000310
00000010
,  // measure 34
00000002
00000103
00002000
00013000
,  // measure 35
00100000
10000000
01000000
00010000
,  // measure 36
00001000
00010000
00001000
00000000
00000010
00000000
00001000
00000000
,  // measure 37
00010000
00001000
00010000
00000000
00100000
00000000
00010000
00000000
,  // measure 38
00001000
00010000
00100000
00000000
00010000
00001000
00000010
00000000
,  // measure 39
00001000
00010000
00001000
00010000
00001000
00010000
00001000
00000000
,  // measure 40
00011000
00000000
00000000
00000000
,  // measure 41
00000000
00000000
00000000
00000000
,  // measure 42
00011000
01000000
00001000
00010000
,  // measure 43
00011000
00000000
00000100
00000000
00010000
00000000
00001000
00010000
,  // measure 44
00000000
00001000
00100000
00010000
00000000
00100000
00001000
00010000
,  // measure 45
00000000
00001000
00000000
00000100
00000000
00000001
00001000
00000001
,  // measure 46
00000000
00000010
00000020
00000000
00000000
00001030
00000000
00001000
,  // measure 47
00010000
00000000
00010000
00200000
00000000
00000000
10300000
00000000
,  // measure 48
10000000
01000000
00100000
01000000
00000000
00010000
00000000
00022000
,  // measure 49
00000000
00030000
00010000
00013000
,  // measure 50
00020000
00000000
00000010
00030000
,  // measure 51
00002000
00000000
00100000
00003000
,  // measure 52
00020000
00000000
00000100
00030000
,  // measure 53
00002000
00000000
01000000
00003000
,  // measure 54
00010000
00100000
10000000
01000000
,  // measure 55
00010000
00001000
00000010
00000001
,  // measure 56
00000100
00001000
00010000
00001000
,  // measure 57
00022000
00000000
00033000
00011000
,  // measure 58
00010000
00000100
00001000
00000000
00000010
00000000
00000100
00000000
,  // measure 59
00000010
00001000
00000100
00000000
00010000
00000000
00001000
00000000
,  // measure 60
00010000
00000100
00001000
00000000
00000010
00000000
00000100
00000000
,  // measure 61
00000001
00000010
00000100
00000000
00010000
00000000
00001000
00000000
,  // measure 62
01000000
00010000
00100000
00000000
00001000
00000000
00100000
00000000
,  // measure 63
00010000
01000000
00100000
00000000
01000000
00000000
00010000
00000000
,  // measure 64
00100000
00001000
00010000
00000000
00001000
00000000
00100000
00000000
,  // measure 65
00010000
01000000
10000000
00000000
01000000
00000000
00100000
00000000
,  // measure 66
00011000
00000000
00000000
00000000
,  // measure 67
00000000
00000000
00000000
00011000
,  // measure 68
00011000
00000000
00010000
00001000
00000010
00000000
00000010
00000001
,  // measure 69
00000100
00000000
00000100
00001000
00010000
00000000
00010000
00100000
,  // measure 70
10000000
00000000
10000000
01000000
00100000
00000000
01000000
00010000
,  // measure 71
00002000
00103000
00020000
00030010
,  // measure 72
00000010
00000010
00001000
00000000
00000100
00000000
00000010
00000000
,  // measure 73
00000001
00000001
00000100
00000000
00001000
00000000
00010000
00000000
,  // measure 74
00100000
00100000
10000000
00000000
01000000
01000000
00010000
00000000
,  // measure 75
00001000
00010000
00000000
00010000
00001000
00000000
00010000
00001000
,  // measure 76
00011000
00000000
00010000
00000100
00000010
00000000
00000001
00000000
,  // measure 77
00000100
00001000
00010000
00011000
,  // measure 78
00001000
00000000
00100000
01000000
10000000
00000000
00100000
00000000
,  // measure 79
00010000
00001000
00011000
00010000
,  // measure 80
00000100
00000010
00000001
00000000
00000100
00000000
00000010
00000000
,  // measure 81
00010000
00001000
00100000
00000000
01000000
00000000
10000000
00000000
,  // measure 82
00100000
01000000
00100000
01000000
00001000
00010000
00001000
00000000
,  // measure 83
00011000
00000000
00000000
00001100
00000000
00000000
00000101
00000000
,  // measure 84
00000011
00000000
00000000
00001010
00000000
00000000
00011000
00000000
,  // measure 85
00110000
00000000
00000000
10100000
00000000
00000000
11000000
00000000
,  // measure 86
02020000
03000000
00002000
00000000
,  // measure 87
00033000
00000000
00000000
00000000
;
