#VERSION:0.83;
#TITLE:After LIKE;
#SUBTITLE:;
#ARTIST:IVE;
#TITLETRANSLIT:;
#SUBTITLETRANSLIT:;
#ARTISTTRANSLIT:;
#GENRE:K-POP;
#ORIGIN:;
#CREDIT:MUINELIM;
#BANNER:After LIKE.png;
#BACKGROUND:After LIKE-bg.png;
#PREVIEWVID:;
#JACKET:After LIKE-jacket.png;
#CDIMAGE:;
#DISCIMAGE:;
#LYRICSPATH:;
#CDTITLE:;
#MUSIC:After LIKE.mp3;
#OFFSET:-0.180000;
#SAMPLESTART:32.850002;
#SAMPLELENGTH:11.959999;
#SELECTABLE:YES;
#DISPLAYBPM:125.000000;
#BPMS:0.000=125.000;
#STOPS:160.000=1.440;
#DELAYS:;
#WARPS:;
#TIMESIGNATURES:0.000=4=4;
#TICKCOUNTS:0.000=4;
#COMBOS:0.000=1;
#SPEEDS:0.000=1.000=0.000=0;
#SCROLLS:0.000=1.000;
#FAKES:;
#LABELS:0.000=Song Start;
#BGCHANGES:0.000=After LIKE.avi=1.000=1=0=0=StretchNoLoop==CrossFade==,
99999=-nosongbg-=1.000=0=0=0 // don't automatically add -songbackground-
;
#KEYSOUNDS:;
#ATTACKS:
;

//---------------dance-single - ----------------
#NOTEDATA:;
#CHARTNAME:;
#STEPSTYPE:dance-single;
#DESCRIPTION:;
#CHARTSTYLE:;
#DIFFICULTY:Beginner;
#METER:2;
#RADARVALUES:0.102914,0.143870,0.050260,0.000000,0.000000,86.000000,80.000000,6.000000,0.000000,0.000000,0.000000,0.000000,0.000000,0.000000,0.102914,0.143870,0.050260,0.000000,0.000000,86.000000,80.000000,6.000000,0.000000,0.000000,0.000000,0.000000,0.000000,0.000000;
#CREDIT:MILEN;
#DISPLAYBPM:125.000000;
#NOTES:
0000
0000
0000
0000
,
0000
0000
0000
0000
,
1000
0000
0000
0000
,
1000
0000
0000
0000
,
1000
0000
0000
0000
,
1000
0000
0000
0000
,
0001
0000
0000
0000
,
0001
0000
0000
0000
,
0001
0000
0000
0000
,
0001
0000
0000
0000
,
1000
0000
0000
0000
,
0001
0000
0000
0000
,
1000
0000
0000
0000
,
0001
0000
0000
0000
,
1000
0000
0000
0000
,
1000
0000
0000
0000
,
0001
0000
0000
0000
,
0001
0000
0000
0000
,
0100
0000
0100
0000
,
0100
0000
0000
0000
,
0010
0000
0010
0000
,
0010
0000
0000
0000
,
0100
0000
0100
0000
,
0010
0000
0010
0000
,
0110
0000
0000
0000
,
1000
0000
0001
0000
,
1000
0000
0100
0000
,
0010
0000
0001
0000
,
0010
0000
0100
0000
,
1000
0000
0001
0000
,
1000
0000
1000
0000
,
0001
0000
0001
0000
,
0100
0000
0010
0000
,
0100
0000
0100
0000
,
0110
0000
0000
0000
,
0000
0000
0000
0000
,
0110
0000
0000
0000
,
0000
0000
0000
0000
,
1000
0000
0000
0000
,
0001
0000
0000
0000
,
1001
0000
0000
0000
,
0000
1000
0000
1000
,
0000
1000
0000
0000
,
0000
0001
0000
0001
,
0000
0001
0000
0000
,
0000
1000
0000
1000
,
0000
0001
0000
0001
,
0000
1001
0000
0000
,
0000
0100
0000
0010
,
0000
0100
0000
0001
,
0000
0010
0000
0100
,
0000
1000
0000
0001
,
0000
1000
0000
0100
,
0000
0010
0000
0001
,
0000
0010
0000
0010
,
0000
0100
0000
0100
,
0000
1000
0000
0001
,
0000
1001
0000
0000
;

//---------------dance-single - ----------------
#NOTEDATA:;
#CHARTNAME:;
#STEPSTYPE:dance-single;
#DESCRIPTION:;
#CHARTSTYLE:;
#DIFFICULTY:Easy;
#METER:4;
#RADARVALUES:0.163944,0.239783,0.092144,0.000000,0.000000,137.000000,126.000000,11.000000,0.000000,0.000000,0.000000,0.000000,0.000000,0.000000,0.163944,0.239783,0.092144,0.000000,0.000000,137.000000,126.000000,11.000000,0.000000,0.000000,0.000000,0.000000,0.000000,0.000000;
#CREDIT:MILEN;
#DISPLAYBPM:125.000000;
#NOTES:
0000
0000
0000
0000
,
0000
0000
0000
0000
,
1000
0000
1000
0000
,
1000
0000
1000
0000
,
0001
0000
0001
0000
,
1001
0000
0000
0000
,
0001
0000
0001
0000
,
0001
0000
0001
0000
,
1000
0000
1000
0000
,
1001
0000
0000
0000
,
0001
0000
1000
0000
,
0001
0000
1000
0000
,
0001
0000
0001
0000
,
1000
0000
1000
0000
,
0001
0000
1000
0000
,
0001
0000
1000
0000
,
0001
0001
1000
1000
,
1001
0000
0001
1000
,
0010
0000
0100
0000
,
0010
0000
0100
0010
,
0100
0000
0010
0000
,
0100
0000
0010
0100
,
0010
0000
0100
0000
,
0010
0000
0100
0100
,
0100
0000
0010
0000
,
0100
0010
0100
0010
,
0110
0000
1000
0000
,
0100
0000
0010
0000
,
0001
0000
0100
0000
,
1000
0000
0001
0000
,
0010
0000
1000
0000
,
0100
0000
0010
0000
,
0001
0000
1000
0000
,
0010
0100
0010
0100
,
0110
0000
0000
0000
,
0000
0000
0000
0000
,
0110
0000
0000
0000
,
0000
0000
0000
0000
,
1000
0000
0001
0000
,
1000
0000
0001
0000
,
1001
0000
0000
0100
,
0100
0100
0001
0100
,
0000
0010
1000
0010
,
0000
1000
0100
1000
,
0000
0001
0010
0001
,
0000
1000
0001
1000
,
0000
0010
0100
0010
,
0100
0110
0000
1001
,
0000
1000
0001
1000
,
0001
1001
0000
0100
,
0000
0001
0000
1000
,
0000
0010
0000
0001
,
0000
0100
0000
1000
,
0000
0001
0000
0010
,
0000
1000
0000
0100
,
0000
0010
0100
0010
,
0000
0001
1000
0001
,
1000
1001
0000
0000
;

//---------------dance-double - ----------------
#NOTEDATA:;
#CHARTNAME:;
#STEPSTYPE:dance-double;
#DESCRIPTION:;
#CHARTSTYLE:;
#DIFFICULTY:Easy;
#METER:4;
#RADARVALUES:0.163944,0.239783,0.092144,0.000000,0.000000,137.000000,126.000000,11.000000,0.000000,0.000000,0.000000,0.000000,0.000000,0.000000,0.163944,0.239783,0.092144,0.000000,0.000000,137.000000,126.000000,11.000000,0.000000,0.000000,0.000000,0.000000,0.000000,0.000000;
#CREDIT:MILEN;
#DISPLAYBPM:125.000000;
#NOTES:
00000000
00000000
00000000
00000000
,
00000000
00000000
00000000
00000000
,
00001000
00000000
00001000
00000000
,
00001000
00000000
00001000
00000000
,
00010000
00000000
00010000
00000000
,
00011000
00000000
00000000
00000000
,
00010000
00000000
00010000
00000000
,
00010000
00000000
00010000
00000000
,
00001000
00000000
00001000
00000000
,
00011000
00000000
00000000
00000000
,
00010000
00000000
00000010
00000000
,
00010000
00000000
00000010
00000000
,
00010000
00000000
00010000
00000000
,
00001000
00000000
00001000
00000000
,
00001000
00000000
00100000
00000000
,
00001000
00000000
00100000
00000000
,
00001000
00001000
00010000
00010000
,
00011000
00000000
00001000
00010000
,
00001000
00000000
01000000
00000000
,
00001000
00000000
01000000
00001000
,
00010000
00000000
00000100
00000000
,
00010000
00000000
00000100
00010000
,
00001000
00000000
00010000
00000000
,
00001000
00000000
00010000
00010000
,
00010000
00000000
00000010
00000000
,
00001000
00000001
00001000
00000001
,
00001001
00000000
00000010
00000000
,
00000100
00000000
00001000
00000000
,
00010000
00000000
00100000
00000000
,
01000000
00000000
00010000
00000000
,
10000000
00000000
01000000
00000000
,
00100000
00000000
00001000
00000000
,
00010000
00000000
00000100
00000000
,
00001000
00000001
00001000
00000001
,
00001001
00000000
00000000
00000000
,
00000000
00000000
00000000
00000000
,
00011000
00000000
00000000
00000000
,
00000000
00000000
00000000
00000000
,
00010000
00000000
10000000
00000000
,
00010000
00000000
10000000
00000000
,
10010000
00000000
00000000
01000000
,
01000000
00001000
00100000
00001000
,
00000000
00010000
00000010
00010000
,
00000000
00001000
01000000
00001000
,
00000000
00010000
00000100
00010000
,
00000000
00001000
00010000
00001000
,
00000000
00010000
00001000
00010000
,
00001000
00011000
00000000
00011000
,
00000000
00010000
00001000
00000100
,
00000010
00000110
00000000
00000001
,
00000000
00000010
00000000
00001000
,
00000000
00010000
00000000
01000000
,
00000000
10000000
00000000
00100000
,
00000000
00010000
00000000
00001000
,
00000000
00000100
00000000
00000001
,
00000000
00000010
00000100
00000010
,
00000000
00001000
00010000
00001000
,
00010000
00011000
00000000
00000000
;

//---------------dance-single - ----------------
#NOTEDATA:;
#CHARTNAME:;
#STEPSTYPE:dance-single;
#DESCRIPTION:;
#CHARTSTYLE:;
#DIFFICULTY:Medium;
#METER:7;
#RADARVALUES:0.319511,0.334963,0.276431,0.050260,0.050260,267.000000,234.000000,33.000000,6.000000,0.000000,0.000000,0.000000,0.000000,0.000000,0.319511,0.334963,0.276431,0.050260,0.050260,267.000000,234.000000,33.000000,6.000000,0.000000,0.000000,0.000000,0.000000,0.000000;
#CREDIT:MILEN;
#DISPLAYBPM:125.000000;
#NOTES:
0000
0000
0000
0000
,
0000
0000
0000
0000
,
1000
0000
0000
1000
0000
0000
0000
0000
0001
0000
0000
0001
0000
0000
0000
0000
,
0100
0000
0000
0100
0000
0000
0000
0000
0010
0000
0000
0010
0000
0000
0000
0000
,
1000
0000
0000
1000
0000
0000
0000
0000
0001
0000
0000
0001
0000
0000
0001
0000
,
1000
0000
0001
0000
0100
0010
0100
0000
,
0001
0000
0000
0001
0000
0000
0000
0000
1000
0000
0000
1000
0000
0000
0000
0000
,
0100
0000
0000
0100
0000
0000
0000
0000
0010
0000
0000
0010
0000
0000
0000
0000
,
0001
0000
0000
0001
0000
0000
0000
0000
1000
0000
0000
1000
0000
0000
1000
0000
,
0001
0000
1000
0000
0100
0010
0100
0000
,
1000
0100
0010
0001
,
1000
0000
0010
0100
0001
0000
1000
0000
,
0001
0000
0100
0010
1000
0000
0001
0000
,
1000
0000
0010
0100
0001
0000
1000
0000
,
0001
0100
0010
1000
,
0001
0000
0010
0100
1000
0000
0001
0000
,
1000
0000
0100
0010
0001
0000
1000
0000
,
1001
0000
0010
0100
0000
0010
0000
0010
,
0100
0000
0101
0000
0011
0000
0010
0001
,
0000
0100
0000
0001
0010
0100
0000
0110
,
0000
0000
1100
0000
1010
0000
0010
1000
,
0000
0100
0000
1000
0010
0100
0000
0110
,
0000
0000
0101
0000
1010
0000
1000
0100
,
0000
0010
0000
0001
0100
0010
0000
0220
,
0000
0000
0000
0330
,
1001
0000
0010
1000
0000
0001
0000
1000
,
0100
0010
0001
0100
,
0010
0000
1000
0010
0100
0000
0001
0100
,
0010
1000
0001
0010
,
0100
1000
0010
0000
0100
0001
0010
0000
,
0001
0101
1000
1100
,
0001
0011
1000
1010
,
0001
0010
0100
0000
1000
0010
0100
0000
,
0001
0000
1000
0100
0000
0010
0000
0001
,
0100
0000
0010
0000
,
0100
0000
0010
0000
,
1001
0000
0010
0000
,
0100
0000
0010
0000
,
1001
0000
0010
0000
,
0100
0000
0010
0000
,
1001
0220
0000
0000
,
0330
0110
1010
0011
,
0001
0100
0000
1000
0000
0100
0010
1000
,
0000
1001
0000
0000
0011
0000
1010
0000
,
1000
0100
0000
0001
0000
0100
0010
0001
,
0000
1001
0000
0000
1100
0000
0011
0000
,
0001
0100
0000
1000
0000
0010
0001
0100
,
0000
0220
0000
0000
0000
0000
0000
0000
,
0330
0000
1001
0000
0001
0100
0000
1000
,
0010
0000
0001
0000
1000
0000
0010
0100
,
0001
0000
1000
0000
0001
0000
0100
0010
,
1000
0000
0001
0000
1000
0000
0100
0010
,
0001
0000
1000
0000
0001
0000
0010
0100
,
1000
0010
0001
0100
,
1000
0000
0010
0100
0001
1000
0010
0100
,
0001
1000
0100
0000
0010
0000
0001
0000
,
1000
0000
1100
0000
0001
0010
0000
0011
,
0000
0110
0000
0000
0000
0000
0000
0000
;

//---------------dance-double - ----------------
#NOTEDATA:;
#CHARTNAME:;
#STEPSTYPE:dance-double;
#DESCRIPTION:;
#CHARTSTYLE:;
#DIFFICULTY:Medium;
#METER:7;
#RADARVALUES:0.317117,0.334963,0.318314,0.050260,0.050260,265.000000,227.000000,38.000000,6.000000,0.000000,0.000000,0.000000,0.000000,0.000000,0.317117,0.334963,0.318314,0.050260,0.050260,265.000000,227.000000,38.000000,6.000000,0.000000,0.000000,0.000000,0.000000,0.000000;
#CREDIT:MILEN;
#DISPLAYBPM:125.000000;
#NOTES:
00000000
00000000
00000000
00000000
,
00000000
00000000
00000000
00000000
,
00001000
00000000
00000000
00001000
00000000
00000000
00000000
00000000
01000000
00000000
00000000
01000000
00000000
00000000
00000000
00000000
,
00001000
00000000
00000000
00001000
00000000
00000000
00000000
00000000
00100000
00000000
00000000
00100000
00000000
00000000
00000000
00000000
,
00001000
00000000
00000000
00001000
00000000
00000000
00000000
00000000
00010000
00000000
00000000
00010000
00000000
00000000
00010000
00000000
,
00001000
00000000
00000010
00000000
00000001
00000100
00001000
00000000
,
00010000
00000000
00000000
00010000
00000000
00000000
00000000
00000000
00000100
00000000
00000000
00000100
00000000
00000000
00000000
00000000
,
00010000
00000000
00000000
00010000
00000000
00000000
00000000
00000000
00000010
00000000
00000000
00000010
00000000
00000000
00000000
00000000
,
00010000
00000000
00000000
00010000
00000000
00000000
00000000
00000000
00001000
00000000
00000000
00001000
00000000
00000000
00001000
00000000
,
00010000
00000000
00100000
00000000
10000000
01000000
00010000
00000000
,
00001000
00100000
00010000
01000000
,
00001000
00010000
00011000
00000010
,
00010000
00001000
00011000
00100000
,
00001000
00010000
00011000
00000100
,
00010000
00001000
00000100
00000001
,
00000010
00000100
00000110
00000010
,
00001000
00010000
00011000
00001000
,
00100000
00000000
00010000
01000000
00000000
00100000
00000000
10000000
,
01000000
00000000
01100000
00000000
01100000
00000000
00100000
00010000
,
00000000
01000000
00000000
00001000
00010000
00001000
00000000
00011000
,
00000000
00000000
00010100
00000000
00010100
00000000
00000100
00001000
,
00000000
00000100
00000000
00000010
00000001
00000010
00000000
00000110
,
00000000
00000000
00001100
00000000
00001100
00000000
00000100
00010000
,
00000000
00001000
00000000
00100000
00010000
01000000
00000000
02200000
,
00000000
00000000
00000000
03300000
,
10010000
00000000
10000000
01000000
00000000
00100000
00000000
01000000
,
00010000
00001000
00000010
00000001
,
00000100
00000000
00000010
00001000
00000010
00000000
00010000
00001000
,
00010000
00000100
00000010
00001000
,
00010000
00001000
00010000
00000000
00100000
10000000
00100000
00000000
,
10000000
11000000
00010000
01010000
,
00001000
00011000
00000100
00001100
,
00001000
00000001
00001000
00000000
00000010
00000100
00000010
00000000
,
00000100
00000000
00000001
00000010
00000000
00001000
00000000
00010000
,
00001000
00000000
00010000
00000000
,
00001000
00000000
00010000
00000000
,
00010010
00000000
00001000
00000000
,
00010000
00000000
00001000
00000000
,
00101000
00000000
00010000
00000000
,
00001000
00000000
00010000
00000000
,
00011000
00022000
00000000
00000000
,
00033000
00011000
00010010
00010010
,
00000010
00001000
00000000
00000100
00000000
00000010
00000001
00000010
,
00000000
00000011
00000000
00000000
00001100
00000000
00001100
00000000
,
00000100
00010000
00000000
00001000
00000000
00100000
01000000
00100000
,
00000000
01100000
00000000
00000000
11000000
00000000
11000000
00000000
,
10000000
00100000
00000000
00010000
00000000
00001000
00010000
00001000
,
00000000
00022000
00000000
00000000
00000000
00000000
00000000
00000000
,
00033000
00000000
00011000
00000000
00001000
00000100
00000000
00000001
,
00000010
00000000
00000100
00000000
00001000
00000000
00000100
00010000
,
00001000
00000000
00100000
00000000
00010000
00000000
00100000
01000000
,
10000000
00000000
00100000
00000000
01000000
00000000
00001000
00010000
,
00000100
00000000
00001000
00000000
00000010
00000000
00000100
00000001
,
00000010
00001000
00010000
01000000
,
10000000
00000000
00100000
00010000
00001000
00000000
00010000
00001000
,
00000100
00000101
00000001
00001000
,
00000010
00000000
00010010
00000000
00010000
00001000
00000000
00101000
,
00000000
01100000
00000000
00000000
00000000
00000000
00000000
00000000
;

//---------------dance-single - ----------------
#NOTEDATA:;
#CHARTNAME:;
#STEPSTYPE:dance-single;
#DESCRIPTION:;
#CHARTSTYLE:;
#DIFFICULTY:Hard;
#METER:11;
#RADARVALUES:0.423621,0.529825,0.192664,0.242924,0.184287,354.000000,331.000000,23.000000,29.000000,0.000000,0.000000,0.000000,0.000000,0.000000,0.423621,0.529825,0.192664,0.242924,0.184287,354.000000,331.000000,23.000000,29.000000,0.000000,0.000000,0.000000,0.000000,0.000000;
#CREDIT:MILEN;
#DISPLAYBPM:125.000000;
#NOTES:
0000
0000
0000
0000
,
0000
0000
0000
0000
,
1000
0000
0000
1000
0000
0000
1000
0000
0010
0000
0000
0010
0000
0000
0010
0000
,
0100
0000
0000
0100
0000
0000
0100
0000
0001
0000
0000
0001
0000
0000
0001
0000
,
0010
0000
0000
0010
0000
0000
0010
0000
0100
0000
0000
0100
0000
0000
0100
0000
,
0110
0000
0001
1000
0100
0010
0001
1000
,
0010
0000
0000
0010
0000
0000
0010
0000
0100
0000
0000
0100
0000
0000
0100
0000
,
0001
0000
0000
0001
0000
0000
0001
0000
1000
0000
0000
1000
0000
0000
1000
0000
,
0100
0000
0000
0100
0000
0000
0100
0000
0010
0000
0000
0010
0000
0000
0010
0000
,
0110
0000
1000
0010
0100
0001
1000
0100
,
0020
0001
0000
0031
,
0200
0010
0000
0310
,
2000
0100
0000
3100
,
0002
1000
0000
1003
,
1010
0001
0011
1000
,
1100
0001
0101
1000
,
0001
0010
0100
1000
0001
0010
0100
1000
,
0020
0000
0100
0230
0000
0310
0110
0000
,
1001
0000
0000
1000
0010
0000
0000
0100
0001
0000
0000
0010
0100
0000
0020
0000
,
0000
0001
0000
0130
0010
0001
1000
0100
,
0010
0000
0000
0001
0100
0000
0000
0010
1000
0000
0000
0100
0010
0000
0200
0000
,
0000
1000
0000
0310
0100
1000
0001
0010
,
0100
0000
0000
1000
0010
0000
0000
0001
0100
0000
0000
1000
0001
0000
0020
0000
,
0000
1000
0000
0031
0100
1000
0001
0010
,
2000
3100
0002
0013
,
0110
0000
1000
0010
0000
0001
0100
1000
,
1000
0000
0010
0000
0100
0000
0010
1000
0000
0000
0010
0000
0100
0000
0010
1000
,
0000
0100
0010
0001
1000
0100
0010
0011
,
0000
0010
0100
1000
0001
0010
0100
1100
,
0000
0000
1000
0001
1000
0000
0010
0000
0100
0000
0001
0000
0010
0000
0100
0000
,
1000
0010
0000
1000
0001
0000
1000
0000
0100
0000
0000
0000
0110
0000
0010
0000
,
0001
0100
0000
0001
1000
0000
0001
0000
0010
0000
0000
0000
0110
0000
0100
0000
,
1000
0010
0000
0100
0010
0000
0100
0000
0001
0000
0000
0000
0010
0000
0100
0000
,
1000
0010
0001
1000
0100
0001
0010
0100
,
2100
0010
0000
0001
,
0000
0010
0000
3001
,
0102
0010
0000
1000
,
0000
0010
0000
1003
,
0210
0001
0000
1000
,
0000
0010
0000
0301
,
1001
0000
0200
0000
0010
0320
0000
0130
,
0110
0000
0000
0000
1001
0000
0000
0001
0010
0000
0000
0100
1000
0000
0000
0010
,
0100
0020
0000
1000
0000
0130
0010
1000
,
0001
0000
0100
0000
0010
0000
0000
1000
0100
0000
0000
0010
0001
0000
0000
0100
,
0010
0200
0000
0001
0000
0310
0100
0001
,
1000
0000
0010
0000
0100
0000
0000
0001
0010
0000
0000
1000
0100
0000
0000
0001
,
1000
0020
0000
0001
0000
1030
0100
0001
,
1000
0010
0002
0000
0103
0000
2000
0000
,
3010
0000
0110
0000
0001
0010
0000
1000
,
0100
0001
0020
0000
0230
0000
1300
0001
,
0010
0100
2000
0000
3002
0000
0103
0010
,
1000
0001
0020
0000
0230
0000
1300
0001
,
0100
0000
0010
1000
0010
0000
0100
0001
0100
0000
0001
0010
0001
0000
1000
0100
,
1000
0000
0010
0100
0010
0000
1000
0000
0100
0000
0010
0000
0001
0000
1000
0000
,
0010
0100
0001
0010
1000
0001
0100
1000
,
0010
0001
1000
0100
0001
0100
1000
0100
,
0001
0010
1100
0000
1000
0010
0000
0011
,
0000
0202
0000
0000
0303
0000
0000
0000
;

//---------------dance-double - ----------------
#NOTEDATA:;
#CHARTNAME:;
#STEPSTYPE:dance-double;
#DESCRIPTION:;
#CHARTSTYLE:;
#DIFFICULTY:Hard;
#METER:11;
#RADARVALUES:0.418834,0.481659,0.309937,0.351821,0.108897,350.000000,313.000000,37.000000,42.000000,0.000000,0.000000,0.000000,0.000000,0.000000,0.418834,0.481659,0.309937,0.351821,0.108897,350.000000,313.000000,37.000000,42.000000,0.000000,0.000000,0.000000,0.000000,0.000000;
#CREDIT:MILEN;
#DISPLAYBPM:125.000000;
#NOTES:
00000000
00000000
00000000
00000000
,
00000000
00000000
00000000
00000000
,
00010000
00000000
00000000
00001000
00000000
00000000
00010000
00000000
00000010
00000000
00000000
00001000
00000000
00000000
00000010
00000000
,
00000100
00000000
00000000
00000001
00000000
00000000
00000100
00000000
00001000
00000000
00000000
00010000
00000000
00000000
00001000
00000000
,
00100000
00000000
00000000
00010000
00000000
00000000
00100000
00000000
01000000
00000000
00000000
10000000
00000000
00000000
01000000
00000000
,
01100000
00000000
00010000
10000000
01000000
00100000
00010000
01000000
,
00001000
00000000
00000000
00010000
00000000
00000000
00001000
00000000
00100000
00000000
00000000
00010000
00000000
00000000
00100000
00000000
,
01000000
00000000
00000000
10000000
00000000
00000000
01000000
00000000
00010000
00000000
00000000
00001000
00000000
00000000
00010000
00000000
,
00000010
00000000
00000000
00001000
00000000
00000000
00000010
00000000
00000100
00000000
00000000
00000001
00000000
00000000
00000100
00000000
,
00000110
00000000
00001000
00000001
00000100
00000010
00001000
00000100
,
00020000
00000010
00000000
00030010
,
00002000
00100000
00000000
00103000
,
00020000
00000100
00000000
00030100
,
00002000
01000000
00000000
01003000
,
00010100
00001000
00101000
00010000
,
00010010
00001000
01001000
00010000
,
00001000
00000100
00000001
00000010
00001000
00010000
01000000
10000000
,
00200000
00000000
01000000
02300000
00000000
03100000
01100000
00000000
,
10010000
00000000
00000000
00000000
11000000
00000000
00000000
00000000
01010000
00000000
00000000
00000000
00010000
00001000
00020000
00000000
,
00000000
00000100
00000000
00030100
00000010
00000001
00001000
00000001
,
00001001
00000000
00000000
00000000
00000101
00000000
00000000
00000000
00001100
00000000
00000000
00000000
00001000
00010000
00002000
00000000
,
00000000
00100000
00000000
00103000
01000000
10000000
00010000
10000000
,
10010000
00000000
00000000
00000000
10100000
00000000
00000000
00000000
00110000
00000000
00000000
00000000
00010000
00001000
00020000
00000000
,
00000000
00000010
00000000
00030010
00001000
00000100
00000010
00000001
,
00000200
00002300
00023000
00230000
,
10300000
00000000
10000000
01000000
00000000
00010000
00001000
00010000
,
00000100
00000000
00001000
00000000
00000100
00000000
00000010
00000001
00000010
00000000
00000100
00000000
00001000
00000000
00000100
00000010
,
00000100
00001000
00000010
00010000
00001000
00100000
00010000
01010000
,
00000000
01000000
00100000
10000000
00010000
01000000
00001000
00011000
,
00000000
00000000
00010000
00001000
00010000
00000000
00000100
00000000
00001000
00000000
00000100
00000000
00000010
00000000
00000001
00000000
,
00000100
00001000
00010000
01000000
10000000
00000000
10100000
00100000
,
00010000
00001000
00000100
00000001
00000010
00000000
00000110
00000100
,
00010000
00001000
00100000
01000000
10000000
00000000
00100000
00010000
,
00001000
00000100
00000001
00000010
00001000
00010000
00100000
10000000
,
12000000
03020000
00000000
00032000
,
00000000
00003200
00000000
00000301
,
00000021
00002030
00000000
00023000
,
00000000
02030000
00000000
13000000
,
10200000
00320000
00000000
00032000
,
00000000
00003200
00000000
00000301
,
00001001
00000000
00000200
00000000
00000010
00000320
00000000
00000130
,
00000110
00001001
00000101
00001100
,
00001000
00010000
00002000
00000000
00000000
00000000
01000000
00000000
00000000
00000000
01003000
00000000
00100000
00000000
10000000
00000000
,
00010000
10000000
10010000
00000000
11000000
00000000
01010000
00000000
,
00010000
00001000
00020000
00000000
00000000
00000000
00000010
00000000
00000000
00000000
00030010
00000000
00000100
00000000
00000001
00000000
,
00001000
00000001
00001001
00000000
00000011
00000000
00001010
00000000
,
00001000
00010000
00002000
00000000
00000000
00000000
00100000
00000000
00000000
00000000
00103000
00000000
00010000
00000000
01000000
00000000
,
00100000
10000000
02000000
00000000
03020000
00000000
00032000
00000000
,
00003020
00000000
00000031
00000000
00000001
00000100
00000000
00001000
,
00010000
00001000
00200000
00000000
02300000
00000000
13000000
00100000
,
00010000
00001000
00000200
00000000
00000320
00000000
00001030
00000100
,
00000010
00000001
00000200
00000000
00002300
00000000
00013000
00100000
,
10000000
00000000
00000000
10000000
01000000
00000000
00000000
01000000
00010000
00000000
00000000
00010000
00001000
00000000
00000000
00001000
,
00000010
00000000
00000000
00000010
00000001
00000000
00000100
00000000
00000010
00000000
00001000
00000000
00000100
00000000
00010000
00000000
,
00001000
00100000
00010000
01000000
00100000
10000000
01000000
00010000
,
00001000
00000010
00000001
00000100
00001000
00010000
00001000
00000100
,
00001000
00010000
00011000
00000000
00001000
01000000
00000000
00011000
,
00000000
00020200
00000000
00000000
00030300
00000000
00000000
00000000
;

//---------------dance-single - ----------------
#NOTEDATA:;
#CHARTNAME:;
#STEPSTYPE:dance-single;
#DESCRIPTION:;
#CHARTSTYLE:;
#DIFFICULTY:Challenge;
#METER:14;
#RADARVALUES:0.587564,0.650240,0.385327,0.251300,0.452341,491.000000,445.000000,46.000000,30.000000,0.000000,0.000000,0.000000,0.000000,0.000000,0.587564,0.650240,0.385327,0.251300,0.452341,491.000000,445.000000,46.000000,30.000000,0.000000,0.000000,0.000000,0.000000,0.000000;
#CREDIT:MILEN;
#DISPLAYBPM:125.000000;
#NOTES:
// measure 0
0000
0000
0000
0000
,  // measure 1
0000
0000
0000
0000
0000
0000
0000
0001
,  // measure 2
0100
0001
0000
0100
0000
0000
0001
0000
0010
0001
0000
0010
0000
0000
0001
0000
,  // measure 3
0100
0001
0000
0100
0000
0000
0001
0000
1000
0001
0000
1000
0000
0000
0001
0000
,  // measure 4
0100
0001
0000
0100
0000
0000
0001
0000
0010
0001
0000
0010
0000
0000
0001
0000
,  // measure 5
2002
3003
1000
0010
0100
0001
0010
0100
,  // measure 6
1000
0010
0000
0100
0000
0000
0010
0000
0100
0001
0000
0010
0000
0000
0100
0000
,  // measure 7
0010
0100
0000
1000
0000
0000
0010
0000
0100
0010
0000
0001
0000
0000
0010
0000
,  // measure 8
0100
0001
0000
0010
0000
0000
0100
0000
1000
0010
0000
0100
0000
0000
0001
0000
,  // measure 9
1001
0000
1000
0010
0000
0100
0001
0000
0010
0000
0100
0000
1000
0000
0010
0000
,  // measure 10
0110
0000
0100
0000
0001
0000
1000
0010
0000
0010
0000
0000
1000
0000
0100
0000
,  // measure 11
0010
0000
0001
0000
0100
0000
0010
0100
0020
0000
0000
0000
1030
0000
0001
0000
,  // measure 12
0010
0000
0100
0000
1000
0000
0001
0100
0000
0100
0000
0000
0010
0000
1000
0000
,  // measure 13
0100
0000
0010
0000
0001
0000
0100
0010
0200
0000
0000
0000
0301
0000
1000
0000
,  // measure 14
1010
0010
0100
0001
0101
0100
0010
1000
,  // measure 15
1100
0100
0010
0001
0011
0010
0100
1000
,  // measure 16
0001
0100
0001
0000
1000
0010
1000
0000
0001
0010
0001
0000
1000
0100
1000
0000
,  // measure 17
0001
1000
0001
1000
0001
1000
0001
1000
0001
1000
0001
2000
0002
0000
3003
0000
,  // measure 18
1001
0000
0000
0001
0100
0000
0000
1000
0100
0000
0000
0001
0100
0000
0110
0000
,  // measure 19
0010
1010
1000
1100
0100
0010
0001
0100
,  // measure 20
0010
0000
0000
1000
0010
0000
0000
0001
0010
0000
0000
1000
0010
0000
0110
0000
,  // measure 21
0100
0101
0001
0011
0010
0100
1000
0010
,  // measure 22
0100
0000
0000
0001
0100
0000
0000
1000
0010
0000
0000
0001
0100
0000
0110
0000
,  // measure 23
0010
1010
1000
1001
0001
0101
0100
0110
,  // measure 24
0020
1030
0200
0301
,  // measure 25
0001
0010
1000
0001
0100
1000
0010
0100
,  // measure 26
0110
0000
0010
0000
1000
0000
0100
0010
0100
0000
0010
0000
0001
0000
0100
0010
,  // measure 27
0100
0000
0010
1000
0010
0000
0100
0001
0000
0010
0001
0010
0001
0010
0200
0000
,  // measure 28
0000
0000
1300
0010
0100
0000
0001
0100
0000
0001
1000
0001
1000
0000
0020
0000
,  // measure 29
0000
0000
1030
0100
1000
0100
0010
0001
0000
0100
0010
0100
0001
0010
0001
0010
,  // measure 30
0100
1000
0000
0010
1000
0000
0100
0000
0220
0000
0330
0000
0010
0000
0100
0000
,  // measure 31
0010
0001
0000
0100
0001
0000
0010
0000
0220
0000
0330
0000
0100
0000
0010
0000
,  // measure 32
0100
1000
0000
0001
0010
0000
0100
0000
2002
0000
3003
0000
1000
0000
0001
0000
,  // measure 33
0100
1000
0000
0001
0010
0000
1000
0000
0100
0000
0010
0000
0001
0000
0000
0000
,  // measure 34
2001
0010
0000
0100
,  // measure 35
0000
0010
0000
3100
,  // measure 36
1002
0010
0000
0100
,  // measure 37
0000
0010
0000
0103
,  // measure 38
0120
0001
0000
1030
,  // measure 39
0210
1000
0000
0301
,  // measure 40
1001
0000
0000
0000
0010
0100
0010
0100
0010
0100
0010
0100
0010
0100
0010
0200
,  // measure 41
0020
0000
0330
0000
0110
0000
0000
0010
1000
0000
0000
0100
0001
0000
0000
0010
,  // measure 42
1000
1100
0100
0110
0010
0011
0001
0100
,  // measure 43
1000
0000
0100
0000
0001
0000
0000
0010
0001
0000
0000
0100
1000
0000
0000
0010
,  // measure 44
0001
0101
0100
0110
0010
1010
1000
0100
,  // measure 45
0001
0000
0100
0000
1000
0000
0000
0010
1000
0000
0000
0100
0001
0000
0000
0010
,  // measure 46
0100
0110
0010
0011
0001
0101
0100
1100
,  // measure 47
1000
1010
0020
0000
0130
0000
2000
0000
,  // measure 48
3001
0000
0001
0010
1000
0001
0100
1000
,  // measure 49
0010
0000
0100
0000
0001
0010
0001
0000
0100
0000
1000
0000
0100
0000
0001
0000
,  // measure 50
0010
0000
0100
0000
1000
0100
1000
0000
0010
0000
0001
0000
0010
0000
1000
0000
,  // measure 51
0100
0000
0010
0000
0001
0100
0001
0000
1000
0000
0001
0100
0001
0000
1000
0000
,  // measure 52
0010
0000
0100
0001
0010
0000
0010
0100
1000
0000
0001
0010
0100
0000
0100
1000
,  // measure 53
0010
0100
0110
0010
1000
0100
0001
1000
,  // measure 54
0010
0000
0001
0000
0100
0010
0100
0010
1000
0001
1000
0001
0100
0010
1000
0001
,  // measure 55
0010
0100
1000
0010
0200
0000
0301
0000
0020
0000
1030
0000
0002
0000
0013
0000
,  // measure 56
2000
3100
0110
0001
0100
1010
0001
0110
,  // measure 57
1100
0202
0000
0000
0303
0000
0000
0000
;

//---------------dance-double - ----------------
#NOTEDATA:;
#CHARTNAME:;
#STEPSTYPE:dance-double;
#DESCRIPTION:;
#CHARTSTYLE:;
#DIFFICULTY:Challenge;
#METER:14;
#RADARVALUES:0.550468,0.626157,0.259677,0.293184,0.393704,460.000000,429.000000,31.000000,35.000000,0.000000,0.000000,0.000000,0.000000,0.000000,0.550468,0.626157,0.259677,0.293184,0.393704,460.000000,429.000000,31.000000,35.000000,0.000000,0.000000,0.000000,0.000000,0.000000;
#CREDIT:MILEN;
#DISPLAYBPM:125.000000;
#NOTES:
00000000
00000000
00000000
00000000
,
00000000
00000000
00000000
00000000
00000000
00000000
00000000
00010000
,
00001000
00010000
00000000
00001000
00000000
00000000
00010000
00000000
00000100
00010000
00000000
00001000
00000000
00000000
00010000
00000000
,
00000010
00010000
00000000
00001000
00000000
00000000
00010000
00000000
00000100
00010000
00000000
00001000
00000000
00000000
00010000
00000000
,
00001000
00010000
00000000
00001000
00000000
00000000
00010000
00000000
00000100
00010000
00000000
00001000
00000000
00000000
00010000
00000000
,
00020020
00030030
00000010
00001000
00000100
00000010
00000001
00000100
,
00001000
00010000
00000000
00001000
00000000
00000000
00100000
00000000
00001000
00010000
00000000
00001000
00000000
00000000
01000000
00000000
,
00001000
00010000
00000000
00001000
00000000
00000000
00100000
00000000
00001000
00010000
00000000
00001000
00000000
00000000
00010000
00000000
,
00001000
00010000
00000000
00001000
00000000
00000000
00000100
00000000
00001000
00010000
00000000
00001000
00000000
00000000
00100000
00000000
,
00101000
00000000
00001000
00010000
00000000
00010000
00001000
00000000
00100000
00000000
01000000
00000000
10000000
00000000
00100000
00000000
,
01100000
01000000
00010000
00100000
01000000
10000000
00100000
00010000
,
00001000
00000100
00000001
00000010
00000200
00000000
00000310
00000001
,
00000100
00001000
00010000
00001000
00000100
00001000
00010000
01000000
,
00010000
00001000
00010000
00100000
02000000
00000000
03100000
10000000
,
11000000
01000000
00100000
00010000
00110000
00100000
00001000
00010000
,
00011000
00001000
00010000
00000010
00001010
00001000
00000010
00000100
,
00000101
00000001
00000010
00001000
00010000
01000000
10000000
00100000
,
00010000
00001000
00010000
00001000
00010000
00001000
00010000
00001000
00010000
00001000
00010000
00002000
00020000
00000000
00033000
00000000
,
00011000
00000000
00000000
00010000
00001000
00000000
00000000
00001000
00000100
00000000
00000000
00000100
00000001
00000000
00000011
00000000
,
00000010
00000100
00001000
00000100
00000010
00000001
00000100
00001000
,
00011000
00000000
00000000
00001000
00010000
00000000
00000000
00010000
01000000
00000000
00000000
01000000
10000000
00000000
10100000
00000000
,
00100000
01000000
00010000
01000000
00100000
10000000
01000000
00010000
,
00011000
00000000
00000000
00001000
00000010
00000000
00000000
00000010
00000001
00000000
00000000
00000001
00000100
00000000
00001100
00000000
,
00001000
00000100
00000010
00010000
00001000
01000000
00100000
00010000
,
00002000
01003000
00020000
00030010
,
00010000
00001000
00000010
00001000
00010000
00100000
00010000
00001000
,
00011000
00000000
00010000
00000000
00001000
00000000
00000100
00000001
00000000
00000000
00000001
00000000
00000010
00000000
00001000
00010000
,
00000000
00000000
00001000
00010000
00001000
00000000
00100000
00010000
00000000
01000000
00100000
01000000
00100000
01000000
00200000
00000000
,
00000000
00000000
10300000
01000000
00100000
00000000
00010000
00100000
00000000
00001000
00010000
00001000
00010000
00000000
00000200
00000000
,
00000000
00000000
00001300
00000010
00001000
00000100
00001000
00000001
00000000
00000100
00000010
00000100
00000010
00000000
00001000
00000100
,
00000010
00000001
00000000
00000100
00001000
00000000
00010000
00000000
00200000
00000000
00000000
00000000
10300000
00000000
10000000
00000000
,
00100000
10000000
00000000
01000000
00010000
00000000
00001000
00000000
00000020
00000000
00000000
00000000
00000031
00000000
00000001
00000000
,
00000100
00001000
00000000
00010000
00100000
00000000
10000000
00000000
00020000
00000000
00000000
00000000
01030000
00000000
01000000
00000000
,
00100000
00010000
00000000
00001000
00000100
00000000
00000010
00000000
00001000
00000000
00000100
00000000
00000010
00000000
00000000
00000000
,
00000012
00000203
00000000
00020300
,
00000000
02030000
00000000
03100000
,
20100000
32000000
00000000
03002000
,
00000000
00003200
00000000
00000310
,
00002001
00003020
00000000
00010030
,
00012000
02003000
00000000
03100000
,
01100000
00000000
00000000
00000000
10000000
00010000
10000000
00010000
10000000
00010000
10000000
00010000
10000000
00010000
10000000
00020000
,
20000000
00000000
30030000
00000000
10010000
00000000
00000000
00100000
10000000
00000000
00000000
01000000
00010000
00000000
00000000
00001000
,
00000010
00000011
00001000
00000100
00000001
00000100
00010000
00001000
,
00000100
00000000
00000001
00000000
00001001
00000000
00000000
00000010
00000001
00000000
00000000
00000100
00001000
00000000
00000000
00010000
,
00100000
10100000
00010000
01000000
10000000
01000000
00001000
00010000
,
01000000
00000000
10000000
00000000
10010000
00000000
00000000
01000000
00100000
00000000
00000000
00010000
00001000
00000000
00000000
00000100
,
00000010
00001001
00000001
00000100
00001000
00010000
01000000
10000000
,
00100000
00010000
00002000
00000000
00103000
00000000
00020000
00000000
,
00030100
00000000
00000100
00000010
00000001
00001000
00000100
00000010
,
00000001
00000100
00001000
00010000
01000000
10000000
00100000
01000000
,
10000000
00010000
00100000
00001000
00000010
00010000
00001000
01000000
,
00010000
00000000
00000100
00000000
00000001
00000000
00000010
00000000
00000100
00000000
00001000
00000001
00001000
00000000
00000010
00000000
,
00000100
00000000
00000001
00000010
00001000
00000000
00000010
00001000
00010000
00000000
00001000
00010000
00100000
00000000
00010000
00100000
,
10000000
01000000
01100000
00100000
00001000
00010000
00000100
00000010
,
00000001
00000000
00000100
00000000
00001000
00010000
00001000
00010000
01000000
00100000
01000000
00100000
00001000
00010000
00001000
00010000
,
00100000
01000000
00100000
01000000
00200000
00000000
00000000
00000000
20300000
00000000
00000000
00000000
32000000
00000000
00000000
00000000
,
03020000
00000000
00031000
00000100
00000001
00000011
00000100
00001100
,
00011000
02002000
00000000
00000000
03003000
00000000
00000000
00000000
;
