#VERSION:0.83;
#TITLE:Acquire;
#SUBTITLE:;
#ARTIST:ryhki;
#TITLETRANSLIT:;
#SUBTITLETRANSLIT:;
#ARTISTTRANSLIT:;
#GENRE:VARIETY;
#ORIGIN:;
#CREDIT:MUINELIM;
#BANNER:Acquire.png;
#BACKGROUND:Acquire-bg.png;
#PREVIEWVID:;
#JACKET:Acquire-jacket.png;
#CDIMAGE:;
#DISCIMAGE:;
#LYRICSPATH:;
#CDTITLE:;
#MUSIC:Acquire.ogg;
#OFFSET:-0.096000;
#SAMPLESTART:83.884018;
#SAMPLELENGTH:11.939999;
#SELECTABLE:YES;
#DISPLAYBPM:155.000000;
#BPMS:0.000=155.000,
36.000=77.500,
38.000=155.000,
102.000=77.500,
135.000=155.000,
166.000=77.500,
168.000=155.000,
264.000=77.500;
#STOPS:36.000=1.548,
102.000=2.323,
149.000=0.387,
166.000=1.548;
#DELAYS:;
#WARPS:;
#TIMESIGNATURES:0.000=4=4;
#TICKCOUNTS:0.000=4;
#COMBOS:0.000=1;
#SPEEDS:0.000=1.000=0.000=0;
#SCROLLS:0.000=1.000;
#FAKES:;
#LABELS:0.000=Song Start;
#BGCHANGES:0.000=Acquire.avi=1.000=1=0=0=StretchNoLoop==CrossFade==,
99999=-nosongbg-=1.000=0=0=0 // don't automatically add -songbackground-
;
#KEYSOUNDS:;
#ATTACKS:
;

//---------------dance-single - ----------------
#NOTEDATA:;
#CHARTNAME:;
#STEPSTYPE:dance-single;
#DESCRIPTION:;
#CHARTSTYLE:;
#DIFFICULTY:Beginner;
#METER:4;
#RADARVALUES:0.148919,0.231047,0.046676,0.054456,0.000000,134.000000,128.000000,6.000000,7.000000,0.000000,0.000000,0.000000,0.000000,0.000000,0.148919,0.231047,0.046676,0.054456,0.000000,134.000000,128.000000,6.000000,7.000000,0.000000,0.000000,0.000000,0.000000,0.000000;
#CREDIT:MILEN;
#DISPLAYBPM:155.000000;
#NOTES:
0000
0000
0000
0000
,
0000
0000
0000
0000
,
0000
0000
0000
0000
,
0000
0000
0000
0000
,
0000
0000
0000
0000
,
0010
0000
0000
0000
,
0010
0000
0000
0000
,
0010
0000
0010
0000
,
0010
0010
0010
0000
,
1001
0000
1000
0000
,
1000
0000
1000
0000
,
1000
0000
0001
0000
,
0001
0000
0001
0000
,
0001
0000
1000
0000
,
1000
0000
0001
0000
,
0001
0000
1000
0000
,
0001
0000
1000
0000
,
0001
0000
0100
0100
,
0000
0000
0010
0010
,
0000
0000
0100
0100
,
0000
0000
0010
0010
,
0000
0000
0100
0000
,
0000
0000
0100
0000
,
0000
0000
0100
0000
,
0100
0000
0100
0100
,
0100
0000
1001
2000
,
0000
0000
0000
0000
0000
0000
0000
0000
0000
0000
0000
0000
0000
0000
0000
0000
0000
0000
0000
0000
0000
0000
0000
0000
0000
0000
0000
0000
0000
0000
0000
0000
0000
0000
0000
0000
0000
0000
0000
0000
0000
0000
0000
0000
0000
0000
0000
0000
0000
0000
0000
0000
0000
3000
0000
0000
0000
0000
0000
0000
0000
0000
0000
0000
0000
0000
0000
0000
0000
0000
0000
0000
0000
0000
0000
0000
0000
0000
0000
0000
0000
0000
0000
0000
0000
0000
0000
0000
0000
0000
0000
0000
0000
0000
0000
0000
0000
0000
0000
0000
0000
0000
0000
0000
0000
0000
0000
0000
0000
0000
0000
0000
0000
0000
0000
0000
0000
0000
0000
0000
0000
0000
0000
0000
0000
0000
0000
0000
0000
0000
0000
0000
0000
0000
0000
0000
0000
0000
0000
0000
0000
0000
0000
0000
0020
0000
0000
0000
0000
0000
0000
0000
0000
0000
0000
0000
0000
0000
0000
0000
0000
0000
0000
0000
0000
0000
0000
0000
0000
0000
0000
0000
0000
0000
0000
0000
0000
0000
0000
0000
0000
0000
0000
0000
0000
0000
0000
0000
0000
0000
0000
0000
,
0000
0030
0000
0200
,
0000
0300
0000
0002
,
0000
0003
0000
1000
,
0001
1000
0001
0100
,
0010
0100
0010
1000
,
0001
0100
0010
1000
,
0001
0100
0000
0110
,
0000
0000
0000
0000
,
0000
0000
0000
0010
,
0000
1000
0000
0001
,
0000
0100
0100
0000
,
0000
0000
0100
0000
,
0000
0000
0100
0000
,
0100
0000
0100
0100
,
0100
0000
1001
0000
,
0001
0000
1000
0000
,
0001
0000
1000
1000
,
0010
0000
0100
0000
,
0010
0000
0100
0100
,
0001
0000
0010
0000
,
0100
0000
1000
0000
,
0001
0000
0100
0000
,
0020
0030
0100
0100
,
0001
0000
0010
0000
,
1000
0000
0100
0000
,
0001
0000
0010
0000
,
1000
0000
0100
0100
,
0010
0000
0100
0000
,
1000
0000
0010
0000
,
0001
0000
0100
0000
,
1000
0000
0010
0010
,
0100
0010
0100
0000
,
2000
0000
3000
0000
,
0100
0010
0100
0000
,
0010
0000
0002
0003
,
0000
0010
0100
0010
,
0100
0000
1001
0000
,
0001
0000
0100
0000
,
1000
0000
0010
0000
,
0110
0000
0000
0000
;

//---------------dance-single - ----------------
#NOTEDATA:;
#CHARTNAME:;
#STEPSTYPE:dance-single;
#DESCRIPTION:;
#CHARTSTYLE:;
#DIFFICULTY:Easy;
#METER:7;
#RADARVALUES:0.238938,0.336264,0.093353,0.054456,0.000000,215.000000,203.000000,12.000000,7.000000,0.000000,0.000000,0.000000,0.000000,0.000000,0.238938,0.336264,0.093353,0.054456,0.000000,215.000000,203.000000,12.000000,7.000000,0.000000,0.000000,0.000000,0.000000,0.000000;
#CREDIT:MILEN;
#DISPLAYBPM:155.000000;
#NOTES:
0000
0000
0000
0000
,
0000
0000
0000
0000
,
0000
0000
0000
0000
,
0000
0000
0000
0000
,
0000
0000
0000
0000
,
1000
0000
0001
0000
,
1000
0000
0001
0000
,
1000
1000
0001
0001
,
1000
0001
1000
0001
,
1001
0000
1000
0100
,
1000
0000
0001
0010
,
0001
0000
0100
0010
,
0100
0000
0001
1000
,
0001
1001
1000
0010
,
1000
0000
0001
0100
,
0001
0000
0100
0010
,
0100
0000
0001
1000
,
0001
1001
1000
0010
,
0000
0010
0001
0100
,
0000
0100
1000
0010
,
0000
0010
0001
0100
,
1000
1001
0010
1000
,
0010
1000
0001
0100
,
0001
0100
0010
1000
,
0001
0100
0010
0010
,
0010
0010
0110
2000
,
0000
3000
0000
0020
,
0000
0030
0000
0002
,
0000
0003
0000
0200
,
0000
0000
0300
0000
0000
0000
1000
0001
,
1000
0000
0001
1000
0001
0000
1000
0001
,
1000
0000
0001
1000
0001
0000
0100
0010
,
0100
0000
0010
0100
0010
0000
0100
0010
,
0100
0020
0030
0110
,
0000
0000
0000
0000
,
0000
0000
0000
1000
,
0000
0010
0000
0001
,
0000
0100
1000
0001
,
1000
0000
0001
1000
,
0001
0000
1000
1000
,
0001
0001
1000
0001
,
1000
0001
1001
0000
,
1000
0010
0100
0001
,
1000
0010
0100
0000
,
0001
0100
0010
1000
,
0001
0100
0010
0000
,
1000
0100
0010
0001
,
1000
0100
0010
0000
,
0001
0010
0100
1000
,
0001
0010
0100
0000
,
0110
1000
0001
1000
,
0010
0010
0001
0100
,
1000
0010
0100
0010
,
1000
1000
0001
0001
,
0000
1001
0010
0100
,
0010
1000
0100
0001
,
0010
0100
0010
0010
,
1000
0001
1000
0000
,
0001
0010
0001
0010
,
1000
0010
0001
0000
,
1000
0100
1000
0100
,
0001
0100
1000
1001
,
0000
0010
0100
0010
,
1000
0001
0110
0000
,
1000
0010
0001
0100
,
1000
0001
0100
0010
,
0220
0000
0330
0000
;

//---------------dance-single - ----------------
#NOTEDATA:;
#CHARTNAME:;
#STEPSTYPE:dance-single;
#DESCRIPTION:;
#CHARTSTYLE:;
#DIFFICULTY:Medium;
#METER:11;
#RADARVALUES:0.410084,0.465596,0.287837,0.210043,0.124470,369.000000,332.000000,37.000000,27.000000,0.000000,0.000000,0.000000,0.000000,0.000000,0.410084,0.465596,0.287837,0.210043,0.124470,369.000000,332.000000,37.000000,27.000000,0.000000,0.000000,0.000000,0.000000,0.000000;
#CREDIT:MILEN;
#DISPLAYBPM:155.000000;
#NOTES:
0000
0000
0000
0000
,
0000
0000
0000
0000
,
0000
0000
0000
0000
,
0000
0000
0000
0000
,
0000
0000
0000
0000
,
0001
0001
1000
1000
,
0010
1000
0010
0000
0100
0001
0100
0000
,
0001
0010
0001
0010
0100
1000
0100
1000
,
0001
0100
0010
1000
0100
0010
0001
0000
,
2002
3003
1100
0001
,
0011
1000
1001
0001
,
0100
0000
0000
0100
0000
0000
0100
0000
0010
0000
0000
0000
1010
0000
0000
0000
,
0100
0000
0101
0001
0010
0000
0001
0000
,
0100
0000
0000
0100
0000
0000
0100
0000
1100
0000
2000
0000
0000
3010
0000
0000
,
0000
0000
0002
0000
0000
0013
0000
0000
0000
0000
2000
0000
0000
3100
0000
0000
,
0000
0000
0002
0000
0000
0103
0000
0000
0000
0000
2000
0000
0000
3001
0000
0000
,
0000
0000
0020
0000
0000
0130
0000
0000
0000
0000
1001
0000
0000
0000
1000
0000
,
0010
0000
0100
0000
0001
0000
0000
0000
1000
0000
0000
1000
0000
0000
0100
0000
,
0000
0000
1000
0000
0000
0010
0000
0000
0100
0000
0000
0100
0000
0000
0001
0000
,
0000
0010
0000
0000
0100
0000
0010
0000
0001
0000
0000
0001
0000
0000
0100
0000
,
0000
0000
1000
0000
0000
0010
0000
0000
0100
0000
0000
0100
0000
0000
0001
0000
,
0000
0010
0000
0000
0110
0000
0000
0000
0100
0000
1000
0000
0100
0000
0010
0000
,
0001
0000
0000
0001
0000
0000
0100
0000
0010
0000
1000
0000
0001
0000
0010
0000
,
0100
0000
0000
0100
0000
0000
1000
0000
0010
0000
0100
0000
0110
0000
0000
0000
,
0001
1000
1001
0000
0001
0100
0010
1000
,
0100
0010
0001
0100
0110
0000
0002
0000
,
0000
0000
0000
0200
,
0000
0000
0003
0001
,
0010
1000
0010
0302
,
0100
0000
0010
0000
1003
0000
1000
0010
,
0110
0000
0000
0000
0100
0001
0010
0000
0100
0000
0000
0000
0010
0000
0001
0000
,
0101
0000
0000
0000
0100
0010
1000
0000
0100
0000
0000
0000
1000
0000
0001
0000
,
0011
0000
0000
0000
0010
0100
1000
0000
0001
0000
0000
0000
0100
0000
0010
0000
,
1010
2002
3003
0110
,
0000
0000
0000
0000
,
0000
0000
0000
1001
,
0001
0000
0100
0000
0010
0000
0000
1000
0000
0000
0010
0000
0100
0000
0000
0001
,
0000
0100
0110
0000
1000
0000
1000
0000
,
0001
0000
0001
0000
0010
0001
0010
0000
,
0100
1000
0100
0000
1000
0010
1000
0010
,
0100
0001
0100
0001
1000
0100
0010
0001
,
0100
0010
1000
0000
2002
0000
3003
0000
,
1010
0000
0110
0000
0101
0000
0001
0010
,
0100
0000
1000
0010
0001
0010
1000
0000
,
1100
0000
0110
0000
0011
0000
0001
0100
,
1000
0100
0001
0010
0100
0010
1000
0000
,
0110
0000
0020
0000
0000
0031
0000
0000
0000
0000
0200
0000
0000
1300
0000
0000
,
0000
0000
0020
0000
0000
0130
0000
0000
0000
0000
0001
0000
1001
0000
0000
0000
,
1000
0000
0010
0000
0001
0000
1000
0000
0100
0000
0000
0010
0000
0000
0110
0000
,
0000
0100
0001
1000
0020
0000
0130
0000
,
0110
0000
0001
0010
0100
0001
0100
1000
,
0100
0000
1000
0100
0010
1000
0010
0001
,
0010
0000
0000
0000
0100
0000
0010
0000
0001
0000
0000
0100
0000
0000
1000
0000
,
0010
0000
0000
0001
0000
0000
0100
0000
0100
0000
0000
0000
2002
0000
3003
0000
,
0000
1000
0100
0010
1000
0000
0010
0001
,
0100
0000
1000
0100
0001
0010
0100
0010
,
0001
0000
0000
0000
1000
0000
0100
0000
0010
0000
0000
0100
0000
0000
1000
0000
,
0010
0001
0010
0100
0010
0000
1010
0000
,
0101
0000
0001
0010
1000
0010
0100
1000
,
0002
0203
0320
1030
,
1100
0000
0100
0001
0100
0010
0001
0100
,
1000
0100
0001
0100
1000
0100
0010
0200
,
0000
0301
0001
0010
0100
1000
0001
0100
,
0010
0000
0000
1000
0000
0000
0001
0000
0100
0000
0000
0000
0110
0000
0000
0000
,
1000
0000
0010
0000
0001
0000
1000
0000
0100
0000
0000
0001
0000
0000
0010
0000
,
0100
0010
0001
0100
1000
0100
0010
0000
,
2002
0000
3003
0000
;

//---------------dance-single - ----------------
#NOTEDATA:;
#CHARTNAME:;
#STEPSTYPE:dance-single;
#DESCRIPTION:;
#CHARTSTYLE:;
#DIFFICULTY:Hard;
#METER:15;
#RADARVALUES:0.584565,0.646661,0.707923,0.334513,0.365631,526.000000,435.000000,91.000000,43.000000,0.000000,0.000000,0.000000,0.000000,0.000000,0.584565,0.646661,0.707923,0.334513,0.365631,526.000000,435.000000,91.000000,43.000000,0.000000,0.000000,0.000000,0.000000,0.000000;
#CREDIT:MILEN;
#DISPLAYBPM:155.000000;
#NOTES:
0000
0000
0000
0000
,
0000
0000
0000
0000
,
0000
0000
0000
0000
,
0000
0000
0000
0000
,
0000
0000
0000
0000
,
0001
0101
1000
1100
,
0001
0010
0011
0000
1000
0010
1010
0000
,
1000
0100
0010
0001
1000
0100
0010
0001
,
1000
0010
1000
0010
0100
0001
0100
0001
0010
0100
0010
0100
1000
0001
1000
0002
,
2000
0000
0000
0000
3003
0000
0010
0100
0010
0000
0000
0000
1010
0000
0000
0000
,
0100
0101
0010
0110
,
1000
0000
0000
0001
0100
0000
0001
0000
0011
0000
0000
0000
1000
0000
0000
0000
,
1100
0000
0000
0000
0010
0000
0100
0000
0110
0000
0000
0000
0010
0000
1000
0100
,
1000
0000
0000
0001
0000
0000
0100
0000
0010
0000
1000
0000
0000
1100
0000
0000
,
0100
0000
0010
0000
0000
0011
0000
0000
0001
0000
0100
0000
0000
0110
0000
0000
,
0010
0000
1000
0000
0000
1001
0000
0000
0001
0000
0010
0000
0000
0110
0000
0000
,
0100
0000
1000
0000
0000
1010
0000
0000
0010
0000
0100
0000
0101
0000
0001
0000
,
1001
0000
1000
0000
1100
0000
0000
0000
0011
0000
0001
0100
0010
0000
2010
0000
,
0000
0000
3001
0000
0000
1000
0000
0000
1100
0000
1000
0010
0100
0000
0102
0000
,
0000
0013
0000
0001
0100
0000
0010
0000
0110
0000
0100
0001
0010
0000
0210
0000
,
0000
0000
1300
0000
1000
0010
0000
0000
0100
0000
0010
0100
0001
0000
0100
0000
,
0010
1000
0000
0000
2002
0000
3003
0000
0001
0000
0010
0000
0100
0000
1000
0000
,
0010
0000
0100
0010
0000
0100
0010
0000
1000
0000
0100
0000
0010
0000
0001
0000
,
0100
0000
0010
0100
0000
0010
0100
0000
0001
0000
0010
0000
1000
0000
0010
0000
,
0001
0000
0100
0000
1000
0000
0100
0000
0001
0010
0001
0000
1000
0010
1000
0000
,
0001
0100
0001
1000
0100
1000
0001
0200
0020
0000
0330
0000
2002
0000
0000
0000
,
0000
0000
0003
0020
,
0000
0000
3000
1000
,
0100
0001
0100
2030
,
0010
0000
0000
0000
0001
0000
0000
0000
3100
0000
0000
0000
1000
0100
0010
0000
,
0022
0000
0033
0000
0001
0100
0010
0000
0220
0000
0330
0000
0100
0010
1000
0000
,
2200
0000
3300
0000
0100
0010
0001
0000
2002
0000
3003
0000
1000
0010
0001
0000
,
2200
0000
3300
0000
0001
0100
1000
0000
0022
0000
0033
0000
1000
0001
0100
0000
,
0220
0330
2002
0000
3003
0000
1001
0000
,
0000
0000
0000
0000
,
0000
0000
0000
0110
,
0010
0000
0100
0000
0101
0000
0000
0011
0000
0000
1001
0000
1100
0000
0000
1010
,
0000
0110
2002
3003
1000
0000
1100
0000
,
0001
0000
0101
0000
1000
0010
1010
0000
,
0001
0010
0011
0000
0001
0100
0010
1000
,
0001
0000
0100
0000
0010
0000
1000
0000
0001
0010
0001
0010
0100
1000
0100
1000
,
0010
0100
0010
0100
0001
1000
0001
2000
0002
0000
0000
0000
3003
0000
0100
0010
,
0100
0000
0101
0000
1010
0000
0110
0001
,
1001
0000
1010
0001
0110
1000
0101
0000
,
0011
0000
1100
0000
0110
0000
1001
0001
,
0100
0010
1000
0000
0010
0100
0001
0000
0010
0100
0010
0000
0110
0000
0000
0000
,
0110
0000
0010
0000
0001
0100
0000
0000
0110
0000
0010
0000
1000
0100
0000
0000
,
0110
0000
0010
0001
0000
1000
0100
0000
1000
0010
0100
0001
0010
0000
0000
0000
,
0011
0000
1100
0000
1001
0000
0000
0000
1010
0000
0010
0100
0001
0000
0010
0000
,
1000
0001
0100
1000
0020
0000
0200
0330
,
0110
0000
0000
0000
1001
0000
0001
0100
0010
0000
1000
0000
0001
0000
0010
0100
,
1000
0000
0000
0000
1100
0000
0000
0100
0010
0000
0100
0000
1000
0000
0010
0100
,
0001
0000
0000
0000
0011
0000
0001
0100
0010
0000
1000
0100
0000
0010
0100
0000
,
1100
0000
0000
1010
0000
0000
0110
0000
0200
0000
0000
0000
0301
0000
0011
0000
,
0000
0000
0100
1000
0010
0000
0100
0000
0101
0000
0001
0000
1000
0000
0100
0010
,
0001
0000
0000
0000
0011
0000
0010
0100
1000
0000
0010
0000
0001
0000
1000
0000
,
0100
0000
0000
0000
0001
0000
0010
0000
1000
0000
0000
0001
0000
0000
0100
1000
,
0010
0000
0100
0001
0010
0000
0100
1000
0010
0000
0000
0000
0110
0000
0000
0000
,
1001
0000
0000
0000
0001
0000
0010
0000
0100
0000
1000
0010
1000
0000
0001
0000
,
0011
0010
0002
0000
2003
0000
3100
1000
,
1010
0000
0000
0000
0010
0000
0100
0000
0010
0000
1000
0100
0000
0010
0001
0000
,
0101
0100
0110
0010
1010
1000
2002
3003
,
0000
0000
0011
0000
1010
0000
0101
0000
1100
0000
1000
0010
0100
0000
1000
0000
,
0100
0000
0001
0010
0000
0100
1000
0000
0120
0000
0000
0000
0130
0000
0100
0000
,
0001
0000
0010
0000
0001
0000
0100
0010
1000
0000
0100
0000
1000
0000
0010
0100
,
0001
0010
0100
1000
0100
1000
0010
0100
0010
0100
0001
0010
0100
0000
0000
0000
,
2002
0000
3003
0000
;

//---------------dance-double - ----------------
#NOTEDATA:;
#CHARTNAME:;
#STEPSTYPE:dance-double;
#DESCRIPTION:;
#CHARTSTYLE:;
#DIFFICULTY:Easy;
#METER:7;
#RADARVALUES:0.232270,0.258664,0.101132,0.054456,0.000000,209.000000,196.000000,13.000000,7.000000,0.000000,0.000000,0.000000,0.000000,0.000000,0.232270,0.258664,0.101132,0.054456,0.000000,209.000000,196.000000,13.000000,7.000000,0.000000,0.000000,0.000000,0.000000,0.000000;
#CREDIT:MILEN;
#DISPLAYBPM:155.000000;
#NOTES:
00000000
00000000
00000000
00000000
,
00000000
00000000
00000000
00000000
,
00000000
00000000
00000000
00000000
,
00000000
00000000
00000000
00000000
,
00000000
00000000
00000000
00000000
,
00001000
00000000
00010000
00000000
,
00001000
00000000
00010000
00000000
,
00001000
00001000
00010000
00010000
,
00001000
00010000
00001000
00010000
,
00011000
00000000
00001000
01000000
,
00001000
00000000
00010000
00000010
,
00010000
00000000
00001000
00100000
,
00001000
00000000
00010000
00000100
,
00010000
00011000
00001000
00100000
,
00001000
00000000
00010000
00000100
,
00010000
00000000
00001000
01000000
,
00001000
00000000
00010000
00000010
,
00010000
00011000
00100000
01000000
,
00000000
00100000
00010000
00001000
,
00000000
00010000
00001000
00000100
,
00000000
00001000
00000100
00000010
,
00000100
00000110
00000001
00000100
,
00000001
00000100
00001000
00010000
,
00001000
00010000
01000000
10000000
,
01000000
10000000
00100000
00010000
,
00001000
00010000
00011000
02000000
,
00000000
03000000
00000000
00002000
,
00000000
00003000
00000000
00020000
,
00000000
00030000
00000000
00000200
,
00000000
00000300
00000000
00001000
,
00000010
00010000
00100000
00001000
,
00000100
00010000
01000000
00001000
,
00000010
00010000
00100000
00001000
,
00000100
00020000
00030000
00011000
,
00000000
00000000
00000000
00000000
,
00000000
00000000
00000000
00001000
,
00000000
00010000
00000000
00001000
,
00000000
00011000
01000000
00001000
,
00010000
00000000
00000010
00010000
,
00001000
00000000
00100000
00001000
,
00010000
00000100
00010000
00001000
,
00010000
00001000
00011000
00000000
,
00010000
00100000
01000000
00100000
,
00010000
00001000
00010000
00000000
,
00001000
00000100
00000010
00000100
,
00001000
00010000
00001000
00000000
,
00010000
01000000
10000000
01000000
,
00010000
00001000
00010000
00000000
,
00001000
00000010
00000001
00000010
,
00001000
00010000
00001000
00000000
,
00011000
00000100
00001000
00000100
,
00000010
00000010
00000001
00000100
,
00001000
00010000
00001000
00100000
,
00010000
00100000
01000000
10000000
,
00000000
10010000
00100000
01000000
,
00100000
00010000
00010000
00001000
,
00000010
00000001
00001000
00000001
,
00000100
00000010
00001000
00000000
,
00000100
00010000
00000100
00010000
,
01000000
10000000
00010000
00000000
,
00100000
00001000
00100000
00001000
,
00000010
00000001
00001000
00001001
,
00000000
00000010
00000100
00001000
,
00010000
00100000
01100000
00000000
,
10000000
00100000
00010000
00001000
,
00000100
00000001
00000010
00001000
,
00022000
00000000
00033000
00000000
;

//---------------dance-double - ----------------
#NOTEDATA:;
#CHARTNAME:;
#STEPSTYPE:dance-double;
#DESCRIPTION:;
#CHARTSTYLE:;
#DIFFICULTY:Medium;
#METER:11;
#RADARVALUES:0.404528,0.439729,0.217823,0.140029,0.124470,364.000000,336.000000,28.000000,18.000000,0.000000,0.000000,0.000000,0.000000,0.000000,0.404528,0.439729,0.217823,0.140029,0.124470,364.000000,336.000000,28.000000,18.000000,0.000000,0.000000,0.000000,0.000000,0.000000;
#CREDIT:MILEN;
#DISPLAYBPM:155.000000;
#NOTES:
00000000
00000000
00000000
00000000
,
00000000
00000000
00000000
00000000
,
00000000
00000000
00000000
00000000
,
00000000
00000000
00000000
00000000
,
00000000
00000000
00000000
00000000
,
00001000
00001000
00010000
00010000
,
00001000
01000000
00001000
00000000
00010000
00000010
00010000
00000000
,
00001000
00100000
00001000
00010000
00000100
00010000
00001000
00100000
,
00010000
01000000
00001000
00010000
00000100
00001000
00000010
00000000
,
00000220
00000330
00001001
00000100
,
00011000
00100000
10010000
00010000
,
10000000
00000000
00000000
10000000
00000000
00000000
10000000
00000000
00100000
00000000
00000000
00000000
00010000
00000000
00000000
00000000
,
00001000
00000000
00000100
00000001
00000010
00000000
00000001
00000000
,
00001000
00000000
00000000
00001000
00000000
00000000
00001000
00000000
00001010
00000000
00000010
00000000
00000000
00010000
00000000
00000000
,
00001000
00000000
00100000
00000000
00000000
00001000
00000000
00000000
00010000
00000000
00000100
00000000
00000000
00010000
00000000
00000000
,
00001000
00000000
01000000
00000000
00000000
00001000
00000000
00000000
00010000
00000000
00000100
00000000
00000000
00001000
00000000
00000000
,
00000100
00000000
00010000
00000000
00000000
00001000
00000000
00000000
00000000
00000000
00011000
00000000
00000000
00000000
00010000
00000000
,
01000000
00000000
10000000
00000000
00010000
00000000
00000000
00000000
00100000
00000000
00000000
00100000
00000000
00000000
00001000
00000000
,
00000000
00000000
00010000
00000000
00000000
00000100
00000000
00000000
00001000
00000000
00000000
00001000
00000000
00000000
00000010
00000000
,
00000000
00000100
00000000
00000000
00000001
00000000
00000010
00000000
00000100
00000000
00000000
00000100
00000000
00000000
00010000
00000000
,
00000000
00000000
00001000
00000000
00000000
00100000
00000000
00000000
01000000
00000000
00000000
01000000
00000000
00000000
10000000
00000000
,
00000000
00100000
00000000
00000000
01100000
00000000
00000000
00000000
01000000
00000000
00010000
00000000
00100000
00000000
00000000
00000000
,
01000000
00000000
00000000
01000000
00000000
00000000
00010000
00000000
00001000
00000000
00010000
00000000
00000100
00000000
00001000
00000000
,
00000001
00000000
00000000
00000001
00000000
00000000
00000100
00000000
00000010
00000000
00010000
00000000
00001000
00000000
00000000
00000000
,
00100000
00001000
00010000
00000000
00001000
01000000
00010000
00100000
,
01000000
10000000
00100000
00010000
00011000
00000000
00002000
00000000
,
00000000
00000000
00000000
00200000
,
00000000
00000000
00003000
00001000
,
00010000
01000000
00010000
00302000
,
00010000
00000000
00000100
00000000
00013000
00000000
00010000
00001000
,
00000010
00000000
00000000
00000000
00000001
00000100
00000001
00000000
00001000
00000000
00000000
00000000
00000100
00000000
00010000
00000000
,
00001000
00000000
00000000
00000000
00100000
00010000
00100000
00000000
01000000
00000000
00000000
00000000
10000000
00000000
00100000
00000000
,
00010000
00000000
00000000
00000000
00001000
00010000
00001000
00000000
00100000
00000000
00000000
00000000
00010000
00000000
01000000
00000000
,
00001000
00022000
00033000
00011000
,
00000000
00000000
00000000
00000000
,
00000000
00000000
00000000
00011000
,
00001000
00000000
00000100
00000000
00000100
00000000
00000000
00000001
00000000
00000000
00000010
00000000
00001000
00000000
00000000
00010000
,
00000000
00001000
00011000
00000000
00010000
00000000
00010000
00000000
,
00001000
00000000
00001000
00000000
00010000
00000010
00010000
00000000
,
00001000
01000000
00001000
00000000
00010000
00000100
00010000
00001000
,
00100000
00001000
00010000
00000100
00001000
00000010
00010000
00001000
,
00100000
00010000
01000000
00000000
02200000
00000000
03300000
00000000
,
10010000
00000000
01000000
00000000
01100000
00000000
00100000
00010000
,
00001000
00000000
00010000
00001000
00000100
00000010
00000100
00000000
,
00001001
00000000
00000010
00000000
00000110
00000000
00000100
00001000
,
00010000
00000000
00001000
00010000
00100000
01000000
00100000
00000000
,
11000000
00000000
10000000
00000000
00000000
00100000
00000000
00000000
00010000
00000000
00001000
00000000
00000000
00010000
00000000
00000000
,
00000100
00000000
00001000
00000000
00000000
00000010
00000000
00000000
00000000
00000000
00000100
00000000
00000101
00000000
00000000
00000000
,
00000001
00000000
00001000
00000000
00000100
00000000
00010000
00000000
01000000
00000000
00000000
00100000
00000000
00000000
01100000
00000000
,
00000000
10000000
00100000
00010000
00002000
00000000
00013000
00000000
,
00011000
00000000
00000100
00001000
00000100
00000010
00000001
00000100
,
00000010
00000000
00010000
00001000
00010000
00100000
01000000
00100000
,
10000000
00000000
00000000
00000000
01000000
00000000
00010000
00000000
00001000
00000000
00000000
00100000
00000000
00000000
01000000
00000000
,
00010000
00000000
00000000
00001000
00000000
00000000
00000010
00000000
00000010
00000000
00000000
00000000
00002002
00000000
00003003
00000000
,
00000000
00000001
00000100
00000010
00010000
00000000
00001000
01000000
,
00100000
00000000
00010000
00100000
10000000
01000000
00100000
01000000
,
10000000
00000000
00000000
00000000
00100000
00000000
00010000
00000000
00001000
00000000
00000000
00010000
00000000
00000000
00000100
00000000
,
00001000
00000100
00000010
00000100
00001000
00000000
00001010
00000000
,
00000101
00000000
00000001
00000010
00001000
00010000
00001000
00100000
,
00020000
02030000
03200000
10300000
,
11000000
00000000
01000000
00010000
00001000
00010000
00000100
00001000
,
00000010
00000001
00000010
00001000
00000100
00000000
00010100
00020000
,
00000000
00031000
00001000
00100000
01000000
10000000
00100000
00010000
,
00001000
00000000
00000000
00010000
00000000
00000000
00000100
00000000
00001000
00000000
00000000
00000000
00001001
00000000
00000000
00000000
,
00000001
00000000
00000010
00000000
00000100
00000000
00001000
00000000
00000010
00000000
00000000
00010000
00000000
00000000
00001000
00000000
,
00100000
00010000
00100000
01000000
10000000
00100000
00010000
00000000
,
00022000
00000000
00033000
00000000
;

//---------------dance-double - ----------------
#NOTEDATA:;
#CHARTNAME:;
#STEPSTYPE:dance-double;
#DESCRIPTION:;
#CHARTSTYLE:;
#DIFFICULTY:Hard;
#METER:15;
#RADARVALUES:0.553447,0.646661,0.536777,0.396748,0.357851,498.000000,429.000000,69.000000,51.000000,0.000000,0.000000,0.000000,0.000000,0.000000,0.553447,0.646661,0.536777,0.396748,0.357851,498.000000,429.000000,69.000000,51.000000,0.000000,0.000000,0.000000,0.000000,0.000000;
#CREDIT:MILEN;
#DISPLAYBPM:155.000000;
#NOTES:
// measure 0
00000000
00000000
00000000
00000000
,  // measure 1
00000000
00000000
00000000
00000000
,  // measure 2
00000000
00000000
00000000
00000000
,  // measure 3
00000000
00000000
00000000
00000000
,  // measure 4
00000000
00000000
00000000
00000000
,  // measure 5
00010000
00010010
00001000
00101000
,  // measure 6
00010000
00010100
00001000
01001000
,  // measure 7
00010000
00001000
00000100
00000010
00010000
00000100
00001000
00000010
,  // measure 8
00000100
00000001
00000100
00000001
00000010
00000100
00000010
00000100
00010000
00001000
00010000
00001000
00100000
01000000
00100000
02000000
,  // measure 9
00200000
00000000
00000000
00000000
03300000
00000000
10000000
00100000
00010000
00000000
00000000
00000000
00011000
00000000
00000000
00000000
,  // measure 10
00000010
00010010
00100000
00101000
,  // measure 11
00000100
00000000
00000000
00010000
00001000
00000000
00010000
00000000
00010010
00000000
00000000
00000000
00001000
00000000
00000000
00000000
,  // measure 12
00101000
00000000
00000000
00000000
00010000
00000000
00001000
00000000
00011000
00000000
00000000
00000000
00100000
00000000
00010000
01000000
,  // measure 13
00010000
00000000
00000000
10000000
00000000
00000000
01000000
00000000
00100000
00000000
00020000
00000000
00000000
01030000
00000000
00000000
,  // measure 14
01000000
00000000
00002000
00000000
00000000
00013000
00000000
00000000
00010000
00000000
00000200
00000000
00000000
00000310
00000000
00000000
,  // measure 15
00000010
00000000
00000002
00000000
00000000
00000103
00000000
00000000
00000100
00000000
00002000
00000000
00000000
00013000
00000000
00000000
,  // measure 16
00010000
00000000
00200000
00000000
00000000
10300000
00000000
00000000
10000000
00000000
01000000
00000000
00010000
00000000
00001000
00000000
,  // measure 17
00000100
00000000
00000001
00000000
00000011
00000000
00000000
00000000
00001100
00000000
00000100
00010000
00001000
00000000
00200000
00000000
,  // measure 18
00000000
00000000
00310000
00000000
00000000
10000000
00000000
00000000
10100000
00000000
00100000
01000000
00010000
00000000
00200000
00000000
,  // measure 19
00000000
01300000
00000000
00010000
00001000
00000000
00010000
00000000
00010100
00000000
00000100
00001000
00000001
00000000
00000020
00000000
,  // measure 20
00000000
00000000
00000130
00000000
00001000
00000100
00000000
00000000
00010000
00000000
00001000
00100000
00010000
00000000
01000000
00000000
,  // measure 21
00100000
10000000
00000000
00000000
20020000
00000000
30030000
00000000
00010000
00000000
01000000
00000000
00001000
00000000
00010000
00000000
,  // measure 22
00000100
00000000
00001000
00000010
00000000
00001000
00000010
00000000
00000100
00000000
00000001
00000000
00001000
00000000
00000100
00000000
,  // measure 23
00010000
00000000
00001000
00100000
00000000
00001000
00100000
00000000
00010000
00000000
01000000
00000000
00100000
00000000
10000000
00000000
,  // measure 24
01000000
00000000
00010000
00000000
00001000
00000000
00000010
00000000
00000001
00000100
00000001
00000000
00001000
00000010
00001000
00000000
,  // measure 25
00000100
00010000
00000100
00010000
00001000
00010000
00001000
00010000
00200000
00000000
00000000
00000000
20000000
00000000
00000000
00000000
,  // measure 26
00000000
00000000
00300000
02000000
,  // measure 27
00000000
00000000
30000000
10000000
,  // measure 28
00100000
00010000
00001000
03020000
,  // measure 29
00032000
00000000
00000000
00000000
00003200
00000000
00000000
00000000
00000301
00000000
00000000
00000000
00000001
00000010
00001000
00000000
,  // measure 30
00022000
00000000
00033000
00000000
00000010
00001000
00010000
00000000
00022000
00000000
00033000
00000000
01000000
00010000
00001000
00000000
,  // measure 31
00022000
00000000
00033000
00000000
10000000
01000000
00010000
00000000
00022000
00000000
00033000
00000000
00000001
00000100
00001000
00000000
,  // measure 32
00022000
00000000
00033000
00000000
10000000
00100000
00010000
00000000
00022000
00000000
00033000
00000000
00001000
00010000
00001000
00000000
,  // measure 33
00022000
00033000
00020020
00000000
00030030
00000000
00202000
00000000
,  // measure 34
00000000
00000000
00000000
00000000
,  // measure 35
00000000
00000000
00303000
00011000
,  // measure 36
00001000
00000000
00100000
00000000
00010000
00000000
00000000
00110000
00000000
00000000
00001000
00000000
01001000
00000000
00000000
00010000
,  // measure 37
00000000
00010010
00022000
00033000
00001000
00000000
00101000
00000000
,  // measure 38
00010000
00010010
00001000
01001000
,  // measure 39
00010000
00000000
00010100
00000000
00001000
00100000
00010000
01000000
,  // measure 40
00001000
00000000
00010000
00000000
01000000
00000000
00100000
00000000
01000000
10000000
01000000
10000000
00100000
01000000
00100000
01000000
,  // measure 41
00001000
00010000
00001000
00010000
00000010
00000100
00000010
00000200
00000020
00000000
00000000
00000000
00000330
00000000
00000001
00000100
,  // measure 42
00001000
00000000
00011000
00000000
00010010
00000000
01001000
00001000
,  // measure 43
00010000
00000000
00011000
00001000
00010000
01000000
11000000
00000000
,  // measure 44
10100000
00000000
01001000
00000000
00010100
00000000
00001100
00001000
,  // measure 45
00000100
00000010
00000001
00000000
00001000
00000100
00000010
00000000
00000001
00000100
00000010
00000000
00000110
00000000
00000000
00000000
,  // measure 46
00010010
00000000
00010000
00000000
00001000
01000000
00000000
00000000
01001000
00000000
00001000
00000000
00010000
00000100
00000000
00000000
,  // measure 47
00010100
00000000
00010000
00001000
00000000
00001000
00010000
00000000
00001000
00100000
00010000
01000000
00100000
00000000
00000000
00000000
,  // measure 48
10100000
00000000
00100000
00000000
01010000
00000000
00000000
00000000
00110000
00000000
00100000
00001000
00010000
00000000
00000100
00000000
,  // measure 49
00001000
00000100
00000010
00000001
00000200
00000000
00000020
00000330
,  // measure 50
00000110
00000000
00000000
00000000
00001001
00000000
00001000
00000010
00010000
00000000
00001000
00000000
00100000
00000000
00010000
01000000
,  // measure 51
00100000
00000000
00000000
00000000
10100000
00000000
00000000
10000000
01000000
00000000
00010000
00000000
00001000
00000000
00010000
00000100
,  // measure 52
00001000
00000000
00000000
00000000
00001010
00000000
00000010
00000100
00000001
00000000
00000010
00000100
00000000
00001000
00000100
00000000
,  // measure 53
00010100
00000000
00000000
00011000
00000000
00000000
01001000
00000000
02000000
00000000
00000000
00000000
03100000
00000000
10100000
00000000
,  // measure 54
00000000
00000000
10000000
01000000
00100000
00000000
01000000
00000000
01010000
00000000
00010000
00000000
00001000
00000000
00000010
00000100
,  // measure 55
00000010
00000000
00000000
00000000
00000011
00000000
00000001
00000100
00001000
00000000
00010000
00000000
00100000
00000000
10000000
00000000
,  // measure 56
01000000
00000000
00000000
00000000
00100000
00000000
01000000
00000000
10000000
00000000
00000000
00100000
00000000
00000000
00010000
00001000
,  // measure 57
00100000
00000000
00001000
00010000
00000010
00000000
00010000
00001000
01000000
00000000
00000000
00000000
00011000
00000000
00000000
00000000
,  // measure 58
00001100
00000000
00000000
00000000
00000100
00000000
00000001
00000000
00000010
00000000
00000100
00000010
00000100
00000000
00001000
00000000
,  // measure 59
00000010
00010000
00012000
00000000
00203000
00000000
01300000
10000000
,  // measure 60
10100000
00000000
00000000
00000000
00100000
00000000
00010000
00000000
00001000
00000000
00010000
00000100
00000000
00001000
00000010
00000000
,  // measure 61
00000110
00000100
00000001
00000010
00001000
00010000
00022000
00033000
,  // measure 62
00000000
00000000
01001000
00000000
00001000
00000000
00010100
00000000
00010000
00000000
00001000
00100000
00010000
00000000
01000000
00000000
,  // measure 63
00001000
00000000
00010000
00100000
00000000
01000000
00100000
00000000
20100000
00000000
00000000
00000000
31000000
00000000
01000000
00000000
,  // measure 64
00010000
00000000
00001000
00000000
00100000
00000000
01000000
00010000
00001000
00000000
00000100
00000000
00000001
00000000
00000010
00000100
,  // measure 65
00000010
00001000
00010000
01000000
00100000
01000000
10000000
00000000
00100000
00000000
00010000
00001000
00010000
00000000
00000000
00000000
,  // measure 66
00022000
00000000
00033000
00000000
;
