#TITLE:777;
#SUBTITLE:;
#ARTIST:RoughSketch;
#TITLETRANSLIT:;
#SUBTITLETRANSLIT:;
#ARTISTTRANSLIT:;
#GENRE:VARIETY;
#CREDIT:MUINELIM;
#BANNER:777.png;
#BACKGROUND:777-bg.png;
#LYRICSPATH:;
#CDTITLE:;
#MUSIC:777.ogg;
#OFFSET:-0.118075;
#SAMPLESTART:21.739697;
#SAMPLELENGTH:14.826290;
#SELECTABLE:YES;
#DISPLAYBPM:194;
#BPMS:0.000000=194.25;
#STOPS:
;
#BGCHANGES:0.000=777-bg.png=1.000=0=0=1====#000000=#000000,
6.000=777.avi=1.000=1=0=0=StretchNoLoop==CrossFade==,
99999=-nosongbg-=1.000=0=0=0 // don't automatically add -songbackground-
;
#KEYSOUNDS:;
#ATTACKS:;

//---------------dance-single - ----------------
#NOTES:
     dance-single:
     :
     Beginner:
     7:
     0.225076,0.378511,0.046113,0.061484,0.000000,205.000000,199.000000,6.000000,8.000000,0.000000,0.000000,0.225076,0.378511,0.046113,0.061484,0.000000,205.000000,199.000000,6.000000,8.000000,0.000000,0.000000:
// measure 0
0000
0000
0000
0000
,  // measure 1
0000
0000
0000
0000
,  // measure 2
0000
0000
0000
0000
,  // measure 3
0000
0000
0000
0000
,  // measure 4
0000
0000
0000
0000
,  // measure 5
0000
0000
0000
0000
,  // measure 6
0000
0000
0000
0000
,  // measure 7
0000
0000
0000
0000
,  // measure 8
0000
0000
0000
0000
,  // measure 9
0000
0000
1000
0000
,  // measure 10
1000
0000
1000
0000
,  // measure 11
1000
0000
0001
0000
,  // measure 12
0001
0000
0001
0000
,  // measure 13
0001
0000
0100
0100
,  // measure 14
0000
0010
0010
0000
,  // measure 15
1000
0001
0100
0000
,  // measure 16
0010
0000
1000
0000
,  // measure 17
0001
0000
0100
0000
,  // measure 18
0100
0000
0200
0000
,  // measure 19
0300
0100
0010
0010
,  // measure 20
0010
0010
0010
0010
,  // measure 21
0010
0000
1000
1000
,  // measure 22
1000
1000
1000
1000
,  // measure 23
1000
0000
0001
0001
,  // measure 24
0001
0001
0001
0001
,  // measure 25
0001
0000
0100
0100
,  // measure 26
0100
0100
0100
0100
,  // measure 27
0100
0100
0100
0000
,  // measure 28
0010
0000
0100
0000
,  // measure 29
0010
0000
1000
0000
,  // measure 30
0001
0000
1000
0000
,  // measure 31
0001
0000
0100
0000
,  // measure 32
0010
0000
1000
0000
,  // measure 33
0001
0000
0100
0000
,  // measure 34
0100
0000
0100
0000
,  // measure 35
0100
0010
0200
0000
,  // measure 36
0000
0000
0000
0000
,  // measure 37
0000
0300
0000
0100
,  // measure 38
0100
0000
0001
0000
,  // measure 39
0100
0000
0001
0000
,  // measure 40
0100
0000
0001
0000
,  // measure 41
0100
0000
0010
0000
,  // measure 42
1000
0000
0010
0000
,  // measure 43
1000
0000
0010
0000
,  // measure 44
1000
0000
0020
0000
,  // measure 45
0030
0000
1000
0000
,  // measure 46
0100
0000
1000
0000
,  // measure 47
0100
0000
1000
0000
,  // measure 48
0100
0000
1000
0000
,  // measure 49
1000
0000
0001
0000
,  // measure 50
0010
0000
0001
0000
,  // measure 51
0010
0000
0001
0000
,  // measure 52
0010
0000
0001
0000
,  // measure 53
0001
0000
1000
0000
,  // measure 54
0000
0000
0010
0000
,  // measure 55
0000
0000
0001
0000
,  // measure 56
0000
0000
0100
0000
,  // measure 57
0000
0000
1000
0000
,  // measure 58
0000
0000
0010
0000
,  // measure 59
0000
0000
0100
0000
,  // measure 60
0000
0000
0001
0000
,  // measure 61
0000
0000
1000
0000
,  // measure 62
1000
0000
1000
0000
,  // measure 63
1000
0000
0001
0000
,  // measure 64
0001
0000
0001
0000
,  // measure 65
0001
0000
0100
0100
,  // measure 66
0100
0000
0010
0010
,  // measure 67
0020
0030
0010
0000
,  // measure 68
1000
0000
0001
0000
,  // measure 69
0000
0100
0100
0000
,  // measure 70
0010
0000
1000
0000
,  // measure 71
0001
0000
0010
0000
,  // measure 72
0100
0000
1000
0000
,  // measure 73
0010
0000
0100
0000
,  // measure 74
0001
0000
1000
0000
,  // measure 75
0100
0000
0010
0000
,  // measure 76
0001
0000
1000
0000
,  // measure 77
0020
0030
0010
0000
,  // measure 78
0100
0000
0001
0000
,  // measure 79
1000
0000
0010
0000
,  // measure 80
0100
0000
0001
0000
,  // measure 81
1000
0000
0010
0000
,  // measure 82
0001
0000
0100
0000
,  // measure 83
1000
0000
0001
0000
,  // measure 84
1000
0000
0001
0000
,  // measure 85
1000
0000
0010
0000
,  // measure 86
0010
0000
0020
0000
,  // measure 87
0030
0010
0100
0100
,  // measure 88
0100
0100
0100
0100
,  // measure 89
0100
0100
0001
0001
,  // measure 90
0001
0001
0001
0001
,  // measure 91
0001
0001
1000
1000
,  // measure 92
1000
1000
1000
1000
,  // measure 93
1000
1000
0010
0010
,  // measure 94
0010
0010
0010
0010
,  // measure 95
0010
0000
0110
0000
,  // measure 96
0110
0000
0110
0000
,  // measure 97
0110
0000
2002
0000
,  // measure 98
0000
3003
1001
0000
;

//---------------dance-single - ----------------
#NOTES:
     dance-single:
     :
     Easy:
     9:
     0.327183,0.454214,0.099912,0.138339,0.000000,298.000000,285.000000,13.000000,18.000000,0.000000,0.000000,0.327183,0.454214,0.099912,0.138339,0.000000,298.000000,285.000000,13.000000,18.000000,0.000000,0.000000:
0000
0000
0000
0000
,
0000
0000
0000
0000
,
0000
0000
0000
0000
,
0000
0000
0000
0000
,
0000
0000
0000
0000
,
0000
0000
0000
0000
,
0000
0000
0000
0000
,
0000
0000
0000
0000
,
0000
0000
0000
0000
,
0000
0000
1000
0000
,
1000
0000
0001
0000
,
0001
0000
0100
0000
,
0100
0000
0010
0000
,
0010
0000
1000
0001
,
0000
0001
1000
0000
,
0010
0100
0010
0010
,
0010
1000
1001
0000
,
0110
0000
0002
0000
,
2003
0000
3020
0000
,
0000
0130
0010
1000
,
0010
1000
0010
1000
,
0010
0000
0100
0001
,
0100
0001
0100
0001
,
0100
0000
0001
0010
,
0001
0010
0001
0010
,
0001
0000
1000
0100
,
1000
0100
1000
0100
,
1000
0000
0001
1000
,
0001
1000
0010
0100
,
0010
0100
0001
1000
,
0010
0100
0001
1000
,
0010
0100
0020
1030
,
1000
0100
0100
0010
,
0010
0001
0001
0100
,
0001
0010
0001
0100
,
0100
1000
0001
0000
,
1000
0000
0010
0000
,
0100
0100
0020
1030
,
0100
1000
0100
1000
,
0100
0100
0000
0001
,
0010
0001
0010
0001
,
0010
0010
0000
1000
,
0001
1000
0001
1000
,
0001
0001
0000
0010
,
0100
0010
0200
0000
,
0010
0310
0000
0010
,
0100
1000
0100
0010
,
0100
0100
0000
0100
,
0010
0001
0010
0100
,
0010
0010
0000
0001
,
1000
0001
0010
0001
,
1000
1000
0000
1000
,
0001
1000
0100
1000
,
0001
0001
0100
0000
,
1000
0000
0010
0000
,
0001
0000
0100
0000
,
1000
0000
0010
0000
,
0001
0000
0100
0000
,
0010
0000
1000
0000
,
0001
0000
0010
0000
,
0100
0000
1000
0000
,
1001
0110
1001
0001
,
0100
0000
1001
1000
,
0100
0000
1001
0001
,
0010
0000
1001
1000
,
0010
0000
0001
0100
,
2000
3000
1000
0010
,
0002
0003
0100
0010
,
0200
0320
0130
0100
,
0100
0002
1003
0010
,
1000
0000
0010
0001
,
0010
0000
0001
0100
,
0001
0000
0100
1000
,
0100
0000
0001
0100
,
0001
0000
0010
0001
,
0010
0000
1000
0010
,
1000
0000
0100
1000
,
0200
0320
0031
0100
,
0010
0000
0001
0100
,
0010
0000
1000
0010
,
0100
0000
1000
0010
,
0100
0000
0001
0100
,
1000
0000
0001
0100
,
1000
0100
0001
0100
,
1000
0100
0001
1000
,
0001
1000
1001
0000
,
0110
0000
2002
0000
,
0000
3003
0001
0100
,
0001
0100
0001
0100
,
0001
0100
1000
0100
,
1000
0100
1000
0100
,
1000
0100
1000
0010
,
1000
0010
1000
0010
,
1000
0010
0001
0010
,
0001
0010
0001
0010
,
0001
0200
1300
1000
,
0001
0001
0100
0100
,
0010
0010
0220
0000
,
0000
0330
1001
0000
;

//---------------dance-single - ----------------
#NOTES:
     dance-single:
     :
     Medium:
     13:
     0.599470,0.836952,0.338162,0.199823,0.000000,546.000000,502.000000,44.000000,26.000000,0.000000,0.000000,0.599470,0.836952,0.338162,0.199823,0.000000,546.000000,502.000000,44.000000,26.000000,0.000000,0.000000:
0000
0000
0000
0000
,
0000
0000
0000
0000
,
0000
0000
0000
0000
,
0000
0000
0000
0000
,
0000
0000
0000
0000
,
0000
0000
0000
0000
,
0000
0000
0000
0000
,
0000
0000
0000
0000
,
0000
0000
0000
0000
,
0000
0000
1000
1000
,
0001
0001
0100
0100
,
0010
0000
0010
0010
1000
0000
1000
0000
,
0100
0100
0010
0010
,
0001
0000
0001
0001
0100
0010
1000
0010
,
0000
0100
0001
0100
0010
0010
0000
1000
,
0100
0010
0001
0000
2002
0000
3003
0000
,
0110
1001
2020
3030
,
0202
0303
0011
0010
,
1100
0100
2002
0000
,
3003
0000
1001
0000
0110
0000
0010
1000
,
0010
1000
0010
1000
0010
1000
0010
1000
,
0010
1000
0000
1000
0100
0010
0001
0010
,
0001
0010
0001
0010
0001
0010
0001
0010
,
0001
0010
0001
0000
0001
0100
0010
0100
,
0010
0100
0010
0100
0010
0100
0010
0100
,
0010
0100
0000
0100
0001
1000
0001
1000
,
0001
1000
0001
1000
0001
1000
0001
1000
,
1001
0000
0001
0010
0100
0000
0100
0000
,
1000
1000
0010
0010
,
0001
0001
1000
0100
,
0001
0010
0100
1000
,
0001
0200
0320
1030
,
0100
0010
0001
1000
,
0010
0000
0100
0000
0001
0010
0000
0010
,
0001
0000
0001
0100
0100
0000
1000
0010
,
0110
1001
0110
1000
,
0100
0010
0001
1000
,
0010
0100
0010
0010
0010
0000
1000
0100
,
0010
0001
0000
0000
1000
0100
0010
0001
,
1000
0100
0010
0010
0000
0000
0001
0010
,
0100
1000
0000
0000
0001
0010
0100
1000
,
0001
0010
0110
0000
0000
0000
1000
0010
,
0100
0001
0000
0000
1000
0010
0100
0001
,
1000
0010
0100
0100
0000
0000
0001
0100
,
0010
1000
0000
0000
0002
0000
0000
0000
,
1000
1000
1003
0000
1100
0000
0001
0000
,
0101
1000
1100
0001
,
0101
0100
0100
0000
1010
0000
0001
0000
,
0011
1000
1010
0001
,
0011
0010
0020
0000
0130
0000
1100
0000
,
0001
0011
1000
1010
,
0001
0000
0101
0100
0100
0000
1010
0000
,
0001
0011
1000
1100
,
0001
0201
0320
1030
,
0100
0001
0000
0100
1000
0000
0100
0001
,
0000
0000
0100
1000
0010
0000
0100
0001
,
0000
0010
0100
0000
0000
1000
0010
0000
,
0100
0001
1000
0010
0200
0000
0301
0000
,
0010
1000
0000
0010
0001
0000
0010
1000
,
0000
0000
0010
0001
0100
0000
0010
1000
,
0000
0100
0010
0000
0000
0001
0100
0010
,
1000
0001
0200
0000
0310
1000
0100
0000
,
1000
0010
0100
0000
0010
1000
0100
0010
,
0001
0100
0010
0000
0100
0001
0010
0000
,
0001
0100
0010
0000
0100
0001
0010
0100
,
1000
0010
0100
0000
0001
1000
0001
0100
,
0001
1000
0020
0000
0130
0001
0010
0100
,
2000
0000
3002
0000
0103
0100
0010
0010
,
0110
0110
1000
0001
,
1000
0000
0010
0010
0100
0001
0100
0000
,
0001
0010
0001
0000
0010
0100
0010
0000
,
0100
1000
0100
0000
1000
0010
1000
0000
,
0010
0100
0010
0000
0100
0001
0100
0000
,
0001
1000
0001
0000
1000
0100
1000
0000
,
1000
0010
1000
0000
0001
0010
0001
0000
,
0001
0100
0001
0000
0100
0010
0100
0000
,
0010
1000
0010
0000
0100
0001
0100
0000
,
0110
0000
1001
0000
1000
0100
0010
0000
,
0001
0000
0100
0000
0010
1000
0001
0000
,
0010
0000
0100
0000
1000
0010
0100
0000
,
0001
0000
1000
0000
0100
0010
0001
0000
,
1000
0000
0010
0000
0100
0001
0100
0010
,
0100
0001
2000
0000
3010
1000
0010
0100
,
0010
1000
0100
0010
0001
0000
0001
0000
,
1000
0000
1000
0000
0010
0000
0010
0100
,
0010
0110
1000
1010
,
0001
0101
2000
3002
,
0203
0000
0310
0010
1000
0100
0010
0100
,
1000
0100
0010
0100
1000
0100
0010
0100
,
1000
0010
0000
0010
0100
0001
0010
0100
,
0010
0001
0010
0100
0010
0001
0010
0100
,
0010
0001
0100
0000
0100
0010
1000
0010
,
0001
0010
1000
0010
0001
0010
1000
0010
,
0001
0010
0000
0010
0100
0001
0100
1000
,
0100
0001
0100
1000
0100
0001
0100
1000
,
0200
0000
0310
0010
1001
0001
0100
0001
,
1001
1000
0100
1000
1001
0001
0010
0001
,
1001
1000
0010
1000
1001
0001
0010
0100
,
1000
0001
0010
0100
0220
0000
0000
0000
,
0330
0000
0000
0000
;

//---------------dance-single - ----------------
#NOTES:
     dance-single:
     :
     Hard:
     18:
     0.976060,1.255428,0.499558,0.415017,0.841563,889.000000,824.000000,65.000000,54.000000,0.000000,0.000000,0.976060,1.255428,0.499558,0.415017,0.841563,889.000000,824.000000,65.000000,54.000000,0.000000,0.000000:
0000
0000
0000
0000
,
0000
0000
0000
0000
,
0000
0000
0000
0000
,
0000
0000
0000
0000
,
0000
0000
0000
0000
,
0000
0000
0000
0000
,
0000
0000
0000
0000
,
0000
0000
0000
0000
,
0000
0000
0000
0000
,
0000
0000
0101
1000
,
1100
0001
0101
1000
,
1100
0000
0001
0001
0011
0000
1000
0000
,
1010
0001
0011
1000
,
1010
0000
0001
0001
0101
1000
0100
1000
,
0100
0000
1000
0000
0100
0000
0010
0100
0010
0000
0001
0000
0010
0000
0001
0000
,
0010
0000
0001
0000
0010
0000
0100
0010
0100
1000
0100
1000
0010
0100
0010
0100
,
0001
0010
0001
0010
0100
1000
0010
0100
0002
0000
0000
0000
0000
0000
0000
0000
,
2003
0000
0000
0000
3010
0010
0100
0100
,
0001
0000
0001
0000
1000
0000
1000
0000
0100
0000
0100
0000
0010
0001
0010
0001
,
0200
0000
0000
0000
0310
1000
0020
0000
0130
0000
0101
0000
0001
0010
0001
0010
,
0001
0010
0001
0010
0001
0010
0001
0010
0001
0010
0001
0010
0001
0010
0001
0010
,
0001
0010
0200
0000
0000
0000
0000
0000
1300
0000
1010
0000
0010
0100
0010
0100
,
0010
0100
0010
0100
0010
0100
0010
0100
0010
0100
0010
0100
0010
0100
0010
0100
,
0010
0100
0010
0100
0002
0000
0000
0000
0013
0000
0110
0000
0100
1000
0100
1000
,
0100
1000
0100
1000
0100
1000
0100
1000
0100
1000
0100
1000
0100
1000
0100
1000
,
0100
1000
0200
0000
0000
0000
0000
0000
0310
0000
0011
0000
0001
1000
0001
1000
,
0001
1000
0001
1000
0001
1000
0001
1000
0001
1000
0001
1000
0001
1000
0001
1000
,
0020
0000
0000
0000
0130
0010
1000
0001
0100
0000
0100
0000
0010
0000
1000
0000
,
0001
0000
0010
0000
0100
0000
1000
0010
1000
0000
0001
0000
0100
0000
0010
0000
,
1000
0100
1000
0000
0010
0000
0100
0001
0100
0001
0010
0000
0010
0000
0100
0000
,
1000
0000
0010
0000
0100
0000
0001
0010
0001
0000
0100
0000
0010
0000
1000
0000
,
0100
0010
0100
0000
2000
0000
0000
0000
3002
0000
0000
0000
0013
0000
0010
0000
,
0100
0000
0010
0000
0001
0000
0100
0010
0100
0000
0010
0000
1000
0000
0001
0000
,
0100
0001
0100
0001
0100
0000
0010
0000
1000
0100
0010
0000
0100
0000
1000
0100
,
0010
0000
0100
0000
1000
0010
0100
0000
0102
0000
0000
0000
0013
0000
0100
0000
,
1100
0000
1010
0000
0101
0001
1000
0100
,
0010
0000
0001
0000
1000
0000
0010
0000
0100
0000
0001
0000
0010
0000
0100
1000
,
0100
1000
0000
0100
0010
0000
0001
0100
0020
0000
0000
0000
1030
0000
0100
0000
,
0010
0001
0000
0000
1000
0010
0100
0001
,
1000
0100
0010
0220
0330
0000
0001
0010
,
0100
1000
0000
0000
0001
0100
0010
1000
,
0001
0010
0220
0000
0330
0000
1000
0010
,
0100
0001
0000
0000
1000
0100
0010
0001
,
1000
0010
0100
0202
0303
0000
0001
0010
,
0100
1000
0000
0000
1020
0000
0000
0000
,
0100
0100
0130
0000
0101
0001
0010
0001
,
0011
0010
0100
0010
0110
0100
1000
0100
,
1100
0001
0101
0000
1010
0010
1000
0010
,
0110
0100
0001
0100
0101
0001
1000
0001
,
1001
0100
0220
0330
0010
1000
0100
0001
,
0100
1000
0010
0001
0010
1000
0100
0010
,
0011
1000
1010
0000
0010
0100
0001
0100
,
1000
0000
0001
0000
0010
0000
1000
0000
0010
0100
0010
0000
0100
0001
0100
0001
,
1000
0010
1000
0010
0200
0000
0300
0000
0102
0000
0000
0000
1003
0000
0000
0000
,
1100
0010
0000
0101
0010
0000
1100
0020
,
0000
0130
0100
0001
0011
0000
1000
1100
,
0000
0001
0201
0000
0000
0310
1010
0000
,
1000
0100
0010
0001
1000
0000
1001
0000
,
0001
1100
0000
1000
0101
0000
0001
2010
,
0000
0000
3100
0010
0011
0000
0100
0110
,
0000
1000
1200
0000
0000
0310
0011
0011
,
0001
0100
0001
0100
0010
1000
0010
1000
0002
0000
0103
0000
0100
0010
1000
0000
,
0100
0000
1000
0020
0000
0000
0130
0001
0010
0000
0001
0100
0000
0010
0200
0000
,
0000
0301
1000
0000
0100
1000
0100
1000
0020
0000
0130
0000
0100
0001
0010
0000
,
0001
0000
0100
0020
0000
0000
1030
0100
0010
0000
0100
1000
0000
0010
0100
0000
,
0001
0020
0000
0000
0130
1000
0010
0100
0001
1000
0001
1000
0001
1000
0001
1000
,
0001
1000
0001
1000
0020
0000
0000
0000
1030
0001
1000
0001
1000
0001
1000
0001
,
1000
0100
0000
0200
0000
0000
0000
0000
1300
0010
0100
0001
1000
0010
0100
0001
,
2000
0000
0000
0000
3002
0000
0000
0000
0103
0010
0000
0000
0100
0001
0000
0000
,
0100
1000
0000
0000
0100
0010
0200
0000
0301
0000
0001
0000
0010
0000
0010
0000
,
0100
0100
1000
1000
0010
0010
0100
0100
,
0001
0000
0001
0000
1000
0100
0020
0000
0031
0000
0001
0000
0100
0000
0100
0000
,
0010
0010
1000
1000
0001
0001
0010
0010
,
0100
1000
0020
0000
0130
0001
0100
0001
0010
0000
0100
0000
1000
0000
0010
0000
,
0001
0010
0100
1000
0100
0010
1000
0001
,
0010
0000
0100
0000
1000
0010
0200
0000
0301
0000
1000
0000
0100
0000
0010
0000
,
0001
0000
0100
0000
0010
1000
0100
0010
0200
0000
0310
0100
0020
0000
0031
0000
,
0101
0000
0000
0000
1100
0000
0000
0000
1000
0010
0100
0000
1000
0000
0100
0000
,
0010
1000
0100
0000
0010
0000
0001
0000
0100
0010
0001
0000
0010
0000
0100
0000
,
0001
0010
0100
0000
0010
0001
0100
0000
0010
1000
0100
0000
0010
0000
0100
0000
,
1000
0010
0100
0000
0001
0000
0010
0000
0100
0010
0001
0000
0100
0000
0010
0000
,
0001
0010
0100
0000
0010
1000
0010
0100
0001
0000
0010
0000
0100
0000
1000
0000
,
0010
0000
0001
0000
0010
0100
0010
0000
1000
0000
0100
0000
0001
0000
0100
0000
,
0010
0001
0010
0001
1000
0100
1000
0100
0010
0000
0000
0011
0000
0000
0101
0000
,
0100
0000
0000
1100
0000
0000
1010
0000
0101
0000
0000
0011
0000
0000
1100
0000
,
1020
0000
0000
0000
0130
0001
2000
0000
3010
0000
0010
0000
0001
0000
0001
0000
,
0100
0100
1000
1000
0010
0010
0100
0001
,
2002
0000
3003
0000
1000
0100
0020
0000
0031
0000
0101
0000
0100
0010
1000
0010
,
0100
0010
1000
0010
0100
0010
1000
0010
0100
0010
1000
0010
0100
0010
1000
0010
,
0100
0010
2000
0000
0000
0000
0000
0000
3001
0000
0011
0000
0010
0100
0010
0001
,
0010
0100
0010
0001
0010
0100
0010
0001
0010
0100
0010
0001
0010
0100
0010
0001
,
0010
0100
0010
0001
0020
0000
0000
0000
0130
0000
1100
0000
1000
0010
1000
0001
,
1000
0010
1000
0001
1000
0010
1000
0001
1000
0010
1000
0001
1000
0010
1000
0001
,
1000
0010
2000
0000
0000
0000
0000
0000
3001
0000
0101
0000
0100
0001
1000
0001
,
0100
0001
1000
0001
0100
0001
1000
0001
0100
0001
1000
0001
0100
0001
1000
0001
,
0200
0000
0000
0000
0310
1000
0100
0010
0001
0100
0010
0100
0010
0100
0010
0100
,
1000
0100
0010
0100
0010
0100
0010
0100
0001
0100
0010
0100
0010
0100
0010
0100
,
1000
0100
0010
0100
0010
0100
0010
0100
0001
0010
0100
1000
0001
0010
0100
1000
,
0001
0010
0100
1000
0001
0010
0100
2000
0002
0000
0000
0000
0000
0000
0000
0000
,
3003
0000
0000
0000
;

//---------------dance-single - ----------------
#NOTES:
     dance-single:
     :
     Challenge:
     18:
     0.792705,1.065212,0.407332,0.399646,0.645583,722.000000,669.000000,53.000000,52.000000,496.000000,0.000000,0.792705,1.065212,0.407332,0.399646,0.645583,722.000000,669.000000,53.000000,52.000000,496.000000,0.000000:
0000
0000
0000
0000
,
0000
0000
0000
0000
,
0000
0000
0000
0000
,
0000
0000
0000
0000
,
0000
0000
0000
0000
,
0000
0000
0000
0000
,
0000
0000
0000
0000
,
0000
0000
0000
0000
,
0000
0000
0000
0000
,
0000
0000
0101
1000
,
1100
0001
0101
1000
,
1100
0000
0001
0001
0011
0000
1000
0000
,
1010
0001
0011
1000
,
1010
0000
0001
0001
0101
1000
0100
1000
,
0100
0000
1000
0000
0100
0000
0010
0100
0010
0000
0001
0000
0010
0000
0001
0000
,
0010
0000
0001
0000
0010
0000
0100
0010
0100
1000
0100
1000
0010
0100
0010
0100
,
0001
0010
0001
0010
0100
1000
0010
0100
0002
0000
0000
0000
0000
0000
0000
0000
,
2003
0000
0000
0000
3010
MMMM
0100
MMMM
,
0001
0000
MMMM
0000
1000
0000
MMMM
0000
0100
0000
MMMM
0000
0010
0001
0010
0001
,
0200
0000
0000
0000
0310
1000
0020
0000
0130
0000
MMMM
0000
0001
MMMM
0010
0000
,
0001
MMMM
0010
0000
0001
MMMM
0010
0000
0001
MMMM
0010
0000
0001
MMMM
0010
0000
,
0001
MMMM
2000
0000
0000
0000
0000
0000
3010
0000
MMMM
0000
0010
MMMM
0100
0000
,
0010
MMMM
0100
0000
0010
MMMM
0100
0000
0010
MMMM
0100
0000
0010
MMMM
0100
0000
,
0010
MMMM
0100
0000
0002
0000
0000
0000
0013
0000
MMMM
0000
1000
MMMM
0010
0000
,
1000
MMMM
0010
0000
1000
MMMM
0010
0000
1000
MMMM
0010
0000
1000
MMMM
0010
0000
,
1000
MMMM
0002
0000
0000
0000
0000
0000
1003
0000
MMMM
0000
1000
MMMM
0001
0000
,
1000
MMMM
0001
0000
1000
MMMM
0001
0000
1000
MMMM
0001
0000
1000
MMMM
0001
0000
,
0200
0000
0000
0000
0310
0100
0010
0100
0010
0000
MMMM
0000
0010
0000
1000
0000
,
0001
0000
0010
0000
0100
0000
1000
0010
1000
0000
0001
0000
0100
0000
0010
0000
,
1000
0100
1000
0000
0010
0000
0100
0001
0100
0001
0010
0000
0010
0000
0100
0000
,
1000
0000
0010
0000
0100
0000
0001
0010
0001
0000
0100
0000
0010
0000
1000
0000
,
0100
0010
0100
0000
1000
0000
MMMM
0000
0001
0000
MMMM
0000
1001
0000
0010
0000
,
0100
0000
0010
0000
0001
0000
0100
0010
0100
0000
0010
0000
1000
0000
0001
0000
,
0100
0001
0100
0001
0100
0000
0010
0000
1000
0100
0010
0000
MMMM
0000
1000
0100
,
0010
0000
MMMM
0000
1000
0010
0100
0000
0102
0000
0000
0000
0013
0000
0100
0000
,
1100
0000
1010
0000
0101
0001
1000
0100
,
0010
0000
0001
0000
1000
0000
0010
0000
0100
0000
0001
0000
0010
0000
0100
1000
,
0100
1000
0000
0100
0010
0000
0001
0100
0020
0000
0000
0000
1030
0000
0100
0000
,
0010
0001
MMMM
MMMM
1000
0010
0100
0001
,
1000
0100
0010
0220
0330
MMMM
0001
0010
,
0100
1000
MMMM
MMMM
0001
0100
0010
1000
,
0001
0010
0220
0000
0330
0000
1000
0010
,
0100
0001
MMMM
MMMM
1000
0100
0010
0001
,
1000
0010
0100
0202
0303
MMMM
0001
0010
,
0100
1000
MMMM
MMMM
1020
0000
0000
0000
,
0100
0100
0130
MMMM
MMMM
0001
0010
0001
,
MMMM
0010
0100
0010
MMMM
0100
1000
0100
,
1100
MMMM
0101
0000
MMMM
0010
1000
0010
,
MMMM
0100
0001
0100
MMMM
0001
1000
0001
,
1001
MMMM
0220
0330
0010
1000
0100
0001
,
0100
1000
0010
0001
0010
1000
0100
0010
,
0011
MMMM
1010
MMMM
0010
0100
0001
0100
,
1000
0000
0001
0000
0010
0000
1000
0000
0010
0100
0010
0000
0100
0001
0100
0001
,
1000
0010
1000
0010
0200
0000
0300
0000
0102
0000
0000
0000
1003
0000
0000
0000
,
1100
0010
0000
0101
0010
0000
1100
0020
,
0000
0130
0100
0001
0011
0000
1000
1100
,
0000
0001
0201
0000
0000
0310
1010
0000
,
1000
0100
0010
0001
1000
MMMM
1001
0000
,
0001
1100
0000
1000
0101
0000
0001
2010
,
0000
0000
3100
0010
0011
0000
0100
0110
,
0000
1000
1200
0000
0000
0310
0011
0011
,
0001
0100
0001
0100
0010
1000
0010
1000
0002
0000
0103
0000
0100
0010
1000
0000
,
0100
0000
1000
0020
0000
0000
0130
0001
0010
0000
0001
0100
0000
0010
0200
0000
,
0000
0301
1000
0000
0100
1000
0100
1000
0020
0000
0130
0000
0100
0001
0010
0000
,
0001
0000
0100
0020
0000
0000
1030
0100
0010
0000
0100
1000
0000
0010
0100
0000
,
0001
0020
0000
0000
0130
1000
0010
0100
0001
1000
0001
1000
0001
1000
0001
1000
,
0001
1000
0001
1000
0020
0000
0000
0000
1030
0001
1000
0001
1000
0001
1000
0001
,
1000
0100
0000
0200
0000
0000
0000
0000
1300
0010
0100
0001
1000
0010
0100
0001
,
2000
0000
0000
0000
3002
0000
0000
0000
0103
0010
MMMM
0000
0100
0001
MMMM
0000
,
0100
1000
MMMM
0000
0100
0010
0200
0000
0301
0000
MMMM
0000
0010
0000
MMMM
0000
,
0100
MMMM
1000
MMMM
0010
MMMM
0100
MMMM
,
0001
0000
MMMM
0000
1000
0100
0020
0000
0031
0000
MMMM
0000
0100
0000
MMMM
0000
,
0010
MMMM
1000
MMMM
0001
MMMM
0010
MMMM
,
0100
1000
0020
0000
0130
0001
0100
0001
0010
0000
0100
0000
1000
0000
MMMM
0000
,
0001
0010
0100
MMMM
0100
0010
1000
MMMM
,
0010
0000
0100
0000
1000
0010
0200
0000
0301
0000
1000
0000
0100
0000
MMMM
0000
,
0001
0000
0100
0000
0010
1000
0100
0010
0200
0000
0310
0100
0020
0000
0031
0000
,
0101
0000
MMMM
0000
1100
0000
MMMM
0000
1000
0010
0100
0000
1000
0000
MMMM
0000
,
0010
1000
0100
0000
0010
0000
MMMM
0000
0100
0010
0001
0000
0010
0000
MMMM
0000
,
0001
0010
0100
0000
0010
0001
0100
0000
0010
1000
0100
0000
0010
0000
MMMM
0000
,
1000
0010
0100
0000
0001
0000
MMMM
0000
0100
0010
0001
0000
0100
0000
MMMM
0000
,
0001
0010
0100
0000
0010
1000
0010
0100
0001
0000
0010
0000
0100
0000
1000
0000
,
0010
0001
0010
MMMM
1000
0100
0001
0100
,
0010
0001
0010
0001
1000
0100
1000
0100
0010
0000
0000
0011
0000
0000
0101
0000
,
0100
0000
0000
1100
0000
0000
1010
0000
0101
0000
0000
0011
0000
0000
1100
0000
,
1020
0000
0000
0000
0130
0001
2000
0000
3010
0000
MMMM
0000
0001
0000
MMMM
0000
,
0100
MMMM
1000
MMMM
0010
MMMM
0100
MMMM
,
2002
0000
3003
0000
1000
0100
0020
0000
0031
0000
0101
0000
0100
MMMM
0100
0000
,
0100
MMMM
0100
0000
0100
MMMM
0100
0000
0100
MMMM
0100
0000
0100
MMMM
0100
0000
,
0100
MMMM
0020
0000
0000
0000
0000
0000
1030
0000
MMMM
0000
1000
MMMM
1000
0000
,
1000
MMMM
1000
0000
1000
MMMM
1000
0000
1000
MMMM
1000
0000
1000
MMMM
1000
0000
,
1000
MMMM
1000
0000
2000
0000
0000
0000
3010
0000
MMMM
0000
0010
MMMM
0010
0000
,
0010
MMMM
0010
0000
0010
MMMM
0010
0000
0010
MMMM
0010
0000
0010
MMMM
0010
0000
,
0010
MMMM
0200
0000
0000
0000
0000
0000
0301
0000
MMMM
0000
0001
MMMM
0001
0000
,
0001
MMMM
0001
0000
0001
MMMM
0001
0000
0001
MMMM
0001
0000
0001
MMMM
0001
0000
,
0002
0000
0000
0000
0103
0010
0100
0010
1000
0100
1000
0100
1000
0000
MMMM
0000
,
0100
0001
0100
0001
0100
0000
MMMM
0000
0001
0010
0001
0010
0001
0000
MMMM
0000
,
0010
1000
0010
1000
0010
0000
MMMM
0000
1000
0100
0010
0001
1000
0100
0010
0001
,
1000
0100
0010
0001
1000
0100
0010
0002
2000
0000
0000
0000
0000
0000
0000
0000
,
3003
0000
0000
0000
;

//---------------dance-double - ----------------
#NOTES:
     dance-double:
     :
     Easy:
     9:
     0.329379,0.454214,0.092226,0.122968,0.000000,300.000000,288.000000,12.000000,16.000000,0.000000,0.000000,0.329379,0.454214,0.092226,0.122968,0.000000,300.000000,288.000000,12.000000,16.000000,0.000000,0.000000:
00000000
00000000
00000000
00000000
,
00000000
00000000
00000000
00000000
,
00000000
00000000
00000000
00000000
,
00000000
00000000
00000000
00000000
,
00000000
00000000
00000000
00000000
,
00000000
00000000
00000000
00000000
,
00000000
00000000
00000000
00000000
,
00000000
00000000
00000000
00000000
,
00000000
00000000
00000000
00000000
,
00000000
00000000
10000000
00000000
,
10000000
00000000
01000000
00000000
,
01000000
00000000
00100000
00000000
,
00100000
00000000
00001000
00000000
,
00001000
00000000
00010000
00000100
,
00000000
00000100
00010000
00000000
,
00001000
01000000
00001000
00010000
,
00000100
00010000
00011000
00000000
,
00001100
00000000
00000200
00000000
,
00000302
00000000
00000023
00000000
,
00000000
00001030
00010000
01000000
,
00010000
01000000
00010000
01000000
,
10000000
00000000
10000000
00100000
,
10000000
00100000
10000000
00100000
,
00010000
00000000
00010000
00001000
,
00010000
00001000
00010000
00001000
,
00000010
00000000
00000010
00000001
,
00000010
00000001
00000010
00000001
,
00000100
00000000
00000100
00001000
,
00000100
00001000
00010000
01000000
,
00010000
01000000
10000000
00100000
,
01000000
00001000
00010000
00000100
,
00001000
00000010
00020000
00031000
,
00001000
00100000
00100000
01000000
,
01000000
10000000
10000000
00100000
,
00010000
00001000
00000010
00000001
,
00000100
00001000
00010000
00000000
,
00000100
00000000
00001000
00000000
,
00000010
00000010
00020000
00031000
,
01000000
00001000
01000000
00001000
,
01000000
01000000
00000000
00010000
,
00100000
00010000
00100000
00010000
,
00100000
00100000
00000000
00001000
,
00010000
00001000
00010000
00001000
,
00010000
00010000
00000000
00000100
,
00000010
00000100
00000020
00000000
,
00000001
00000031
00000000
00000001
,
00000100
00001000
00000100
00000001
,
00000100
00001000
00000000
00000100
,
00001000
00010000
00001000
00000100
,
00001000
00010000
00000000
00001000
,
00010000
01000000
00010000
00001000
,
00010000
01000000
00000000
00010000
,
01000000
10000000
01000000
00010000
,
01000000
10000000
00100000
00000000
,
00010000
00000000
00100000
00000000
,
01000000
00000000
00010000
00000000
,
00100000
00000000
00001000
00000000
,
00010000
00000000
00000100
00000000
,
00000010
00000000
00000001
00000000
,
00001000
00000000
00000010
00000000
,
00010000
00000000
00001000
00000000
,
00011000
00011000
00011000
00010000
,
01000000
00000000
00011000
00001000
,
00000100
00000000
00011000
00010000
,
00100000
00000000
00011000
00001000
,
00000010
00000000
00000001
00000100
,
00002000
00003000
00010000
00100000
,
20000000
30000000
01000000
00100000
,
00002000
00023000
00030100
00000100
,
00000100
00000020
00000031
00000100
,
00001000
00000000
00000100
00001000
,
00010000
00000000
00001000
00010000
,
00100000
00000000
00010000
00100000
,
10000000
00000000
10000000
01000000
,
00010000
00000000
01000000
00010000
,
00001000
00000000
00010000
00001000
,
00000010
00000000
00001000
00000010
,
00000002
00002003
00003100
00010000
,
00001000
00000000
01000000
00001000
,
00010000
00000000
00000010
00010000
,
00001000
00000000
00100000
00001000
,
00010000
00000000
00001000
00100000
,
01000000
00000000
00010000
00000100
,
00000010
00000100
00010000
00000100
,
00000010
00000001
00000100
00001000
,
00010000
00001000
00011000
00000000
,
00011000
00000000
00022000
00000000
,
00000000
00033000
00010000
01000000
,
00010000
01000000
00010000
01000000
,
00010000
01000000
10000000
00100000
,
10000000
00100000
10000000
00100000
,
10000000
00100000
00010000
00001000
,
00000100
00000001
00000100
00000001
,
00000100
00000001
00000010
00001000
,
00000010
00001000
00000010
00001000
,
00000010
00002000
00013000
01000000
,
00010000
00001000
00000100
00001000
,
00010000
00100000
00010000
00001000
,
00000010
00001000
00011000
00000000
;

//---------------dance-double - ----------------
#NOTES:
     dance-double:
     :
     Medium:
     14:
     0.596176,0.684779,0.399646,0.192138,0.000000,543.000000,491.000000,52.000000,25.000000,0.000000,0.000000,0.596176,0.684779,0.399646,0.192138,0.000000,543.000000,491.000000,52.000000,25.000000,0.000000,0.000000:
00000000
00000000
00000000
00000000
,
00000000
00000000
00000000
00000000
,
00000000
00000000
00000000
00000000
,
00000000
00000000
00000000
00000000
,
00000000
00000000
00000000
00000000
,
00000000
00000000
00000000
00000000
,
00000000
00000000
00000000
00000000
,
00000000
00000000
00000000
00000000
,
00000000
00000000
00000000
00000000
,
00000000
00000000
10000000
10000000
,
01000000
01000000
00100000
00100000
,
00001000
00000000
00001000
00001000
00010000
00000000
00010000
00000000
,
00000100
00000100
00000010
00000010
,
00000001
00000000
00000100
00000100
00000010
00001000
00000100
00010000
,
00000000
00001000
00100000
00010000
01000000
01000000
00000000
00100000
,
10000000
00010000
01000000
00000000
02200000
00000000
03300000
00000000
,
00100000
10000000
02000000
03000000
,
00020000
00030000
00011000
00100000
,
00011000
00000010
00022000
00000000
,
00033000
00000000
00011000
00000000
01010000
00000000
01000000
10000000
,
01000000
10000000
01000000
10000000
01000000
10000000
01000000
10000000
,
01000000
10000000
00000000
10000000
00100000
00010000
00100000
00010000
,
00100000
00010000
00100000
00010000
00100000
00010000
00100000
00010000
,
00100000
00010000
00001000
00000000
00001000
00000010
00001000
00000010
,
00001000
00000010
00001000
00000010
00001000
00000010
00001000
00000010
,
00001000
00000010
00000000
00000010
00000001
00000100
00000001
00000100
,
00000001
00000100
00000001
00000100
00000001
00000100
00001000
00010000
,
00011000
00000000
00001000
00100000
01000000
00000000
01000000
00000000
,
10000000
10000000
00100000
00100000
,
00010000
00010000
00001000
00001000
,
00000100
00000100
00000001
00000001
,
00000010
00002000
00023000
00130000
,
10000000
01000000
00100000
00001000
,
00010000
00000000
00000100
00000000
00000010
00000100
00000000
00000010
,
00000100
00000010
00000001
00000100
00001000
00000000
00010000
00001000
,
00011000
00101000
00010010
00010000
,
00001000
00000100
00010000
01000000
,
00100000
10000000
02000000
00000000
03100000
00000000
00100000
00001000
,
00010000
00000010
00000000
00000000
00100000
00001000
00010000
00000010
,
00001000
00000100
00010000
00010000
00000000
00000000
00000100
00010000
,
00001000
01000000
00000000
00000000
00000100
00010000
00001000
01000000
,
00010000
00100000
01000000
00000000
00000000
00000000
10000000
00100000
,
00010000
00001000
00000000
00000000
10000000
00100000
00010000
00001000
,
00000010
00000100
00001000
00001000
00000000
00000000
00000001
00000010
,
00001000
00010000
00000000
00000000
00000002
00000000
00000000
00000000
,
00000100
00000100
00000103
00000000
00000101
00000000
00001100
00000000
,
00011000
00110000
10100000
11000000
,
01100000
10010000
10100000
00110000
,
00011000
00001100
00000101
00000011
,
00000110
00001001
00010010
00101000
,
00010100
01001000
00010100
00101000
,
00010010
01001000
00011000
00110000
,
00011000
00001010
00011000
01010000
,
00011000
00001200
00000302
00000013
,
00000010
00001000
00000000
00010000
00001000
00000000
00000100
00001000
,
00000000
00000000
00010000
00001000
00000010
00000000
00001000
00010000
,
00000000
00100000
00010000
00000000
00000000
00001000
00010000
00000000
,
01000000
10000000
00100000
01000000
00020000
00000000
00130000
00000000
,
00100000
01000000
00000000
00010000
00001000
00000000
00000010
00000100
,
00000000
00000000
00001000
00000001
00000100
00000000
00001000
00010000
,
00000000
01000000
00010000
00000000
00000000
00001000
00010000
00100000
,
10000000
01000000
00200000
00000000
00310000
00000000
01000000
00000000
,
00001000
00010000
00100000
00001000
,
00000010
00000100
00000110
00000000
00001000
00000000
00000010
00000000
,
00010000
00100000
10000000
00010000
,
01000000
00100000
01100000
00000000
10000000
01000000
00010000
01000000
,
10000000
01000000
00020000
00000000
00031000
00000010
00000001
00000010
,
00000200
00000000
00002300
00000000
00003010
00010000
00001000
00100000
,
00110000
00110000
10000000
00100000
,
00010000
00000000
00001000
00001000
00100000
01000000
10000000
00000000
,
00010000
00100000
01000000
00000000
00010000
00001000
00000010
00000000
,
00001000
00010000
00100000
00000000
00001000
00000010
00000100
00000000
,
00000010
00000100
00000001
00000000
00000010
00001000
00010000
00000000
,
00100000
00010000
00001000
00000000
00000100
00001000
00010000
00000000
,
01000000
00010000
00001000
00000000
00000100
00000010
00001000
00000000
,
00010000
01000000
00100000
00000000
10000000
01000000
00010000
00000000
,
00001000
00000010
00000001
00000000
00000100
00001000
00010000
00000000
,
00010100
00000000
01001000
00000000
01000000
00010000
10000000
00000000
,
01000000
00000000
00100000
00000000
00001000
00010000
00000100
00000000
,
00000010
00000000
00000001
00000000
00001000
00000010
00010000
00000000
,
00001000
00000000
00100000
00000000
01000000
00010000
00001000
00000000
,
00010000
00000000
01000000
00000000
10000000
00100000
01000000
00010000
,
00100000
00001000
00020000
00000000
00030100
00001000
00000010
00000100
,
00000001
00001000
00000100
00000010
00000001
00000000
00000100
00000000
,
00001000
00000000
00010000
00000000
00100000
00000000
10000000
01000000
,
00200000
01300000
00010000
00011000
,
00000100
00000110
00001002
00000203
,
00002300
00000000
00013000
00010000
00100000
10000000
00100000
00010000
,
00001000
00010000
00100000
10000000
00100000
00010000
00001000
00010000
,
00100000
01000000
00000000
01000000
00010000
00001000
00000100
00001000
,
00010000
00100000
00010000
00001000
00000100
00001000
00010000
00100000
,
00010000
00001000
00000010
00000000
00000010
00000001
00000010
00010000
,
00001000
00010000
00000010
00000001
00000010
00010000
00001000
00010000
,
00000010
00000001
00000000
00000001
00000010
00000100
00001000
00010000
,
01000000
00010000
00001000
00000010
00001000
00010000
01000000
00010000
,
00002000
00000000
00000010
00003010
00000001
00000100
00001000
00010000
,
00100000
10000000
01000000
00001000
00010000
00000010
00000001
00000100
,
00010000
00001000
00100000
10000000
01000000
00010000
00001000
00000010
,
00000001
00000100
00001000
00010000
00022000
00000000
00000000
00000000
,
00033000
00000000
00000000
00000000
;

//---------------dance-double - ----------------
#NOTES:
     dance-double:
     :
     Hard:
     18:
     0.891519,1.141298,0.422703,0.391961,0.587941,812.000000,757.000000,55.000000,51.000000,0.000000,0.000000,0.891519,1.141298,0.422703,0.391961,0.587941,812.000000,757.000000,55.000000,51.000000,0.000000,0.000000:
00000000
00000000
00000000
00000000
,
00000000
00000000
00000000
00000000
,
00000000
00000000
00000000
00000000
,
00000000
00000000
00000000
00000000
,
00000000
00000000
00000000
00000000
,
00000000
00000000
00000000
00000000
,
00000000
00000000
00000000
00000000
,
00000000
00000000
00000000
00000000
,
00000000
00000000
00000000
00000000
,
00000000
00000000
01010000
00001000
,
00011000
00000100
00001100
00000010
,
00000110
00000000
00000001
00000001
00001001
00000000
00000100
00000000
,
00010100
00001000
01001000
00100000
,
00110000
00000000
10000000
10000000
11000000
00010000
01000000
00010000
,
01000000
00000000
00010000
00000000
01000000
00000000
00001000
00010000
00000100
00000000
00001000
00000000
00000010
00000000
00001000
00000000
,
00000010
00000000
00001000
00000000
00000010
00000000
00000100
00000001
00000100
00000010
00000100
00000010
00000100
00001000
00000100
00001000
,
00010000
00001000
00010000
00001000
00010000
00100000
00010000
00100000
02000000
00000000
00000000
00000000
00000000
00000000
00000000
00000000
,
03020000
00000000
00000000
00000000
10030000
10000000
01000000
01000000
,
00100000
00000000
00100000
00000000
00001000
00000000
00001000
00000000
00010000
00000000
00010000
00000000
00000100
00000010
00000100
00000010
,
00000002
00000000
00000000
00000000
00000103
00001000
00020000
00000000
00031000
00000000
00011000
00000000
01000000
00000000
01000000
00000000
,
01000000
01000000
01000000
01000000
01000000
01000000
01000000
01000000
,
01000000
02000000
00000000
00000000
03001000
00011000
00000010
00000010
,
00000010
00000010
00000010
00000010
00000010
00000010
00000010
00000010
,
00000010
00000010
00000020
00000000
00010030
00011000
00001000
00001000
,
00001000
00001000
00001000
00001000
00001000
00001000
00001000
00001000
,
00001000
00002000
00000000
00000000
00013000
00011000
00010000
00010000
,
00010000
00010000
00010000
00010000
00010000
00010000
00010000
00010000
,
00020000
00000000
00000000
00000000
00031000
00010000
00001000
00010000
01000000
00000000
01000000
00000000
10000000
00000000
00100000
00000000
,
00010000
00000000
00001000
00000000
00000100
00000000
00000001
00000010
00000001
00000000
00000100
00000000
00001000
00000000
00010000
00000000
,
00100000
10000000
00100000
00000000
01000000
00000000
00010000
00100000
00010000
00100000
01000000
00000000
00010000
00000000
00001000
00000000
,
00000010
00000000
00000001
00000000
00000100
00000000
00000010
00001000
00000010
00000000
00000100
00000000
00000001
00000000
00000010
00000000
,
00001000
00010000
00001000
00000000
00020000
00000000
00000000
00000000
02030000
00000000
00000000
00000000
13000000
00000000
00100000
00000000
,
01000000
00000000
00010000
00000000
00100000
00000000
01000000
10000000
01000000
00000000
00100000
00000000
00001000
00000000
00010000
00000000
,
00000100
00001000
00000100
00001000
00000001
00000000
00000100
00000000
00000010
00010000
00002000
00000000
00000000
00000000
00013000
00000010
,
00002000
00000000
00000000
00000000
00003010
00010000
00001000
00000000
00021000
00000000
00000000
00000000
01030000
00000000
10000000
00000000
,
10100000
00000000
00110000
00000000
00011000
00010000
00001000
00000100
,
00000010
00010000
00001000
00000100
00000010
00010000
00001000
00000100
,
00000001
00000010
00001000
00010000
00012000
00000000
00013000
00001000
,
00000100
00000001
00000000
00000000
00010000
00001000
00000100
00000001
,
00000010
00000100
00010000
00022000
00033000
00000000
00001000
00010000
,
00100000
10000000
00000000
00000000
00001000
00010000
00100000
10000000
,
01000000
00100000
02200000
00000000
03300000
00000000
01000000
00010000
,
00001000
00000100
00000000
00000000
01000000
00010000
00001000
00000100
,
00000001
00000010
00000100
00000220
00000330
00000000
00000010
00001000
,
00010000
00100000
00000000
00000000
20100000
00000000
00000000
00000000
,
01000000
01000000
31000000
00000000
01000000
00010000
00001000
00010000
,
00100000
00010000
00001000
00000010
00001000
00010000
01000000
00010000
,
00001000
00000100
00000001
00000001
00000010
00001000
00010000
00001000
,
00000100
00001000
00010000
01000000
00010000
00001000
00000010
00001000
,
00010000
00100000
10100000
00000000
10000000
01000000
00010000
00001000
,
01000000
00010000
00001000
00000100
00010000
00001000
00000100
00000001
,
00000010
00000100
00000100
00000010
00000001
00000100
00001000
00010000
,
00000100
00000000
00001000
00000000
00010000
00000000
00100000
00000000
00001000
00000000
00010000
00000000
00100000
10000000
00100000
10000000
,
00100000
10000000
00100000
10000000
02000000
00000000
03000000
00000000
01200000
00000000
00000000
00000000
00301000
00000000
00000000
00000000
,
00011000
00100000
00000000
00011000
00000010
00000000
00011000
02000000
,
00000000
03100000
00100000
10000000
11000000
00000000
00100000
00110000
,
00000000
00001000
00021000
00000000
00000000
00030100
00000110
00000000
,
00000010
00000001
00000100
00001000
00010000
00000000
00011000
00000000
,
00010100
00010000
00000000
01001000
00001000
00000000
00010010
00020000
,
00000000
00000000
00031000
00100000
01100000
00000000
10000000
10010000
,
00000000
00100000
02100000
00000000
00000000
13000000
10100000
00100000
,
00010000
00001000
00010000
00001000
00010000
00001000
00010000
00001000
00000020
00000000
00000031
00000000
00000001
00000100
00000001
00000000
,
00000100
00000000
00000000
00001000
00000000
00000000
00010000
00001000
00010000
00000000
00010000
00100000
00000000
00100000
20000000
00000000
,
00000000
31000000
00100000
00000000
01000000
10000000
01000000
10000000
02000000
00000000
03100000
00000000
00100000
00001000
00100000
00000000
,
00001000
00000000
00000000
00010000
00000000
00000000
00000100
00000010
00000100
00000000
00001000
00000010
00000000
00000100
00000001
00000000
,
00000010
00000200
00000000
00000000
00001300
00000010
00001000
00000010
00010000
00001000
00010000
00001000
00010000
00001000
00010000
00001000
,
00010000
00001000
00010000
00001000
00200000
00000000
00000000
00000000
00301000
00010000
00001000
00010000
00001000
00010000
00001000
00010000
,
00001000
00000010
00000000
00000020
00000000
00000000
00000000
00000000
00000031
00000100
00000001
00000000
00001000
00000100
00001000
00000000
,
00000200
00000000
00000000
00000000
00020300
00000000
00000000
00000000
01030000
10000000
00000000
00000000
10000000
00100000
00000000
00000000
,
00100000
00010000
00000000
00000000
00010000
00001000
00020000
00000000
00030100
00000000
00000100
00000000
00000010
00000000
00000010
00000000
,
00000001
00000001
00000100
00000100
00001000
00001000
00010000
00010000
,
00100000
00100000
10000000
02000000
03010000
00010000
01000000
01000000
,
00100000
00100000
00001000
00001000
00010000
00010000
00000100
00000100
,
00000010
00000000
00000002
00000000
00000103
00001000
00000100
00000000
00000010
00000000
00000010
00000000
00010000
00000000
00010000
00000000
,
00001000
00001000
00100000
00100000
01000000
01000000
10000000
10000000
,
00100000
00100000
00010000
00002000
00103000
00100000
01000000
01000000
,
00010000
00000000
00001000
00000000
00000010
00000001
00000010
00000001
00000200
00000000
00000310
00010000
00002000
00000000
00103000
00000000
,
01100000
00000000
00000000
00000000
10010000
00000000
00000000
00000000
10000000
01000000
00010000
00000000
01000000
00000000
00010000
00000000
,
01000000
00000000
00010000
00000000
01000000
00000000
00010000
00000000
01000000
00010000
00001000
00000000
00010000
00000000
00001000
00000000
,
00010000
00000100
00010000
00000000
00001000
01000000
00001000
00000000
00010000
00001000
00000010
00000000
00001000
00000000
00000010
00000000
,
00001000
00000000
00000010
00000000
00001000
00000010
00000001
00000000
00000010
00000000
00000001
00000000
00000010
00000000
00000001
00000000
,
00000010
00000001
00000100
00000000
00000010
00001000
00000010
00001000
00000100
00000000
00010000
00000000
00001000
00000000
00000010
00000000
,
00001000
00000000
00010000
00000000
00100000
10000000
00100000
00000000
00010000
00000000
00001000
00000000
00000100
00000000
00000001
00000000
,
00000010
00000100
00000010
00000000
00001000
00010000
00001000
00010000
01000000
00000000
00000000
11000000
00000000
00000000
10100000
00000000
,
01100000
00000000
00000000
01010000
00000000
00000000
00110000
00000000
00101000
00000000
00000000
00011000
00000000
00000000
00010100
00000000
,
00000120
00000000
00000000
00000000
00000031
00000100
00000001
00000000
00001000
00000000
00001000
00000000
00000100
00000000
00000100
00000000
,
00010000
00010000
01000000
01000000
00100000
00100000
00001000
00010000
,
00022000
00000000
00033000
00000000
00001000
00010000
00200000
00000000
10300000
00000000
11000000
00000000
01000000
00100000
01000000
00100000
,
01000000
00100000
01000000
00100000
01000000
00100000
01000000
00100000
01000000
00100000
01000000
00100000
01000000
00100000
01000000
00100000
,
01000000
00100000
00002000
00000000
00000000
00000000
00000000
00000000
00013000
00000000
00011000
00000000
00010000
00001000
00010000
00001000
,
00010000
00001000
00010000
00001000
00010000
00001000
00010000
00001000
00010000
00001000
00010000
00001000
00010000
00001000
00010000
00001000
,
00010000
00001000
00010000
00001000
00000200
00000000
00000000
00000000
00000301
00000000
00000011
00000000
00000010
00000100
00000010
00000100
,
00000010
00000100
00000010
00000100
00000010
00000100
00000010
00000100
00000010
00000100
00000010
00000100
00000010
00000100
00000010
00000100
,
00000010
00000100
00002000
00000000
00000000
00000000
00000000
00000000
00003010
00000000
00010010
00000000
00010000
00001000
00010000
00001000
,
00010000
00001000
00010000
00001000
00010000
00001000
00010000
00001000
00010000
00001000
00010000
00001000
00010000
00001000
00010000
00001000
,
00200000
00000000
00000000
00000000
01300000
10000000
01000000
00100000
00010000
01000000
00010000
01000000
00010000
00000000
00100000
00000000
,
00001000
00010000
00001000
00010000
00001000
00000000
00000100
00000000
00000001
00000010
00000001
00000010
00000001
00000000
00000100
00000000
,
00001000
00010000
00001000
00010000
00001000
00000000
00100000
00000000
01000000
10000000
01000000
10000000
01000000
00100000
01000000
00100000
,
00010000
00100000
00010000
00100000
00010000
00001000
00010000
00002000
00020000
00000000
00000000
00000000
00000000
00000000
00000000
00000000
,
00033000
00000000
00000000
00000000
;

//---------------dance-double - ----------------
#NOTES:
     dance-double:
     :
     Challenge:
     18:
     0.777334,1.065212,0.361219,0.376590,0.461131,708.000000,661.000000,47.000000,49.000000,864.000000,0.000000,0.777334,1.065212,0.361219,0.376590,0.461131,708.000000,661.000000,47.000000,49.000000,864.000000,0.000000:
00000000
00000000
00000000
00000000
,
00000000
00000000
00000000
00000000
,
00000000
00000000
00000000
00000000
,
00000000
00000000
00000000
00000000
,
00000000
00000000
00000000
00000000
,
00000000
00000000
00000000
00000000
,
00000000
00000000
00000000
00000000
,
00000000
00000000
00000000
00000000
,
00000000
00000000
00000000
00000000
,
00000000
00000000
01010000
00001000
,
00011000
00000100
00001100
00000010
,
00000110
00000000
00000001
00000001
00001001
00000000
00000100
00000000
,
00010100
00001000
01001000
00100000
,
00110000
00000000
10000000
10000000
11000000
00010000
01000000
00010000
,
01000000
00000000
00010000
00000000
01000000
00000000
00001000
00010000
00000100
00000000
00001000
00000000
00000010
00000000
00001000
00000000
,
00000010
00000000
00001000
00000000
00000010
00000000
00000100
00000001
00000100
00000010
00000100
00000010
00000100
00001000
00000100
00001000
,
00010000
00001000
00010000
00001000
00010000
00100000
00010000
00100000
02000000
00000000
00000000
00000000
00000000
00000000
00000000
00000000
,
03020000
00000000
00000000
00000000
10030000
MMMMMMMM
01000000
MMMMMMMM
,
00100000
00000000
MMMMMMMM
00000000
00001000
00000000
MMMMMMMM
00000000
00010000
00000000
MMMMMMMM
00000000
00000100
00000010
00000100
00000010
,
00000002
00000000
00000000
00000000
00000103
00001000
00020000
00000000
00031000
00000000
MMMMMMMM
00000000
01000000
MMMMMMMM
01000000
00000000
,
01000000
MMMMMMMM
01000000
00000000
01000000
MMMMMMMM
01000000
00000000
01000000
MMMMMMMM
01000000
00000000
01000000
MMMMMMMM
01000000
00000000
,
01000000
MMMMMMMM
02000000
00000000
00000000
00000000
00000000
00000000
03001000
00000000
MMMMMMMM
00000000
00000010
MMMMMMMM
00000010
00000000
,
00000010
MMMMMMMM
00000010
00000000
00000010
MMMMMMMM
00000010
00000000
00000010
MMMMMMMM
00000010
00000000
00000010
MMMMMMMM
00000010
00000000
,
00000010
MMMMMMMM
00000010
00000000
00000020
00000000
00000000
00000000
00010030
00000000
MMMMMMMM
00000000
00001000
MMMMMMMM
00001000
00000000
,
00001000
MMMMMMMM
00001000
00000000
00001000
MMMMMMMM
00001000
00000000
00001000
MMMMMMMM
00001000
00000000
00001000
MMMMMMMM
00001000
00000000
,
00001000
MMMMMMMM
00002000
00000000
00000000
00000000
00000000
00000000
00013000
00000000
MMMMMMMM
00000000
00010000
MMMMMMMM
00010000
00000000
,
00010000
MMMMMMMM
00010000
00000000
00010000
MMMMMMMM
00010000
00000000
00010000
MMMMMMMM
00010000
00000000
00010000
MMMMMMMM
00010000
00000000
,
00020000
00000000
00000000
00000000
00031000
00010000
00001000
00010000
01000000
00000000
01000000
00000000
10000000
00000000
00100000
00000000
,
00010000
00000000
00001000
00000000
00000100
00000000
00000001
00000010
00000001
00000000
00000100
00000000
00001000
00000000
00010000
00000000
,
00100000
10000000
00100000
00000000
01000000
00000000
00010000
00100000
00010000
00100000
01000000
00000000
00010000
00000000
00001000
00000000
,
00000010
00000000
00000001
00000000
00000100
00000000
00000010
00001000
00000010
00000000
00000100
00000000
00000001
00000000
00000010
00000000
,
00001000
00010000
00001000
00000000
00020000
00000000
00000000
00000000
02030000
00000000
00000000
00000000
13000000
00000000
00100000
00000000
,
01000000
00000000
00010000
00000000
00100000
00000000
01000000
10000000
01000000
00000000
00100000
00000000
00001000
00000000
00010000
00000000
,
00000100
00001000
00000100
00001000
00000001
00000000
00000100
00000000
00000010
00010000
00001000
00000000
MMMMMMMM
00000000
00010000
00000010
,
00001000
00000000
MMMMMMMM
00000000
00000010
00010000
00001000
00000000
00021000
00000000
00000000
00000000
01030000
00000000
10000000
00000000
,
10100000
MMMMMMMM
00110000
MMMMMMMM
00011000
00010000
00001000
00000100
,
00000010
00010000
00001000
00000100
00000010
00010000
00001000
00000100
,
00000001
00000010
00001000
00010000
00012000
00000000
00013000
00001000
,
00000100
00000001
MMMMMMMM
MMMMMMMM
00010000
00001000
00000100
00000001
,
00000010
00000100
00010000
00022000
00033000
00000000
00001000
00010000
,
00100000
10000000
MMMMMMMM
MMMMMMMM
00001000
00010000
00100000
10000000
,
01000000
00100000
02200000
00000000
03300000
00000000
01000000
00010000
,
00001000
00000100
MMMMMMMM
MMMMMMMM
01000000
00010000
00001000
00000100
,
00000001
00000010
00000100
00000220
00000330
00000000
00000010
00001000
,
00010000
00100000
MMMMMMMM
MMMMMMMM
20100000
00000000
00000000
00000000
,
01000000
01000000
31000000
MMMMMMMM
01000000
00010000
00001000
00010000
,
00100000
00010000
00001000
00000010
00001000
00010000
01000000
00010000
,
00001000
00000100
00000001
00000001
00000010
00001000
00010000
00001000
,
00000100
00001000
00010000
01000000
00010000
00001000
00000010
00001000
,
00010000
00100000
10100000
MMMMMMMM
10000000
01000000
00010000
00001000
,
01000000
00010000
00001000
00000100
00010000
00001000
00000100
00000001
,
00000010
00000100
00000100
00000010
00000001
00000100
00001000
00010000
,
00000100
00000000
00001000
00000000
00010000
00000000
00100000
00000000
00001000
00000000
00010000
00000000
00100000
10000000
00100000
10000000
,
00100000
10000000
00100000
10000000
02000000
00000000
03000000
00000000
01200000
00000000
00000000
00000000
00301000
00000000
00000000
00000000
,
00011000
00100000
00000000
00011000
00000010
00000000
00011000
02000000
,
00000000
03100000
00100000
10000000
11000000
00000000
00100000
00110000
,
00000000
00001000
00021000
00000000
00000000
00030100
00000110
00000000
,
00000010
00000001
00000100
00001000
00010000
MMMMMMMM
00011000
00000000
,
00010100
00010000
00000000
01001000
00001000
00000000
00010010
00020000
,
00000000
00000000
00031000
00100000
01100000
00000000
10000000
10010000
,
00000000
00100000
02100000
00000000
00000000
13000000
10100000
00100000
,
00010000
00001000
00010000
00001000
00010000
00001000
00010000
00001000
00000020
00000000
00000031
00000000
00000001
00000100
00000001
00000000
,
00000100
00000000
00000000
00001000
00000000
00000000
00010000
00001000
00010000
00000000
00010000
00100000
00000000
00100000
20000000
00000000
,
00000000
31000000
00100000
00000000
01000000
10000000
01000000
10000000
02000000
00000000
03100000
00000000
00100000
00001000
00100000
00000000
,
00001000
00000000
00000000
00010000
00000000
00000000
00000100
00000010
00000100
00000000
00001000
00000010
00000000
00000100
00000001
00000000
,
00000010
00000200
00000000
00000000
00001300
00000010
00001000
00000010
00010000
00001000
00010000
00001000
00010000
00001000
00010000
00001000
,
00010000
00001000
00010000
00001000
00200000
00000000
00000000
00000000
00301000
00010000
00001000
00010000
00001000
00010000
00001000
00010000
,
00001000
00000010
00000000
00000020
00000000
00000000
00000000
00000000
00000031
00000100
00000001
00000000
00001000
00000100
00001000
00000000
,
00000200
00000000
00000000
00000000
00020300
00000000
00000000
00000000
01030000
10000000
00000000
00000000
10000000
00100000
00000000
00000000
,
00100000
00010000
00000000
00000000
00010000
00001000
00020000
00000000
00030100
00000000
MMMMMMMM
00000000
00000010
00000000
MMMMMMMM
00000000
,
00000001
MMMMMMMM
00000100
MMMMMMMM
00001000
MMMMMMMM
00010000
MMMMMMMM
,
00100000
MMMMMMMM
10000000
02000000
03010000
MMMMMMMM
01000000
MMMMMMMM
,
00100000
MMMMMMMM
00001000
MMMMMMMM
00010000
MMMMMMMM
00000100
MMMMMMMM
,
00000010
00000000
00000002
00000000
00000103
00001000
00000100
00000000
00000010
00000000
MMMMMMMM
00000000
00010000
00000000
MMMMMMMM
00000000
,
00001000
MMMMMMMM
00100000
MMMMMMMM
01000000
MMMMMMMM
10000000
MMMMMMMM
,
00100000
MMMMMMMM
00010000
00002000
00103000
MMMMMMMM
01000000
MMMMMMMM
,
00010000
00000000
00001000
00000000
00000010
00000001
00000010
00000001
00000200
00000000
00000310
00010000
00002000
00000000
00103000
00000000
,
01100000
00000000
MMMMMMMM
00000000
10010000
00000000
MMMMMMMM
00000000
10000000
01000000
00010000
00000000
01000000
00000000
00010000
00000000
,
01000000
00000000
00010000
00000000
01000000
00000000
00010000
00000000
01000000
00010000
00001000
00000000
00010000
00000000
00001000
00000000
,
00010000
00000100
00010000
00000000
00001000
01000000
00001000
00000000
00010000
00001000
00000010
00000000
00001000
00000000
00000010
00000000
,
00001000
00000000
00000010
00000000
00001000
00000010
00000001
00000000
00000010
00000000
00000001
00000000
00000010
00000000
00000001
00000000
,
00000010
00000001
00000100
00000000
00000010
00001000
00000010
00001000
00000100
00000000
00010000
00000000
00001000
00000000
00000010
00000000
,
00001000
00000000
00010000
00000000
00100000
10000000
00100000
00000000
00010000
00000000
00001000
00000000
00000100
00000000
00000001
00000000
,
00000010
00000100
00000010
00000000
00001000
00010000
00001000
00010000
01000000
00000000
00000000
11000000
00000000
00000000
10100000
00000000
,
01100000
00000000
00000000
01010000
00000000
00000000
00110000
00000000
00101000
00000000
00000000
00011000
00000000
00000000
00010100
00000000
,
00000120
00000000
00000000
00000000
00000031
00000100
00000001
00000000
00001000
00000000
MMMMMMMM
00000000
00000100
00000000
MMMMMMMM
00000000
,
00010000
MMMMMMMM
01000000
MMMMMMMM
00100000
MMMMMMMM
00001000
00010000
,
00022000
00000000
00033000
00000000
00001000
00010000
00200000
00000000
10300000
00000000
MMMMMMMM
00000000
1000MMMM
00000000
MMMM1000
00000000
,
1000MMMM
MMMM1000
1000MMMM
MMMM1000
1000MMMM
MMMM1000
1000MMMM
MMMM1000
,
1000MMMM
MMMM2000
00000000
00000000
00013000
MMMMMMMM
0001MMMM
MMMM0001
,
0001MMMM
MMMM0001
0001MMMM
MMMM0001
0001MMMM
MMMM0001
0001MMMM
MMMM0001
,
0001MMMM
MMMM0001
0002MMMM
00000000
00031000
MMMMMMMM
MMMM0010
0010MMMM
,
MMMM0010
0010MMMM
MMMM0010
0010MMMM
MMMM0010
0010MMMM
MMMM0010
0010MMMM
,
MMMM0010
0020MMMM
00000000
00000000
00301000
MMMMMMMM
0100MMMM
MMMM0100
,
0100MMMM
MMMM0100
0100MMMM
MMMM0100
0100MMMM
MMMM0100
0100MMMM
MMMM0100
,
0200MMMM
00000000
00000000
00000000
03010000
10000000
00010000
10000000
00100000
01000000
00100000
00000000
00010000
00000000
00001000
00000000
,
00000010
00000100
00000010
00000000
00001000
00000000
00010000
00000000
01000000
00100000
01000000
00000000
00010000
00000000
00001000
00000000
,
00000100
00000010
00000100
00000000
00001000
00000000
00010000
00000000
0010MMMM
00000000
1000MMMM
00000000
MMMM1000
00000000
0100MMMM
00000000
,
MMMM0100
0010MMMM
MMMM0010
0002MMMM
00000002
00000000
00000000
00000000
,
00030003
00000000
00000000
00000000
;
