#VERSION:0.83;
#TITLE:we met dat night;
#SUBTITLE:;
#ARTIST:Vospi;
#TITLETRANSLIT:;
#SUBTITLETRANSLIT:;
#ARTISTTRANSLIT:;
#GENRE:XROSS;
#ORIGIN:;
#CREDIT:MUINELIM;
#BANNER:we met dat night.jpg;
#BACKGROUND:we met dat night-bg.jpg;
#PREVIEWVID:;
#JACKET:we met dat night-jacket.png;
#CDIMAGE:;
#DISCIMAGE:;
#LYRICSPATH:;
#CDTITLE:;
#MUSIC:We Met Dat Night.ogg;
#OFFSET:-0.356000;
#SAMPLESTART:73.695999;
#SAMPLELENGTH:17.000000;
#SELECTABLE:YES;
#BPMS:0.000=111.000;
#STOPS:77.500=0.811,
92.000=0.811,
109.000=3.784;
#DELAYS:;
#WARPS:;
#TIMESIGNATURES:0.000=4=4;
#TICKCOUNTS:0.000=2;
#COMBOS:0.000=1;
#SPEEDS:0.000=1.000=0.000=0;
#SCROLLS:0.000=1.000;
#FAKES:;
#LABELS:0.000=Song Start;
#BGCHANGES:;
#KEYSOUNDS:;
#ATTACKS:
;

//---------------dance-single - ----------------
#NOTEDATA:;
#CHARTNAME:;
#STEPSTYPE:dance-single;
#DESCRIPTION:;
#CHARTSTYLE:;
#DIFFICULTY:Beginner;
#METER:3;
#RADARVALUES:0.126343,0.179524,0.067292,0.000000,0.000000,92.000000,85.000000,7.000000,0.000000,0.000000,0.000000,0.000000,0.000000,0.000000,0.126343,0.179524,0.067292,0.000000,0.000000,92.000000,85.000000,7.000000,0.000000,0.000000,0.000000,0.000000,0.000000,0.000000;
#CREDIT:MILEN;
#NOTES:
0000
0000
0000
0000
,
1000
0000
1000
0000
,
1000
0000
1000
0000
,
0001
0000
0001
0000
,
0001
0000
0001
0000
,
0100
0000
0100
0000
,
0010
0000
0010
0000
,
0100
0000
0010
0000
,
0100
0000
0010
0000
,
1000
0000
0100
0000
,
0010
0000
0001
0000
,
1000
0000
0100
0000
,
0010
0010
0010
0000
,
0001
0000
0100
0000
,
0010
0000
1000
0000
,
0001
0000
0100
0000
,
0010
0010
0010
0000
,
0000
0000
1001
0000
,
1000
0000
0001
0000
,
1000
0000
0000
0000
0000
0001
0000
0000
,
0000
1000
0000
0000
0000
0001
0000
0000
,
0000
1000
0000
0000
0000
0010
0000
0000
,
0000
0100
0000
0000
0000
0010
0000
0000
,
0000
0100
0000
0010
,
0000
0100
0000
0100
,
0000
1001
0000
1001
,
0000
1001
0000
0010
,
0010
0010
1000
0000
,
1000
0000
1000
0000
,
1000
0000
0001
0000
,
0001
0000
0001
0000
,
0001
0000
1000
0000
,
0010
0000
0001
0000
,
0100
0000
1000
0000
,
0010
0000
0001
0000
,
0100
0000
1000
0000
,
0001
0000
1000
0000
,
0001
0000
0010
0000
,
0100
0000
0010
0000
,
0100
0000
1001
0000
,
1001
0000
1001
0000
,
0010
0010
0010
0000
;

//---------------dance-single - ----------------
#NOTEDATA:;
#CHARTNAME:;
#STEPSTYPE:dance-single;
#DESCRIPTION:;
#CHARTSTYLE:;
#DIFFICULTY:Easy;
#METER:5;
#RADARVALUES:0.201875,0.245133,0.173035,0.019226,0.000000,147.000000,129.000000,18.000000,2.000000,0.000000,0.000000,0.000000,0.000000,0.000000,0.201875,0.245133,0.173035,0.019226,0.000000,147.000000,129.000000,18.000000,2.000000,0.000000,0.000000,0.000000,0.000000,0.000000;
#CREDIT:MILEN;
#NOTES:
0000
0000
0000
0000
,
1000
0000
0001
0000
,
1000
0000
0001
0000
,
1000
0000
0001
0000
,
1000
1000
1000
0000
,
0010
0000
0100
0000
,
0010
0000
0100
0000
,
0010
0000
0100
0000
,
0010
0010
0010
0000
,
1000
0001
0100
0000
,
0001
1000
0010
0000
,
1000
0001
0100
0000
,
0001
1000
0010
0010
,
0100
0001
1000
0000
,
0010
1000
0001
0000
,
0100
0001
1000
0000
,
0010
1000
0001
0001
,
0001
0001
0010
0100
,
1000
0001
1000
0100
,
0010
0000
0001
0001
0000
1001
0000
0000
,
0000
1000
0000
0010
0000
0100
0000
0001
,
0000
0100
0000
0010
0000
1000
0000
0001
,
0000
0010
0000
0100
0000
1000
0000
0010
,
0010
0110
0000
0100
,
0001
0100
0010
1000
,
0010
0110
0000
1001
,
0000
0110
0000
1001
,
0110
1001
1000
0000
,
0100
0000
0010
0000
,
0001
0000
1000
0000
,
0010
0000
0100
0000
,
0001
0001
0010
0001
,
0100
0001
0010
0001
,
0100
0110
0010
1000
,
0100
1000
0010
1000
,
0100
0110
0001
0100
,
1000
0100
0001
0100
,
1000
0110
0001
0010
,
1000
0010
0001
0010
,
1000
0110
1001
0000
,
0110
0000
1001
0000
,
0110
1001
0220
0000
,
0000
0000
0330
0000
;

//---------------dance-single - ----------------
#NOTEDATA:;
#CHARTNAME:;
#STEPSTYPE:dance-single;
#DESCRIPTION:;
#CHARTSTYLE:;
#DIFFICULTY:Medium;
#METER:10;
#RADARVALUES:0.370790,0.449411,0.461428,0.134583,0.028839,270.000000,222.000000,48.000000,14.000000,0.000000,0.000000,0.000000,0.000000,0.000000,0.370790,0.449411,0.461428,0.134583,0.028839,270.000000,222.000000,48.000000,14.000000,0.000000,0.000000,0.000000,0.000000,0.000000;
#CREDIT:MILEN;
#NOTES:
0000
0000
0000
0000
,
1000
0010
0100
0101
,
0001
0100
0010
1010
,
1000
0100
0010
0011
,
1100
0000
1000
0002
0000
0000
0013
0010
,
0010
0001
0100
0000
0010
1000
0100
0000
,
0010
0001
1000
0000
0100
1000
0001
0000
,
1000
0010
0100
0000
0001
0100
0010
0000
,
1010
0000
0001
0200
0000
0000
0310
0010
,
1010
0000
0000
0000
1100
0000
0000
0000
1010
0000
0000
1000
0000
0000
0001
0000
,
0101
0000
0000
0000
0011
0000
0000
0000
0101
0000
0000
0001
0000
0000
1000
0000
,
1010
0000
0000
0000
0011
0000
0000
0000
0101
0000
0000
0100
0000
0000
1000
0000
,
0010
0100
0001
1000
0010
0010
0010
0000
,
1010
0000
0000
0000
1100
0000
0000
0000
0101
0000
0000
0001
0000
0000
0010
0000
,
0011
0000
0000
0000
0101
0000
0000
0000
1100
0000
0000
1000
0000
0000
0010
0000
,
1010
0000
0000
0000
0011
0000
0000
0000
1100
0000
0000
0100
0000
0000
0001
0000
,
0010
0100
1000
0001
0100
0100
0010
0010
,
0100
0100
0010
0010
1000
0100
0010
0001
,
0200
0000
0310
0000
0010
1000
0001
0000
,
0100
0001
1000
1001
0010
0010
0000
0110
,
0000
0100
0001
0010
0000
0100
1100
0000
,
0010
0011
0000
1001
0000
2000
0000
3001
,
0000
0001
0100
0010
0000
1000
0010
0100
,
0110
0001
0001
0000
1001
0000
1000
0010
,
0100
0000
0001
0101
0000
1000
1010
0000
,
0001
0011
0000
1100
,
0000
0101
0000
1010
,
0110
1001
2000
0000
,
3020
0000
0032
0000
,
0103
1000
0010
0000
0002
0000
0000
0000
,
0023
0000
2030
3200
,
0302
0000
1003
1000
1000
0010
0100
0010
,
1000
0010
0100
0010
1000
0100
0010
0001
,
0100
0100
0010
0010
1000
0001
0010
0100
,
0010
0001
0010
0100
0010
0001
0010
0100
,
1000
1000
0001
0001
0100
1000
0100
0001
,
0010
1000
0010
0001
0100
1000
0001
0010
,
1000
0100
0010
0001
0101
0100
0010
1000
,
1010
0010
0100
0001
0011
0010
0100
1100
,
1000
0001
0100
0010
1010
0000
0000
0000
,
0011
0000
1100
0000
,
0101
0110
2002
0000
,
0000
0000
3003
0000
;

//---------------dance-single - ----------------
#NOTEDATA:;
#CHARTNAME:;
#STEPSTYPE:dance-single;
#DESCRIPTION:;
#CHARTSTYLE:;
#DIFFICULTY:Hard;
#METER:15;
#RADARVALUES:0.611117,0.837539,0.384523,0.230714,0.826724,445.000000,405.000000,40.000000,24.000000,0.000000,0.000000,0.000000,0.000000,0.000000,0.611117,0.837539,0.384523,0.230714,0.826724,445.000000,405.000000,40.000000,24.000000,0.000000,0.000000,0.000000,0.000000,0.000000;
#CREDIT:MILEN;
#NOTES:
// measure 0
0000
0000
0000
0000
,  // measure 1
1000
0000
0000
0000
0000
0000
0001
0000
0000
0000
0000
0000
1000
0000
0010
1000
0000
0000
1010
0000
0000
0000
0000
0000
,  // measure 2
0001
0000
0000
0000
0000
0000
1000
0000
0000
0000
0000
0000
0001
0000
0010
0001
0000
0000
0011
0000
0000
0100
0000
0010
,  // measure 3
0100
0000
0000
0000
0000
0000
0010
0000
0000
0000
0000
0000
0100
0000
0010
1000
0000
0000
1001
0000
0000
0000
0000
0000
,  // measure 4
0101
0000
0000
0000
0000
0000
1000
0000
0000
2200
0000
0000
0000
0000
0000
3300
0000
0000
0100
0000
1000
0010
0000
0100
,  // measure 5
0001
0000
0000
0010
0000
0001
0100
0000
0000
0010
0000
0100
0001
0000
0000
0010
0000
0001
0100
0000
0000
0010
0000
0000
,  // measure 6
0110
0000
0000
0010
0000
1000
0100
0000
0000
1000
0000
0010
0100
0000
0000
0010
0000
1000
0100
0000
0000
1000
0000
0001
,  // measure 7
0100
0000
0000
0001
0000
1000
0100
0000
0000
1000
0000
0001
0100
0000
0000
0001
0000
1000
0100
0000
0000
1000
0000
0000
,  // measure 8
1001
0000
0000
0000
0000
0000
0100
0000
0000
0202
0000
0000
0000
0000
0000
0303
0000
0000
0001
0000
0010
0100
0000
1000
,  // measure 9
0010
0000
0000
0000
0010
0000
0000
0000
0010
0000
0000
0110
0000
1000
0001
0000
,  // measure 10
0100
0000
0000
0000
0100
0000
0000
0000
0100
0000
0000
0110
0000
0001
1000
0000
,  // measure 11
0010
0000
0000
0000
0010
0000
0000
0000
0010
0000
0000
0110
0000
1000
0001
0000
,  // measure 12
0010
0000
0001
0100
0000
0100
0010
0000
0010
1000
0000
1000
0100
0000
0110
0000
0000
0001
0000
0000
1001
0000
0000
0000
,  // measure 13
0001
0000
0000
0000
0001
0000
0000
0000
0001
0000
0000
0101
0000
1000
0010
0000
,  // measure 14
1000
0000
0000
0000
1000
0000
0000
0000
1000
0000
0000
1010
0000
0001
0010
0000
,  // measure 15
0001
0000
0000
0000
0001
0000
0000
0000
0001
0000
0000
0011
0000
1000
0100
0000
,  // measure 16
1100
0000
1000
0010
0000
0010
0100
0000
0100
0001
0000
0001
2000
0000
0000
3200
0000
0000
0320
0000
0000
0230
0000
0000
,  // measure 17
2300
0000
0000
3200
0000
0000
0302
0000
0000
0203
0000
0000
1300
0010
1000
0010
0000
0000
0100
0001
0100
0001
0000
0000
,  // measure 18
1001
0000
0000
1000
0000
0100
0001
0000
0000
0100
0000
0000
1000
0000
0010
0000
0000
0001
0000
0000
0010
1000
0000
0000
,  // measure 19
0100
0000
0000
0010
0000
0000
0011
0000
0000
1100
0000
1000
0010
0000
0100
0001
0000
0000
0000
0000
0000
0110
0000
0000
,  // measure 20
0000
0000
0000
1000
0000
0010
0000
0000
0100
0000
0000
0001
0010
0000
0000
0011
0000
0000
1000
0000
0000
0100
0000
0000
,  // measure 21
1100
0000
0000
0001
0000
0000
0010
0000
0100
0000
0000
0110
0000
0000
0000
1001
0000
0000
0001
0000
0100
1000
0000
0000
,  // measure 22
0100
0000
0000
0001
0000
0010
0000
0000
1000
0000
0000
0010
0001
0000
0000
0100
0000
0000
0010
0000
0000
1010
0000
0000
,  // measure 23
0101
0000
0001
0010
0000
0100
1000
0000
0000
0000
0000
0000
0110
0000
0000
0000
0000
0000
0001
0000
0010
0000
0000
0100
,  // measure 24
0000
0000
1000
0010
0000
0000
1010
0000
0000
0100
0000
0000
0001
0000
0000
0101
0000
0000
1000
0000
0000
0010
0000
0000
,  // measure 25
0100
0000
0001
0010
0000
0000
0110
0000
0000
0000
0000
0000
0000
0000
1000
0000
0100
0000
0110
0000
0000
0000
0000
0000
,  // measure 26
0000
0000
0001
0000
0010
0000
0110
0000
0000
0000
0000
0000
0000
0000
1000
0000
0010
0000
0100
0001
1000
0010
0000
0000
,  // measure 27
0100
0001
1000
0010
0000
0000
0110
0000
0000
0000
0000
0000
0002
0000
0000
0000
0000
0000
0000
0000
0000
0000
0000
0000
,  // measure 28
0020
0003
2000
0030
,  // measure 29
3100
0000
0010
0100
0000
0010
0100
0000
0000
0110
0000
0000
2000
0000
0000
0000
0000
0000
0000
0000
0000
0000
0000
0000
,  // measure 30
0020
3000
0032
0203
,  // measure 31
2300
0000
0000
0000
0000
0000
3001
0100
0001
0100
0001
0100
0001
0000
0001
0010
0000
0010
0100
0000
0100
1000
0000
1000
,  // measure 32
0010
0000
0010
0100
0000
0100
0001
0000
0001
1000
0000
1000
0010
1000
0010
0100
0000
0100
0001
0010
0001
0010
0000
0010
,  // measure 33
0100
0000
0001
0100
0000
1000
0100
0000
0000
0110
0000
0000
1001
0000
1000
0100
0000
0100
0010
0000
0010
0001
0000
0001
,  // measure 34
0100
0000
0100
0010
0000
0010
1000
0000
1000
0001
0000
0001
0010
0100
0010
0100
0000
0100
1000
0010
1000
0010
0000
0010
,  // measure 35
0100
0000
1000
0100
0000
0001
0100
0000
0001
0010
0100
1000
0010
0100
0010
0100
0000
0100
0001
0000
0001
0010
0000
0010
,  // measure 36
0100
1000
0100
1000
0000
1000
0010
0000
0010
0100
0000
0100
0001
0100
0001
1000
0000
1000
0100
0000
0100
0001
0000
0001
,  // measure 37
1000
0000
1000
0010
0000
0010
0001
0000
0001
0100
0000
0100
0010
1000
0010
0100
0000
0100
0001
0000
0001
0010
0000
0010
,  // measure 38
0100
1000
0100
0010
0000
0010
0001
0000
0001
0100
0000
0100
0001
1000
0001
0010
0000
0010
1000
0001
1000
0100
0000
0100
,  // measure 39
0001
1000
0001
0100
0010
1000
0100
1000
0100
0010
0001
0010
0002
0000
0000
0000
0000
0000
0000
0000
0103
0000
0010
0000
,  // measure 40
2010
0000
0000
0000
3010
0100
0102
0000
0000
0000
0013
0100
,  // measure 41
1100
0000
1000
0010
0001
0010
1000
0000
0001
0100
1000
0100
0002
0000
0000
0000
0000
0000
0000
0000
0000
0000
0000
0000
,  // measure 42
0000
0000
0003
0000
;

//---------------dance-double - ----------------
#NOTEDATA:;
#CHARTNAME:;
#STEPSTYPE:dance-double;
#DESCRIPTION:;
#CHARTSTYLE:;
#DIFFICULTY:Hard;
#METER:15;
#RADARVALUES:0.608370,0.735400,0.374910,0.230714,0.773852,443.000000,404.000000,39.000000,24.000000,0.000000,0.000000,0.000000,0.000000,0.000000,0.608370,0.735400,0.374910,0.230714,0.773852,443.000000,404.000000,39.000000,24.000000,0.000000,0.000000,0.000000,0.000000,0.000000;
#CREDIT:MILEN;
#NOTES:
00000000
00000000
00000000
00000000
,
00001000
00000000
00000000
00000000
00000000
00000000
00010000
00000000
00000000
00000000
00000000
00000000
01000000
00000000
10000000
01000000
00000000
00000000
01010000
00000000
00000000
00000000
00000000
00000000
,
00010000
00000000
00000000
00000000
00000000
00000000
00001000
00000000
00000000
00000000
00000000
00000000
00000010
00000000
00000001
00000010
00000000
00000000
00001010
00000000
00000000
00001000
00000000
00010000
,
00001000
00000000
00000000
00000000
00000000
00000000
00010000
00000000
00000000
00000000
00000000
00000000
01000000
00000000
10000000
00100000
00000000
00000000
00110000
00000000
00000000
00000000
00000000
00000000
,
00011000
00000000
00000000
00000000
00000000
00000000
00001100
00000000
00000000
00000202
00000000
00000000
00000000
00000000
00000000
00000303
00000000
00000000
00000001
00000000
00001000
00000010
00000000
00010000
,
00001000
00000000
00000000
00100000
00000000
00010000
01000000
00000000
00000000
00100000
00000000
00010000
01000000
00000000
00000000
00100000
00000000
00010000
01000000
00000000
00000000
00001000
00000000
00000000
,
00011000
00000000
00000000
00000100
00000000
00001000
00000010
00000000
00000000
00000100
00000000
00001000
00000010
00000000
00000000
00000100
00000000
00001000
00000010
00000000
00000000
00010000
00000000
00001000
,
01000000
00000000
00000000
00001000
00000000
00010000
00000100
00000000
00000000
00010000
00000000
00001000
00100000
00000000
00000000
00001000
00000000
00010000
00000010
00000000
00000000
00010000
00000000
00000000
,
00011000
00000000
00000000
00000000
00000000
00000000
01010000
00000000
00000000
22000000
00000000
00000000
00000000
00000000
00000000
33000000
00000000
00000000
10000000
00000000
00010000
00100000
00000000
00001000
,
00010000
00000000
00100000
00000000
00010000
00000000
00001000
00000000
00010000
00000000
00000000
00110000
00000000
00100000
10000000
00000000
,
01000000
00000000
00010000
00000000
00001000
00000000
00010000
00000000
01000000
00000000
00000000
11000000
00000000
10000000
00100000
00000000
,
00010000
00000000
00001000
00000000
00010000
00000000
00100000
00000000
00010000
00000000
00000000
00011000
00000000
00001000
00000010
00000000
,
00000001
00000000
00000100
00000010
00000000
00000010
00001000
00000000
00001000
00010000
00000000
00010000
01000000
00000000
01100000
00000000
00000000
00100000
00000000
00000000
00010000
00000000
00000000
00000000
,
00001000
00000000
00000010
00000000
00001000
00000000
00010000
00000000
00001000
00000000
00000000
00001010
00000000
00000010
00000001
00000000
,
00000100
00000000
00001000
00000000
00010000
00000000
00001000
00000000
00000100
00000000
00000000
00000101
00000000
00000001
00000010
00000000
,
00001000
00000000
00010000
00000000
00001000
00000000
00000010
00000000
00001000
00000000
00000000
00011000
00000000
00010000
00100000
00000000
,
10000000
00000000
01000000
00100000
00000000
00100000
00010000
00000000
00010000
00001000
00000000
00001000
00000020
00000000
00000000
00000032
00000000
00000000
00000023
00000000
00000000
00000230
00000000
00000000
,
00000320
00000000
00000000
00002030
00000000
00000000
00003020
00000000
00000000
00020030
00000000
00000000
00031000
00100000
00001000
00100000
00000000
00000000
00010000
01000000
00010000
01000000
00000000
00000000
,
01100000
00000000
00000000
00100000
00000000
10000000
01000000
00000000
00000000
00010000
00000000
00000000
00001000
00000000
00000010
00000000
00000000
00001000
00000000
00000000
00010000
00100000
00000000
00000000
,
00010000
00000000
00000000
00001000
00000000
00000000
00001100
00000000
00000000
00000101
00000000
00000001
00000010
00000000
00000100
00001000
00000000
00000000
00000000
00000000
00000000
00011000
00000000
00000000
,
00000000
00000000
00000000
00010000
00000000
01000000
00000000
00000000
10000000
00000000
00000000
01000000
00100000
00000000
00000000
10100000
00000000
00000000
01000000
00000000
00000000
00010000
00000000
00000000
,
00011000
00000000
00000000
00001000
00000000
00000000
00000010
00000000
00000001
00000000
00000000
00001001
00000000
00000000
00000000
00000110
00000000
00000000
00000010
00000000
00000001
00000100
00000000
00000000
,
00001000
00000000
00000000
00010000
00000000
00100000
00000000
00000000
00010000
00000000
00000000
00001000
00000010
00000000
00000000
00001000
00000000
00000000
00010000
00000000
00000000
01010000
00000000
00000000
,
11000000
00000000
10000000
00100000
00000000
01000000
00010000
00000000
00000000
00000000
00000000
00000000
00011000
00000000
00000000
00000000
00000000
00000000
00001000
00000000
00000100
00000000
00000000
00000001
,
00000000
00000000
00000100
00000010
00000000
00000000
00000011
00000000
00000000
00000100
00000000
00000000
00001000
00000000
00000000
00011000
00000000
00000000
00010000
00000000
00000000
00100000
00000000
10000000
,
00000000
10010000
00000000
01100000
00000000
00000000
00000000
10000000
01000000
00010000
00000000
00000000
,
00000000
00000000
00001000
00000000
00000010
00000000
00000001
00000000
00000000
00000000
00000000
00000000
00000000
00000000
00000100
00000000
00001000
00000000
00010000
00000100
00010000
00000100
00000000
00000000
,
00001000
01000000
00001000
01000000
00000000
00000000
00011000
00000000
00000000
00000000
00000000
00000000
00020000
00000000
00000000
00000000
00000000
00000000
00000000
00000000
00000000
00000000
00000000
00000000
,
00230000
00000000
20300000
00000000
,
31000000
00000000
00010000
00001000
00000000
00001000
00010000
00000000
00000000
00011000
00000000
00000000
00002000
00000000
00000000
00000000
00000000
00000000
00000000
00000000
00000000
00000000
00000000
00000000
,
00003020
00000000
00000032
00000203
,
00002300
00000000
00000000
00000000
00000000
00000000
00013000
00000010
00010000
00001000
01000000
00001000
00010000
00000000
00010000
00100000
00000000
00100000
10000000
00000000
10000000
01000000
00000000
01000000
,
00100000
00000000
00100000
00010000
00000000
00010000
01000000
00000000
01000000
00001000
00000000
00001000
00010000
00000000
00010000
00100000
00000000
00100000
00010000
00000000
00010000
00001000
00000000
00001000
,
00000010
00000000
00000010
00000001
00000000
00000001
00000100
00000000
00000000
00001100
00000000
00000000
00011000
00000000
00010000
00000100
00000000
00000100
00000010
00000000
00000010
00000001
00000000
00000001
,
00000100
00000000
00000100
00001000
00000000
00001000
00010000
00000000
00010000
00100000
00000000
00100000
00010000
00000000
00010000
00001000
00000000
00001000
00000010
00000000
00000010
00001000
00000000
00001000
,
00010000
00000000
00010000
00100000
00000000
00100000
10000000
01000000
10000000
01000000
10000000
01000000
00010000
00000000
00001000
00010000
00000000
01000000
00010000
00000000
00001000
00010000
00000000
00001000
,
00000100
00000000
00001000
00010000
00000000
00001000
00000100
00000000
00001000
00010000
00000000
00001000
00000010
00000000
00000001
00000010
00000000
00000100
00001000
00000000
00010000
00100000
00000000
01000000
,
10000000
00000000
10000000
00100000
00000000
01000000
00010000
00000000
00001000
00000010
00000000
00000100
00000001
00000000
00000010
00001000
00000000
00000010
00000001
00000000
00000100
00001000
00000000
00010000
,
00100000
00000000
10000000
01000000
00000000
00010000
01000000
00000000
10000000
00100000
00000000
00010000
00000010
00000000
00000100
00000001
00000000
00000010
00001000
00000000
00100000
00010000
00000000
01000000
,
10000000
00000000
00010000
00100000
00000000
00001000
00000010
00000100
00000010
00000100
00000001
00000010
00002000
00000000
00000000
00000000
00000000
00000000
00000000
00000000
00013000
00000000
01000000
00000000
,
21000000
00000000
00000000
00000000
30100000
00010000
00012000
00000000
00000000
00000000
00003010
00000001
,
00000101
00000000
00000100
00001000
00010000
00100000
10000000
00000000
01000000
00010000
00001000
00000010
00000002
00000000
00000000
00000000
00000000
00000000
00000000
00000000
00000000
00000000
00000000
00000000
,
00000000
00000000
00000003
00000000
;

//---------------dance-double - ----------------
#NOTEDATA:;
#CHARTNAME:;
#STEPSTYPE:dance-double;
#DESCRIPTION:;
#CHARTSTYLE:;
#DIFFICULTY:Easy;
#METER:6;
#RADARVALUES:0.201875,0.245133,0.201875,0.019226,0.000000,147.000000,126.000000,21.000000,2.000000,0.000000,0.000000,0.000000,0.000000,0.000000,0.201875,0.245133,0.201875,0.019226,0.000000,147.000000,126.000000,21.000000,2.000000,0.000000,0.000000,0.000000,0.000000,0.000000;
#CREDIT:MILEN;
#NOTES:
00000000
00000000
00000000
00000000
,
00001000
00000000
01000000
00000000
,
00001000
00000000
01000000
00000000
,
00001000
00000000
01000000
00000000
,
00001000
00001000
00001000
00000000
,
00010000
00000000
00000010
00000000
,
00010000
00000000
00000010
00000000
,
00010000
00000000
00000010
00000000
,
00010000
00010000
00010000
00000000
,
00001000
00010000
01000000
00000000
,
00010000
00001000
00000100
00000000
,
00001000
00010000
00100000
00000000
,
00010000
00001000
00000010
00000010
,
00000001
00000100
00001000
00000000
,
00010000
00100000
10000000
00000000
,
10000000
01000000
00010000
00000000
,
00001000
00000010
00000001
00000001
,
00000001
00000001
00000100
00001000
,
00011000
00000000
00010000
01000000
,
10000000
00000000
00100000
00100000
00000000
01100000
00000000
00000000
,
00000000
10000000
00000000
01000000
00000000
00010000
00000000
00001000
,
00000000
00011000
00000000
00000000
00000000
00011000
00000000
00000000
,
00000000
00001000
00000000
00000100
00000000
00000001
00000000
00000010
,
00000010
00000110
00000000
00000001
,
00000100
00001000
00010000
00100000
,
10000000
10010000
00000000
00011000
,
00000000
00001001
00000000
00011000
,
00011000
00011000
01000000
00000000
,
00010000
00000000
00001000
00000000
,
00000100
00000000
00000010
00000000
,
00001000
00000000
00010000
00000000
,
00100000
00100000
10000000
01000000
,
00010000
01000000
10000000
01000000
,
00010000
00011000
00001000
00000010
,
00000001
00000010
00001000
00000010
,
00000001
00001001
00000010
00000100
,
00001000
00010000
00100000
01000000
,
10000000
10010000
01000000
00100000
,
00010000
00001000
00000100
00000010
,
00000001
00001001
00000110
00000000
,
00011000
00000000
01100000
00000000
,
00011000
00011000
00022000
00000000
,
00000000
00000000
00033000
00000000
;

//---------------dance-couple - ----------------
#NOTEDATA:;
#CHARTNAME:;
#STEPSTYPE:dance-couple;
#DESCRIPTION:;
#CHARTSTYLE:;
#DIFFICULTY:Medium;
#METER:10;
#RADARVALUES:0.370790,0.449411,0.461428,0.134583,0.028839,270.000000,222.000000,48.000000,14.000000,0.000000,0.000000,0.000000,0.000000,0.000000,0.000000,0.000000,0.000000,0.000000,0.000000,0.000000,0.000000,0.000000,0.000000,0.000000,0.000000,0.000000,0.000000,0.000000;
#CREDIT:MILEN;
#NOTES:
00000000
00000000
00000000
00000000
,
10000000
00100000
01000000
01010000
,
00010000
01000000
00100000
10100000
,
10000000
01000000
00100000
00110000
,
11000000
00000000
10000000
00020000
00000000
00000000
00130000
00100000
,
00100000
00010000
01000000
00000000
00100000
10000000
01000000
00000000
,
00100000
00010000
10000000
00000000
01000000
10000000
00010000
00000000
,
10000000
00100000
01000000
00000000
00010000
01000000
00100000
00000000
,
10100000
00000000
00010000
02000000
00000000
00000000
03100000
00100000
,
10100000
00000000
00000000
00000000
11000000
00000000
00000000
00000000
10100000
00000000
00000000
10000000
00000000
00000000
00010000
00000000
,
01010000
00000000
00000000
00000000
00110000
00000000
00000000
00000000
01010000
00000000
00000000
00010000
00000000
00000000
10000000
00000000
,
10100000
00000000
00000000
00000000
00110000
00000000
00000000
00000000
01010000
00000000
00000000
01000000
00000000
00000000
10000000
00000000
,
00100000
01000000
00010000
10000000
00100000
00100000
00100000
00000000
,
10100000
00000000
00000000
00000000
11000000
00000000
00000000
00000000
01010000
00000000
00000000
00010000
00000000
00000000
00100000
00000000
,
00110000
00000000
00000000
00000000
01010000
00000000
00000000
00000000
11000000
00000000
00000000
10000000
00000000
00000000
00100000
00000000
,
10100000
00000000
00000000
00000000
00110000
00000000
00000000
00000000
11000000
00000000
00000000
01000000
00000000
00000000
00010000
00000000
,
00100000
01000000
10000000
00010000
01000000
01000000
00100000
00100000
,
01000000
01000000
00100000
00100000
10000000
01000000
00100000
00010000
,
02000000
00000000
03100000
00000000
00100000
10000000
00010000
00000000
,
01000000
00010000
10000000
10010000
00100000
00100000
00000000
01100000
,
00000000
01000000
00010000
00100000
00000000
01000000
11000000
00000000
,
00100000
00110000
00000000
10010000
00000000
20000000
00000000
30010000
,
00000000
00010000
01000000
00100000
00000000
10000000
00100000
01000000
,
01100000
00010000
00010000
00000000
10010000
00000000
10000000
00100000
,
01000000
00000000
00010000
01010000
00000000
10000000
10100000
00000000
,
00010000
00110000
00000000
11000000
,
00000000
01010000
00000000
10100000
,
01100000
10010000
20000000
00000000
,
30200000
00000000
00320000
00000000
,
01030000
10000000
00100000
00000000
00020000
00000000
00000000
00000000
,
00230000
00000000
20300000
32000000
,
03020000
00000000
10030000
10000000
10000000
00100000
01000000
00100000
,
10000000
00100000
01000000
00100000
10000000
01000000
00100000
00010000
,
01000000
01000000
00100000
00100000
10000000
00010000
00100000
01000000
,
00100000
00010000
00100000
01000000
00100000
00010000
00100000
01000000
,
10000000
10000000
00010000
00010000
01000000
10000000
01000000
00010000
,
00100000
10000000
00100000
00010000
01000000
10000000
00010000
00100000
,
10000000
01000000
00100000
00010000
01010000
01000000
00100000
10000000
,
10100000
00100000
01000000
00010000
00110000
00100000
01000000
11000000
,
10000000
00010000
01000000
00100000
10100000
00000000
00000000
00000000
,
00110000
00000000
11000000
00000000
,
01010000
01100000
20020000
00000000
,
00000000
00000000
30030000
00000000
;

//---------------dance-double - ----------------
#NOTEDATA:;
#CHARTNAME:;
#STEPSTYPE:dance-double;
#DESCRIPTION:;
#CHARTSTYLE:;
#DIFFICULTY:Medium;
#METER:11;
#RADARVALUES:0.348817,0.367700,0.307618,0.134583,0.028839,254.000000,222.000000,32.000000,14.000000,0.000000,0.000000,0.000000,0.000000,0.000000,0.348817,0.367700,0.307618,0.134583,0.028839,254.000000,222.000000,32.000000,14.000000,0.000000,0.000000,0.000000,0.000000,0.000000;
#CREDIT:MILEN;
#NOTES:
00000000
00000000
00000000
00000000
,
01000000
00001000
00010000
00011000
,
00000010
00010000
00001000
00011000
,
00100000
00001000
00010000
00011000
,
00000100
00000000
00000010
00000200
00000000
00000000
00000310
00000010
,
00000010
00000001
00000100
00000000
00000100
00001000
00000010
00000000
,
00010000
00001000
00000100
00000000
00001000
00010000
01000000
00000000
,
01000000
10000000
00100000
00000000
00100000
00010000
01000000
00000000
,
01100000
00000000
00010000
20000000
00000000
00000000
30100000
00100000
,
01100000
00000000
00000000
00000000
00010000
00000000
00000000
00000000
00011000
00000000
00000000
00001000
00000000
00000000
00000010
00000000
,
00000110
00000000
00000000
00000000
00001000
00000000
00000000
00000000
00011000
00000000
00000000
00010000
00000000
00000000
01000000
00000000
,
01100000
00000000
00000000
00000000
00010000
00000000
00000000
00000000
00011000
00000000
00000000
00001000
00000000
00000000
00000010
00000000
,
00000001
00000100
00001000
00010000
00001000
00001000
00001000
00000000
,
00011000
00000000
00000000
00000000
00100000
00000000
00000000
00000000
11000000
00000000
00000000
10000000
00000000
00000000
00100000
00000000
,
00011000
00000000
00000000
00000000
00000100
00000000
00000000
00000000
00000011
00000000
00000000
00001000
00000000
00000000
00010000
00000000
,
00011000
00000000
00000000
00000000
01000000
00000000
00000000
00000000
10100000
00000000
00000000
10000000
00000000
00000000
01000000
00000000
,
00010000
00001000
00000100
00000001
00000010
00000010
00000100
00000100
,
00001000
00001000
00010000
00010000
01000000
00100000
10000000
01000000
,
00200000
00000000
01300000
00000000
10000000
00100000
00010000
00000000
,
00001000
00010000
00001000
00011000
00000010
00000010
00000000
00000110
,
00000000
00000001
00000010
00001000
00000000
00010000
00001000
00000000
,
00010000
01000000
00000000
11000000
00000000
20000000
00000000
30100000
,
00000000
00010000
00001000
00000010
00000000
00000001
00000100
00000010
,
00000110
00001000
00001000
00000000
00001100
00000000
00000001
00000100
,
00001000
00000000
00010000
00001000
00000000
00000010
00001000
00000000
,
00010000
00010010
00000000
00101000
,
00000000
00010100
00000000
01001000
,
00010000
00011000
00002000
00000000
,
00203000
00000000
02300000
00000000
,
03010000
00001000
00010000
00000000
00021000
00000000
00000000
00000000
,
00030200
00000000
00000320
00002030
,
00023000
00000000
00031000
00001000
00001000
00100000
01000000
00010000
,
00001000
00000010
00000100
00010000
00001000
00000100
00000001
00000010
,
00001000
00001000
00010000
00010000
01000000
10000000
00100000
00010000
,
00001000
00000100
00000001
00000010
00001000
00010000
00100000
10000000
,
01000000
01000000
00100000
00100000
00010000
00001000
00000010
00000100
,
00000001
00001000
00000100
00000010
00001000
00010000
01000000
00100000
,
00010000
00001000
00000010
00000100
00000001
00000010
00000100
00001000
,
00010000
01000000
00100000
00010000
00001000
00100000
01000000
10000000
,
00100000
00001000
00000010
00000100
00000101
00000000
00000000
00000000
,
00001010
00000000
00110000
00000000
,
11000000
00100000
00022000
00000000
,
00000000
00000000
00033000
00000000
;
