#TITLE:iRELLiA;
#SUBTITLE:;
#ARTIST:HyuN;
#TITLETRANSLIT:;
#SUBTITLETRANSLIT:;
#ARTISTTRANSLIT:;
#GENRE:VARIETY;
#CREDIT:MUINELIM;
#BANNER:iRELLiA.png;
#BACKGROUND:iRELLiA-bg.png;
#LYRICSPATH:;
#CDTITLE:;
#MUSIC:iRELLiA.mp3;
#OFFSET:-0.100000;
#SAMPLESTART:73.037178;
#SAMPLELENGTH:10.000000;
#SELECTABLE:YES;
#DISPLAYBPM:87.500000:408.000000;
#BPMS:0.000000=204,102.000000=408,174.000000=102,206.000000=204,238.000000=102,246.000000=408,502.000000=175,534.000000=88;
;
#STOPS:
;
#BGCHANGES:-10000.000=black.mpg=1.000=1=0=1===CrossFade==,
-0.100=iRELLiA.mpg=1.000=0=0=0=StretchNoLoop====,
99999=-nosongbg-=1.000=0=0=0 // don't automatically add -songbackground-
;
#KEYSOUNDS:;
#ATTACKS:;

//---------------dance-single - ----------------
#NOTES:
     dance-single:
     :
     Beginner:
     8:
     0.316421,0.591455,0.128403,0.088277,0.000000,276.000000,260.000000,16.000000,11.000000,0.000000,0.000000,0.316421,0.591455,0.128403,0.088277,0.000000,276.000000,260.000000,16.000000,11.000000,0.000000,0.000000:
0000
0000
0000
0000
,
0000
0000
0000
0000
,
0000
0000
0000
0000
,
0000
0000
0000
0000
,
0000
0000
0000
0000
,
0000
0000
0000
0000
,
0000
0000
0000
0000
,
0000
0000
0000
0000
,
0000
0000
1000
0000
,
1000
0000
0100
0000
,
0100
0000
0010
0000
,
0010
0000
0001
0000
,
0001
0000
0100
0000
,
0100
0000
0010
0000
,
0010
0000
1000
0000
,
1000
0000
0001
0000
,
0001
0000
2002
0000
,
0000
3003
1001
0000
,
1000
0100
1000
0000
,
1000
0000
0001
0000
,
0001
0010
0001
0000
,
0001
0000
1000
0000
,
1000
0010
1000
0000
,
1000
0000
0001
0000
,
0001
0100
0001
0000
,
0001
0000
1000
0000
,
0000
0000
1000
0000
,
0000
0000
0100
0000
,
1000
0000
0100
0000
,
1000
0000
0001
0000
,
0000
0000
0001
0000
,
0000
0000
0010
0000
,
0001
0000
0010
0000
,
0001
0000
1000
0000
,
0000
0000
1000
0000
,
0000
0000
0010
0000
,
0100
0000
0010
0000
,
0100
0000
0001
0000
,
0001
0000
1000
0000
,
1000
0000
0100
0000
,
0010
0000
0100
0000
,
0010
0000
0001
0000
,
0000
0000
1000
0000
,
0000
0000
1001
0001
,
1000
0010
0100
0010
,
1000
1000
1000
0000
0001
0000
1000
0000
,
0100
0010
0001
0100
,
0010
0000
0100
0100
0100
0000
0001
0000
,
0100
0010
1000
0010
,
0100
0100
0100
0000
0001
0000
1000
0000
,
0001
0010
0100
0010
,
0001
0001
1000
1000
0100
0000
1000
0000
,
0100
0000
1000
0010
,
1000
0000
0001
0100
,
0001
0000
0010
0001
,
0010
0000
1001
0001
,
1000
0000
0010
0100
,
0010
0000
1000
0001
,
1000
0001
0010
0100
,
0010
0100
2000
3000
,
0002
0003
0200
0300
,
0010
0100
0110
0000
0010
0000
0000
0000
,
1000
0000
0010
0000
,
0000
0000
0100
0000
,
0001
0000
0100
0000
,
0000
0000
0010
0000
,
1000
0000
0001
0000
,
0100
0000
0010
0000
,
0000
0000
0010
0000
,
0010
0000
2000
0000
,
3000
0000
1001
0000
,
0000
0000
0002
0000
,
0003
0000
1001
0000
,
0000
0000
1000
0000
,
0000
0000
0001
0000
,
0000
0000
1000
0000
,
0001
0000
1000
0000
,
0001
0000
0100
0000
,
0100
0000
0010
0000
,
0010
0000
1000
0000
,
1000
0000
0001
0000
,
0000
0000
0010
0000
,
0010
0000
0100
0000
,
0100
0000
1000
0000
,
1000
0000
0001
0000
,
0000
0000
0010
0000
,
0001
0000
0010
0000
,
0000
0000
0100
0000
,
1000
0000
0100
0000
,
0000
0000
0010
0000
,
0100
0000
0010
0000
,
0100
0000
1000
0000
,
0001
0000
1000
0000
,
0001
0000
1000
0000
,
0010
0000
0100
0000
,
0000
0000
0001
0000
,
0100
0000
0010
0000
,
0000
0000
1000
0000
,
0100
0000
0010
0000
,
0000
0000
0001
0000
,
0010
0000
0100
0000
,
0000
0000
2000
0000
,
3000
0000
1010
0000
,
0000
0000
0002
0000
,
0003
0000
0101
0000
,
0000
0000
1100
0000
,
0000
0000
0011
0000
,
0000
0000
0001
0000
,
1000
0000
0001
0000
,
0100
0000
0010
0000
,
0010
0000
1000
0000
,
1000
0000
0100
0000
,
0100
0000
0010
0000
,
0000
0000
0100
0000
,
0100
0000
0010
0000
,
0010
0000
0001
0000
,
0001
0000
0100
0000
,
0000
0000
0010
0000
,
0100
0000
0010
0000
,
0010
0000
1000
0000
,
0001
0000
1000
0000
,
1000
0000
0100
0000
,
0010
0000
0001
0000
,
1000
0000
0100
0000
,
0100
0000
0100
0000
,
0010
0000
1001
0000
,
0100
0000
1001
0000
,
0010
0000
1001
0000
,
0100
0000
1001
0000
,
0010
0000
1000
0100
,
0010
0000
0010
0001
,
0100
0000
0100
0010
,
1000
0001
0010
0100
,
1000
0001
2002
0000
,
3003
0000
0000
0000
;

//---------------dance-single - ----------------
#NOTES:
     dance-single:
     :
     Easy:
     11:
     0.470046,0.752761,0.216679,0.280881,0.000000,410.000000,383.000000,27.000000,35.000000,0.000000,0.000000,0.470046,0.752761,0.216679,0.280881,0.000000,410.000000,383.000000,27.000000,35.000000,0.000000,0.000000:
0000
0000
0000
0000
,
0000
0000
0000
0000
,
0000
0000
0000
0000
,
0000
0000
0000
0000
,
0000
0000
0000
0000
,
0000
0000
0000
0000
,
0000
0000
0000
0000
,
0000
0000
0000
0000
,
0000
0000
1000
0010
,
0000
0010
0001
0100
,
0000
0100
1000
0010
,
0000
0010
0001
0100
,
0000
0100
1000
0001
,
0000
0010
0001
1000
,
0000
0100
1000
0001
,
0000
0010
0001
1000
,
0010
0100
0220
0330
,
0010
0100
0010
0000
1000
0000
1001
0000
,
0001
0100
0000
0001
0100
0000
0010
0000
,
1000
0001
0100
1001
,
1000
0010
0000
1000
0010
0000
0100
0000
,
0001
1000
0010
0110
,
0100
0001
0000
1000
0020
0000
0230
0000
,
0302
1003
0001
1001
,
1000
0100
0000
0010
0002
0000
0203
0000
,
0320
2030
3001
0000
,
1001
0000
1000
0000
,
0010
0000
0100
0001
,
0100
0000
0010
1000
,
0010
0000
0100
0000
,
0110
0000
0010
0000
,
0100
0000
0001
0000
,
0011
0000
1000
0000
,
1100
0000
0010
0000
,
0110
0000
0100
0000
,
0001
0000
0010
0001
,
0010
0000
0100
1000
,
0100
0000
1000
0010
,
1000
0000
0001
0100
,
0001
0000
0100
0010
,
0100
0010
1000
0001
,
1000
0001
2002
0000
,
0000
0000
0000
0000
,
0000
3003
1001
0001
,
0100
0000
0010
1000
0100
0000
0010
0000
,
0001
0001
0001
0000
1001
0000
1000
0000
,
0010
0100
0001
0000
0010
0000
0100
0000
,
1000
0010
0100
0100
0101
0000
1010
0000
,
1000
0000
0001
0010
0100
0000
1000
0000
,
0001
0001
0001
0000
0011
0000
0010
0000
,
0100
0010
0001
0000
0100
0000
0010
0000
,
1000
0001
1000
1000
1001
0000
0001
0000
,
0100
0100
0000
0000
0001
0000
1000
0000
,
0010
0010
0000
0000
1000
0000
0001
0000
,
0010
0010
0000
0000
0001
0000
1000
0000
,
0100
0100
0000
0000
0110
0000
0001
0000
,
0100
0010
0000
0000
0110
0000
1000
0000
,
0010
0100
0000
0000
1001
0000
0010
0000
,
1000
0001
0000
0000
1001
0000
0100
0000
,
0001
1000
0001
0000
0200
0000
0000
0000
,
0320
0000
0000
0000
1030
1000
0001
0001
,
0010
0010
0200
0000
1300
0000
0000
0000
,
0001
0000
0100
0010
,
1000
0000
0001
0000
,
1000
0000
0010
0100
,
0001
0000
0010
0100
,
1000
0000
0001
0010
,
0100
0000
2002
0000
,
3003
0000
1000
0001
,
0100
0010
1000
0000
,
0001
0000
0011
0000
,
0010
0000
0100
0000
,
1000
0000
1010
0000
,
0010
0000
0100
0001
,
0010
0000
0100
1000
,
0010
0000
0100
0001
,
1000
0000
0010
0000
0100
0000
0000
0100
,
0000
0100
0001
0000
,
0010
0000
1000
0000
,
0001
0000
0100
0000
,
1000
0000
0001
0000
,
0100
0010
1000
0000
,
0100
0000
0001
0000
,
1000
0000
0010
0000
,
0001
0000
0100
0010
,
1000
0001
0100
0000
,
1000
0100
0000
0001
,
0010
0000
1000
0010
,
0001
0000
0100
0010
,
0100
0000
0001
0010
,
0100
0000
1000
0100
,
0010
0000
0001
1000
,
0001
1000
0100
0010
,
0100
0010
0001
0000
,
0100
0000
1000
0100
,
0010
0000
1000
0000
,
0010
0000
0001
0010
,
0100
0000
0001
1000
,
0010
0000
1000
0001
,
0100
0000
0220
0000
,
0330
0000
0010
1000
,
0001
0100
0010
0000
,
1000
0000
1100
0000
,
0100
0000
0010
0000
,
0001
0000
0101
0000
,
0100
0000
0010
1000
,
0001
0000
0100
0001
,
1000
0000
0010
0100
,
0001
0000
1000
0000
0100
0000
0000
0100
,
0000
0100
0010
0001
,
0100
0000
1000
0000
,
0100
0000
0010
1000
,
0100
0000
0001
0000
,
0100
0000
1000
0010
,
0001
0000
0010
0000
,
0100
0000
0001
0100
,
1000
0000
0100
0000
,
0010
0000
1000
0100
,
1000
0100
0010
0000
,
0100
0000
0010
0001
,
0010
0001
0100
0000
,
0010
0000
1000
0001
,
0010
0000
0001
1000
,
0100
0000
1000
0001
,
0010
0100
1000
0010
,
0100
0001
2000
0000
,
3200
0000
0302
0000
,
2003
0000
3020
0000
,
0032
0000
0203
0000
,
2300
0000
3002
0000
,
0023
0000
2030
0000
,
3200
0000
0320
0000
,
0032
0000
2003
0000
,
3020
0000
0200
0000
,
0330
0000
0000
0000
;

//---------------dance-single - ----------------
#NOTES:
     dance-single:
     :
     Medium:
     14:
     0.745194,1.344215,0.489535,0.377183,0.128403,650.000000,589.000000,61.000000,47.000000,0.000000,0.000000,0.745194,1.344215,0.489535,0.377183,0.128403,650.000000,589.000000,61.000000,47.000000,0.000000,0.000000:
0000
0000
0000
0000
,
0000
0000
0000
0000
,
0000
0000
0000
0000
,
0000
0000
0000
0000
,
0000
0000
0000
0000
,
0000
0000
0000
0000
,
0000
0000
0000
0000
,
0000
0000
0000
0000
,
1000
0100
0010
0001
0010
0000
0011
0000
,
0000
0001
0100
0000
0010
0000
0110
0000
,
0000
0100
0001
0000
0010
0000
0011
0000
,
0000
0001
1000
0000
0100
0000
1100
0000
,
0000
1000
0010
0000
0100
0000
0110
0000
,
0000
0010
1000
0000
0100
0000
1100
0000
,
0000
1000
0001
0000
0100
0000
0110
0000
,
0000
0010
0100
0000
0001
0000
1001
0000
,
0000
1000
0010
0000
0202
0000
0303
0000
,
0001
0010
0100
1000
0100
0000
1100
0000
,
1000
0010
0000
0100
0101
0000
1010
0000
,
1001
0000
0001
0010
0100
0000
1100
0000
,
1000
0010
0000
0010
0100
0001
0100
0010
,
1010
0101
1001
0110
,
0010
0100
0000
0001
1000
1000
0100
0100
,
0010
0011
1100
1001
,
0001
0100
0000
0010
0100
0010
1000
0100
,
0010
0001
1000
0001
1001
0000
1000
0000
,
0020
0000
0130
0001
,
0010
0100
0010
0001
,
0200
0000
0310
1000
,
0200
0000
0310
0100
,
1100
0000
1000
0020
,
0000
0130
0001
0001
,
1000
1000
0010
0010
,
0100
0000
0100
0010
0100
0000
0001
0000
,
0020
0000
0130
1000
,
0010
0100
0010
1000
,
0200
0000
0310
0001
,
0200
0000
0310
1000
,
1000
0100
0100
0010
,
0010
0001
0001
0100
,
0010
1000
0001
0010
,
0100
1000
0020
0000
,
0000
0000
0200
0000
,
0000
0000
0000
0000
0330
0000
0000
0000
1001
0000
0000
0101
0000
0000
0100
0010
,
0100
0000
0010
0000
1000
0000
0100
0000
0110
0000
0000
0011
0000
0000
0001
0100
,
0010
0100
0001
0000
1001
0000
0000
0000
1010
0000
0000
0110
0000
0000
0100
0001
,
0010
0000
0100
0000
1000
0010
0100
0010
1000
0000
0000
1100
0000
0000
0100
0010
,
0001
0000
1000
0000
0010
0100
0010
0100
1001
0000
0000
1100
0000
0000
0100
0010
,
0100
0000
0010
0000
0001
0000
0100
0000
0110
0000
0000
1010
0000
0000
1000
0100
,
0001
0100
1000
0000
1001
0000
0000
0000
0011
0000
0000
0110
0000
0000
0100
1000
,
0010
0000
0100
0000
0001
0010
1000
0010
0001
0000
0000
0101
0000
0000
0100
0010
,
2000
3100
0020
0031
0001
0100
0100
1000
,
0100
0200
0000
0301
0010
0100
1000
0010
,
0100
0110
0000
0001
1000
0010
0010
0001
,
0010
0020
0000
1030
0100
0010
0001
0100
,
0010
0110
0000
1000
2002
3003
0001
0010
,
1000
0110
0000
0010
0001
0001
0010
1000
,
1000
0020
0000
0031
0100
1000
0100
0001
,
0010
1001
0000
0100
1000
1000
0100
0001
,
0001
0010
0100
1000
0020
0000
0000
0000
,
0230
0000
0000
0000
0000
0000
0000
0000
0301
0010
1000
0010
0001
0100
0010
1000
,
0100
0000
0100
0000
0100
0000
0100
0000
0010
0000
0000
0010
0000
0000
0110
0000
1001
0000
0000
0000
0000
0000
0000
0000
0001
0000
0000
0000
0000
0000
0000
0000
,
0100
0001
1000
0010
,
1000
0000
0001
0000
0100
0000
0000
0100
,
0010
0000
0000
0010
1000
0000
0000
1000
,
0001
0000
0000
0001
0100
0000
0000
1000
,
0000
0000
0100
0000
0010
0000
0000
0001
,
0000
0010
2020
0000
,
0000
3030
1000
0100
,
0010
0000
0001
0100
0001
0000
1000
0000
,
0100
0010
0200
0000
,
1300
0000
0010
0000
0110
0000
0000
0101
,
0000
0000
0001
0000
1000
0000
0000
1010
,
0000
0110
0100
0100
,
0001
1000
0010
0010
,
1000
0000
0001
0100
0001
0000
0010
0000
,
0100
0000
1000
0000
0010
0100
0010
0000
,
0100
0001
0100
0001
1000
0000
0100
0000
,
0001
0100
1000
0010
,
0100
0010
1000
0100
,
0001
0100
1000
0010
,
0001
0010
1000
0100
,
0001
1000
0010
0001
,
0100
1000
0001
0010
,
1000
0100
0010
0001
,
1000
0010
0210
0000
,
0301
0010
0100
1000
,
0010
0000
0100
0000
0110
0000
0000
0010
,
1000
0000
0000
1000
0100
0000
0000
0100
,
0001
0000
0000
0001
0100
0000
0000
1000
,
0000
0000
0100
0000
0010
0000
0000
0001
,
0000
0010
0100
0100
,
0010
0000
0010
0000
0001
1000
0001
1000
,
0010
0100
0110
0010
,
1000
0010
0100
0001
,
0100
0000
0010
0000
1000
0000
0000
1000
,
0001
0000
0000
0001
0010
0000
0000
0010
,
0100
0000
0000
0100
1000
0000
0000
0010
,
0000
0000
1000
0000
0001
0000
0000
0100
,
0000
0001
0022
0000
,
0000
0033
0010
0100
,
1000
0000
0010
0100
0010
0000
1000
0000
,
0100
0010
0002
0000
,
0103
0000
0010
0000
1010
0000
0000
1100
,
0000
0000
0100
0000
0010
0000
0000
0011
,
0000
0101
0100
0100
,
0001
1000
0010
0010
,
1000
0000
0100
0010
0100
0000
0010
0000
,
0001
0000
0100
0000
0010
1000
0010
0000
,
0100
0001
0100
0001
1000
0000
0100
0000
,
0001
0100
1000
0010
,
0100
0010
1000
0100
,
0001
0100
1000
0010
,
0001
0010
1000
0100
,
0001
1000
0010
0001
,
0100
1000
0001
0010
,
1000
0100
0010
0001
,
0100
0000
0010
0100
0010
0000
0001
0000
,
0010
1000
0001
0100
,
1000
0100
0110
1000
,
0100
0001
1000
0010
,
0001
0000
0100
0000
0010
1000
0100
0000
,
0010
0000
0100
0000
0010
0001
0100
0000
,
0010
0000
1000
0000
0100
0000
0000
0001
,
0000
0000
0010
0000
1000
0100
1000
0000
,
0001
0100
0001
0100
0002
0000
0023
0000
,
0230
0000
1300
0010
2000
0000
3200
0000
,
0320
0000
0031
0100
0002
0000
0203
0000
,
0320
0000
1030
0100
2000
0000
3020
0000
,
0230
0000
0301
0010
0002
0000
0203
0000
,
2300
0000
3001
0010
2000
0000
3200
0000
,
0302
0000
1003
0010
0001
0100
0010
1000
,
0100
0010
0001
0100
0010
1000
0100
0001
,
1000
0010
0001
1000
2002
0000
0000
0000
,
3003
0000
0000
0000
;

//---------------dance-single - ----------------
#NOTES:
     dance-single:
     :
     Hard:
     16:
     0.862132,1.397984,0.457435,0.441384,0.264830,752.000000,695.000000,57.000000,55.000000,0.000000,0.000000,0.862132,1.397984,0.457435,0.441384,0.264830,752.000000,695.000000,57.000000,55.000000,0.000000,0.000000:
0000
0000
0000
0000
,
0000
0000
0000
0000
,
0000
0000
0000
0000
,
0000
0000
0000
0000
,
0000
0000
0000
0000
,
0000
0000
0000
0000
,
0000
0000
0000
0000
,
0000
0000
0000
0000
,
1000
0100
1000
0000
0001
0010
0001
0000
0100
0000
0010
0000
2000
0000
0000
0000
,
0000
3100
1100
0000
0010
0100
0002
0000
,
0000
0013
0011
0000
0010
0100
2000
0000
,
0000
3010
1010
0000
0100
0010
0002
0000
,
0000
0103
0101
0000
0100
0001
0020
0000
,
0000
0130
1100
0000
0010
1000
0200
0000
,
0000
0310
0011
0000
0010
0100
2000
0000
,
0000
3001
1001
0000
0100
0010
0001
0100
,
0010
1000
0100
0010
2002
0000
3003
0000
,
0001
0100
0001
0000
1000
0010
1000
0000
0200
0000
0000
0000
0310
0000
0000
0000
,
0010
0001
0000
0010
0200
0000
1300
0000
,
1100
0011
0020
0130
,
0100
0000
0000
1000
0000
0000
0000
0000
0000
0100
0000
0000
0010
0000
0001
0000
0100
0000
0001
0000
1000
0000
0010
0000
,
1000
1001
0002
0103
,
0100
0010
0000
0010
1000
1000
0100
0010
,
0001
1001
2000
3010
,
0010
0000
0100
0000
0000
0000
0100
0000
0001
0000
0010
0100
0010
0000
0100
0000
,
1000
0100
1000
0000
0001
0010
0001
0000
1000
0000
0000
0000
0001
0000
0000
0000
,
2000
0000
0000
0000
0000
0000
3010
0000
0100
0000
0001
0000
,
0100
0000
0000
0000
0010
0000
0000
0000
1000
0000
0000
0000
0010
0000
0000
0000
0000
0000
0100
0000
0000
0010
0000
0000
,
0200
0000
0302
0010
,
0003
0000
1000
0100
1000
0000
0100
0000
,
0010
0011
0000
0100
,
1100
0000
1000
0010
0100
0000
0001
0100
,
0010
2000
3001
2000
,
3001
0000
0001
1000
0001
0000
0010
0000
,
0200
0000
0000
0000
0000
0000
1300
0000
0001
0000
0010
0000
,
0001
0000
0000
0000
1000
0000
0000
0000
0100
0000
0000
0000
1000
0000
0000
0000
0000
0000
0001
0000
0000
1000
0000
0000
,
0002
0000
0203
0010
,
0300
0000
0010
0000
1010
0000
1000
0100
,
0010
0000
0001
0010
0100
0000
1000
0000
,
0001
0000
0100
0010
0100
0000
0010
1000
,
0010
0000
0100
0001
0100
0000
0001
1000
,
0001
1000
0001
1000
0020
0000
0000
0000
,
0000
0000
0200
0000
,
0000
0000
0000
0000
0330
0000
0000
0000
0101
0000
0000
1010
0000
0000
1000
0100
,
1000
0000
0010
0000
0001
0000
0010
0000
1010
0000
0000
0101
0000
0000
0001
0010
,
0100
0010
0001
0010
0200
0000
0300
0000
1100
0000
0000
0011
0000
0000
0010
0001
,
0100
0000
0010
0000
1000
0100
0001
0100
1000
0000
0000
1001
0000
0000
0001
0010
,
1000
0000
0000
0000
0010
0000
0000
0000
0001
0100
0001
0000
1000
0000
0100
0000
1100
0000
0000
0000
0000
0000
0011
0000
0000
0000
0000
0000
0001
0000
0100
0000
,
0001
0000
0010
0000
1000
0000
0010
0000
0011
0000
0000
1100
0000
0000
1000
0010
,
0100
0010
1000
0010
0200
0000
0300
0000
0101
0000
0000
1010
0000
0000
0010
1000
,
0100
0000
0010
0000
0001
0100
1000
0100
0001
0000
0000
1001
0000
0000
1000
0100
,
0020
0000
0031
0000
2000
0000
3100
0000
0110
0000
0010
0001
0100
0000
0010
0000
,
0100
0000
0002
0000
0000
0000
0013
0100
1000
0000
0001
0010
0100
0000
1000
0000
,
0010
0000
0200
0000
0000
0000
0310
0000
1010
0000
1000
0100
0010
0000
0100
0000
,
1000
0000
0020
0000
0000
0000
0130
0001
0010
0000
0100
1000
0010
0000
0100
0000
,
0001
1000
0000
0010
0220
0330
0100
0001
,
0010
0000
0200
0000
0000
0000
1300
0001
0100
0000
0001
1000
0010
0000
0100
0000
,
0001
0000
0020
0000
0000
0000
0130
0000
1100
0000
1000
0010
0100
0000
0001
0000
,
1000
0000
0200
0000
0000
0000
0310
0001
1000
0000
0100
1000
0001
0000
0010
0000
,
0100
0010
0100
0000
1000
0000
0001
0000
0201
0000
0000
0000
0000
0000
0000
0000
,
0320
0000
0000
0000
0000
0000
0000
0000
1030
0100
1000
0100
0010
0001
0010
0001
,
0100
0000
0010
0000
1000
0000
0001
0000
0010
0000
0000
0100
0000
0000
0010
0000
1001
0000
0000
0000
0000
0000
0000
0000
0001
0000
0000
0000
0000
0000
0000
0000
,
0100
0010
1000
0001
,
0010
0000
0100
0000
1000
0000
0010
0100
,
0001
0000
0100
0010
1000
0000
0001
0010
,
0100
0000
1000
0100
0010
0000
0001
0100
,
0000
0010
0100
0000
0001
0000
1000
0010
,
0000
0100
0010
0000
2000
0000
3100
0010
,
0002
0003
0101
0100
,
1010
0000
0010
0100
0010
0000
0200
0000
,
0000
0301
0011
0000
,
0010
0000
0100
0010
0100
0000
2000
0000
,
0000
3010
0110
0000
,
0100
0001
0100
0001
1000
0000
0100
0000
,
0100
0000
1000
0001
0010
0000
0001
0000
,
0001
0000
0100
0010
1000
0000
0001
0000
,
0001
0000
0010
0000
0110
0000
0000
1100
,
0000
0011
1001
1000
,
0010
0001
0010
1000
,
0100
0001
0100
1000
,
0010
0000
0100
0000
0001
0010
0000
0010
,
0100
0000
0100
1000
0001
0000
0100
0000
,
1000
0100
0001
0010
,
1000
0010
0001
0100
,
0010
0000
1000
0000
0100
0010
0000
0010
,
0001
0000
0001
1000
0010
0000
0100
0000
,
0001
0010
0100
1000
,
0010
0000
0100
0000
0110
0000
0010
0100
,
0001
0000
0100
0010
1000
0000
0100
0010
,
0001
0000
1000
0100
0010
0000
0001
0100
,
0000
0010
1000
0000
0100
0000
1000
0010
,
0000
0100
0001
0000
0010
0000
0010
0000
,
0100
0000
0100
0000
1000
0001
0100
0000
,
0001
1000
0010
0000
0110
0000
0100
0000
,
0001
1000
0100
0010
,
0001
0000
1000
0000
0010
0000
0100
0001
,
0010
0000
0100
1000
0010
0000
0100
0001
,
1000
0000
0010
1000
0001
0000
0010
0100
,
0000
1000
0100
0000
0010
0000
0001
0010
,
0000
0100
0010
0000
0002
0000
0103
0010
,
2000
3000
1100
0010
,
0011
0000
0001
1000
0001
0000
0200
0000
,
0000
0310
1010
0000
,
1000
0000
0100
0010
0100
0000
0020
0000
,
0000
0031
0101
0000
,
0100
0010
1000
0001
0100
0000
0010
0000
,
0010
0000
1000
0100
0010
0000
0001
0000
,
0001
0000
1000
0010
0100
0000
0010
0000
,
0010
0000
1000
0000
1001
0000
0000
0101
,
0000
1010
0110
0100
,
0001
0010
1000
0001
,
0100
1000
0010
0100
,
0001
0000
1000
0000
0100
0010
0000
0010
,
0001
0000
0001
1000
0010
0000
0100
0000
,
0001
1000
0100
0001
,
1000
0010
0001
1000
,
0010
0000
0100
0000
0001
1000
0000
0100
,
0010
0000
0001
1000
0010
0100
0001
0000
,
0010
0000
0100
0000
1000
0010
0100
0000
,
0001
0000
1000
0000
0100
0010
0001
0000
,
0100
0000
0010
0000
1000
0100
0010
0000
,
0001
0000
1000
0000
0010
0100
0001
0000
,
0010
0100
1000
0000
0001
0010
0100
0000
,
1000
0010
0100
0000
0101
0000
0000
0011
,
0000
0000
1010
0000
1000
0100
1000
0100
,
0010
0001
0010
0001
2000
0000
3100
0010
,
0001
1000
0100
0010
0002
0000
0013
0100
,
1000
0001
0010
0100
2000
0000
3010
0001
,
0010
1000
0100
0010
0002
0000
0103
1000
,
0100
0001
0010
0100
2000
0000
3001
0010
,
1000
0001
0100
1000
0002
0000
1003
0100
,
0001
1000
0010
0001
2000
0000
3001
0010
,
1000
0001
0100
1000
0010
0001
1000
0100
,
0001
0010
0100
1000
2002
0000
0000
0000
,
3003
0000
0000
0000
;

//---------------dance-single - ----------------
#NOTES:
     dance-single:
     :
     Challenge:
     18:
     1.042125,1.828133,0.786466,0.457435,0.425334,909.000000,811.000000,98.000000,57.000000,0.000000,0.000000,1.042125,1.828133,0.786466,0.457435,0.425334,909.000000,811.000000,98.000000,57.000000,0.000000,0.000000:
0000
0000
0000
0000
,
0000
0000
0000
0000
,
0000
0000
0000
0000
,
0000
0000
0000
0000
,
0000
0000
0000
0000
,
0000
0000
0000
0000
,
0000
0000
0000
0000
,
0000
0000
0000
0000
,
0001
1000
0001
1000
0010
0100
0001
1000
0020
0000
0130
0000
0110
0000
0000
0000
,
0010
1000
0010
0000
0200
0000
0000
0000
0310
0000
0100
0000
0110
0000
0000
0000
,
0100
0001
0100
0000
0020
0000
0000
0000
0130
0000
0010
0000
1010
0000
0000
0000
,
1000
0100
1000
0000
0200
0000
0000
0000
0310
0000
0001
0000
1001
0000
0000
0000
,
0001
0010
0001
0000
0020
0000
0000
0000
0130
0000
1000
0000
1001
0000
0000
0000
,
0001
0100
0010
0000
0200
0000
0000
0000
0310
0000
1000
0000
1100
0000
0000
0000
,
1000
0010
0100
0000
0020
0000
0000
0000
0130
0000
0001
0000
0011
0000
0000
0000
,
0001
1000
0100
0000
0020
0000
0000
0000
0130
0000
1000
0000
1001
0000
0000
0000
,
1000
0001
0010
0000
0100
0000
1000
0000
2002
0000
0000
0000
3003
0000
0000
0000
,
0001
0100
0001
0100
0010
1000
0010
1000
0100
0000
0010
0000
0012
0000
0000
0000
,
0103
0120
0000
1030
1100
0000
0101
0000
,
1010
0000
0011
0000
0010
0100
2100
0000
,
3010
0000
0000
0210
0000
0000
0000
0000
0000
0301
0000
0000
0001
0000
0010
0000
0100
0000
1000
0000
0010
0000
0100
0000
,
0101
0000
1010
0000
1000
0100
0120
0000
,
0031
2001
0000
3100
0110
0001
0101
1000
,
1010
0000
1001
0000
0001
0010
0210
0000
,
1300
0000
1002
0000
0000
0000
0103
0000
0110
0000
0010
1000
0010
0000
0100
0001
,
0100
0010
1000
0100
0010
0001
0100
0010
0200
0000
0000
0000
0310
0000
0000
0000
,
0110
0000
0000
0010
0000
0000
1000
0000
0100
0000
0010
0000
,
0001
0000
0000
0000
0100
0000
0000
0000
0010
0000
0000
0000
1000
0000
0000
0000
0000
0000
0010
0000
0000
0100
0000
0000
,
0010
0000
1000
0000
0001
0000
0200
0000
0000
0310
0000
0000
,
0200
0000
0301
1000
0001
0000
0010
0000
,
0110
0100
1000
0001
,
1001
0000
1000
0010
0100
0001
0100
0010
,
1000
0100
0011
0100
,
1100
0000
1000
0001
2000
0000
3010
0000
,
0110
0000
0000
0100
0000
0000
0001
0000
1000
0000
0100
0000
,
0010
0000
0000
0000
0001
0000
0000
0000
1000
0000
0000
0000
0010
0000
0000
0000
0000
0000
0100
0000
0000
0001
0000
0000
,
1000
0000
0100
0000
0010
0000
0002
0000
0000
0103
0000
0000
,
2000
0000
3010
0000
0110
0000
0100
0001
,
0100
0000
0010
1000
0010
0000
0100
0010
,
0100
0000
0001
1000
0010
0100
0001
0010
,
0001
0010
0100
1000
0100
1000
0010
0100
,
0010
0100
0010
0100
0002
0000
0000
0000
,
0000
0000
2000
0000
,
0000
0000
0000
0000
3003
0000
0000
0000
1010
0000
0000
0011
0000
0000
0001
0100
,
0010
0000
1010
0000
1100
0000
0101
0000
0011
0000
0000
1100
0000
0000
1000
0010
,
0001
0010
1000
0100
0010
0000
0001
0010
1100
0000
0000
0101
0000
0000
0001
0010
,
0100
0000
1100
0000
0001
0100
1000
0100
0101
0000
0000
1010
0000
0000
1000
0100
,
0020
0000
0000
0000
0031
0000
0000
0000
0001
0100
0001
0100
0010
1000
0010
1000
0001
0000
0010
0000
0100
0000
1100
0000
0000
0000
0000
0000
1000
0000
0010
0000
,
0100
0000
0101
0000
0011
0000
1010
0000
1000
0100
0010
0011
0000
0000
0001
0100
,
1000
0100
0001
0010
0100
0000
1000
0010
0001
0010
0100
0110
0000
0000
0010
1000
,
0100
0000
0110
0000
0001
0010
0100
1000
0101
0000
0000
1100
0000
0000
0001
0010
,
0200
2300
3002
0000
0203
0000
0320
0000
1030
0000
1000
0100
0010
0000
0100
1000
,
0010
0000
2010
0000
0000
0000
3001
0000
0011
0000
0010
0001
0100
0000
0010
0100
,
0001
0000
0021
0000
0000
0000
0130
0000
1100
0000
1000
0001
0100
0000
0001
1000
,
0010
0000
0210
0000
0000
0000
0301
0000
0101
0000
0100
0010
1000
0000
0100
0010
,
0001
0000
1001
0000
0000
0000
1000
0000
0220
0000
0330
0000
0001
0000
0100
0010
,
1000
0000
0200
0000
0000
0000
0301
0000
0100
0000
1000
0010
0100
0000
1000
0100
,
0010
0000
2000
0000
0000
0000
3100
0000
0010
0000
0001
0100
0010
0000
0001
0010
,
0100
0000
0002
0000
0000
0000
1003
0100
0010
0000
0001
0010
0100
0000
0110
0000
,
1000
0010
0100
0001
0010
0100
1000
0001
2000
0000
0000
0000
0000
0000
0000
0000
,
3002
0000
0000
0000
0000
0000
0000
0000
0000
0000
0000
0000
0000
0000
0000
0000
0103
0000
0010
0000
1000
0000
0100
0000
0001
0000
1000
0000
0010
0000
0001
0100
,
0001
0100
0010
1000
0010
1000
0100
0010
0001
0000
0000
0101
0000
0000
1100
0000
1001
0000
0000
0000
0000
0000
0000
0000
0001
0000
0000
0000
0000
0000
0000
0000
,
0100
0010
0100
0000
0001
0000
1000
0000
,
0010
0100
0010
0000
1000
0000
0100
0010
,
0001
0000
0100
0010
1000
0000
0100
0010
,
0001
0000
0100
0010
1000
0000
0001
0100
,
0000
0010
0100
0000
1000
0000
0100
0010
,
0000
1000
0010
0000
0001
0000
0010
0100
,
0020
0030
1010
0100
,
0101
0000
0001
1000
0001
0000
0100
0000
,
0010
1000
1200
0000
,
0310
0000
0001
0000
0101
0000
0100
0010
,
1000
0001
0011
0010
,
0100
1000
0100
0010
0001
0000
0100
0000
,
0110
0000
0010
1000
0100
0000
1000
0000
,
1001
0000
0001
0100
0010
0000
1000
0000
,
1010
0000
0010
0000
0100
0001
0010
0001
,
0010
0100
1000
0100
1000
0000
0010
0100
,
0001
0000
1000
0000
0100
0000
0010
0001
,
1000
0000
0010
0000
0100
0000
0001
1000
,
0100
0000
0010
0000
0001
0000
0100
0010
,
1000
0001
0010
0100
1000
0000
0010
0000
,
0100
0000
0001
1000
0100
0000
0010
0000
,
0001
0000
0100
0010
1000
0000
0001
0000
,
0010
0000
0100
0010
0001
0000
0001
0100
,
0000
0100
0010
1000
0020
0000
0130
0000
,
0001
0020
0130
1000
,
0020
0000
0130
0000
0101
0000
0001
1000
,
0010
0000
1000
0001
0100
0000
0001
0010
,
0100
0000
1000
0100
0010
0000
0001
0100
,
0010
0100
0001
0100
0010
0000
1000
0100
,
0010
0100
1000
0100
0010
0000
0011
0000
,
1100
0000
1001
0000
0001
0100
0010
1000
,
0001
0010
0100
0000
0110
0000
1000
0000
,
0010
0100
0001
0000
1000
0000
0010
0000
,
0100
0010
1000
0000
0001
0000
1000
0100
,
0010
0000
0100
1000
0010
0000
0100
0001
,
0010
0000
0100
0010
0001
0000
1000
0010
,
0000
0001
0010
0000
0100
0000
0001
0100
,
0000
1000
0100
0000
0010
0000
1000
0001
,
2000
3000
1010
0001
,
0101
0000
0100
0010
0100
0000
0001
0000
,
1000
0010
2010
0000
,
3001
0000
0100
0000
0110
0000
0010
1000
,
0100
0010
0011
0001
,
0100
0010
1000
0001
0010
0000
0100
0000
,
1100
0000
1000
0001
0100
0000
0010
0000
,
1010
0000
1000
0100
0010
0000
0001
0000
,
0101
0000
0100
0000
0010
1000
0100
0010
,
0001
0010
0100
1000
0010
0000
0100
0001
,
1000
0000
0010
0000
0001
0000
0010
1000
,
0001
0000
0100
0000
1000
0000
0100
0001
,
1000
0000
0100
0000
0010
0000
0001
0100
,
0010
1000
0001
0010
0100
0000
1000
0000
,
0010
0000
0001
0010
0100
0000
0001
0000
,
0100
0000
1000
0100
0010
0000
1000
0000
,
0001
0000
0010
0100
1000
0000
1000
0001
,
0000
0001
0100
0010
0100
0000
0101
0000
,
0001
0011
0100
1100
,
1000
1010
0101
0001
,
0110
1000
1010
0001
,
1001
0000
0100
0000
0010
1000
0010
1000
,
0001
0100
0001
0100
0010
1000
0001
0100
,
0010
1000
0100
0010
0001
0100
0001
1000
,
0010
1000
0100
0010
0001
0100
1000
0100
,
0001
0010
1000
0010
0002
0100
0103
0001
,
0010
0100
1000
0001
2000
0010
3010
1000
,
0100
0010
0001
1000
0020
0100
0130
0001
,
0010
1000
0001
0100
2000
0001
3001
0100
,
0010
0001
1000
0100
0020
1000
1030
0100
,
0001
1000
0010
0001
0200
0010
0310
1000
,
0100
0001
0010
1000
0001
0010
0100
0001
,
1000
0010
0100
1000
0010
0001
1000
0100
,
0001
0010
0100
1000
2002
0000
0000
0000
,
3003
0000
0000
0000
;

//---------------dance-double - ----------------
#NOTES:
     dance-double:
     :
     Hard:
     16:
     0.841496,1.290447,0.449409,0.433359,0.256805,734.000000,678.000000,56.000000,54.000000,0.000000,0.000000,0.841496,1.290447,0.449409,0.433359,0.256805,734.000000,678.000000,56.000000,54.000000,0.000000,0.000000:
00000000
00000000
00000000
00000000
,
00000000
00000000
00000000
00000000
,
00000000
00000000
00000000
00000000
,
00000000
00000000
00000000
00000000
,
00000000
00000000
00000000
00000000
,
00000000
00000000
00000000
00000000
,
00000000
00000000
00000000
00000000
,
00000000
00000000
00000000
00000000
,
00001000
00010000
00001000
00000000
00010000
00001000
00010000
00000000
00001000
00000000
00010000
00000000
00000200
00000000
00000000
00000000
,
00000000
00010300
00011000
00000000
00010000
00001000
00200000
00000000
,
00000000
00301000
00011000
00000000
00001000
00010000
00000020
00000000
,
00000000
00010030
00011000
00000000
00010000
00001000
02000000
00000000
,
00000000
03001000
00011000
00000000
00001000
00010000
00200000
00000000
,
00000000
01300000
01001000
00000000
00010000
00001000
00000200
00000000
,
00000000
00000310
00010010
00000000
00001000
00010000
02000000
00000000
,
00000000
03100000
00101000
00000000
00010000
00001000
00000010
00000100
,
00010000
00001000
00000100
00000001
00002002
00000000
00003003
00000000
,
00001000
00000100
00001000
00000000
00000001
00000010
00000001
00000000
00000200
00000000
00000000
00000000
00000310
00000000
00000000
00000000
,
00000010
00001000
00000000
00000100
00000020
00000000
00001030
00000000
,
00011000
00110000
00200000
10300000
,
10000000
00000000
00000000
01000000
00000000
00000000
00000000
00000000
00000000
00100000
00000000
00000000
01000000
00000000
00100000
00000000
01000000
00000000
00010000
00000000
00001000
00000000
00010000
00000000
,
00000010
00000110
00000200
00000301
,
00000001
00000010
00000000
00000010
00001000
00000010
00000001
00000100
,
00001000
00011000
00020000
00130000
,
00100000
00000000
10000000
00000000
00000000
00000000
10000000
00000000
01000000
00000000
00010000
00001000
00010000
00000000
00000100
00000000
,
00001000
00000010
00001000
00000000
00000001
00000100
00000001
00000000
00000010
00000000
00000000
00000000
00001000
00000000
00000000
00000000
,
00020000
00000000
00000000
00000000
00000000
00000000
00031000
00000000
00100000
00000000
00010000
00000000
,
00100000
00000000
00000000
00000000
01000000
00000000
00000000
00000000
10000000
00000000
00000000
00000000
01000000
00000000
00000000
00000000
00000000
00000000
00100000
00000000
00000000
00010000
00000000
00000000
,
00200000
00000000
00302000
00013000
,
00000000
00000000
00010000
00001000
00010000
00000000
00001000
00000000
,
00000100
00000002
00000000
00000013
,
00000110
00000100
00010000
00001000
,
00100000
01000000
10000000
00100000
,
01100000
00000000
00010000
10000000
00100000
00000000
00010000
00000000
,
00002000
00000000
00000000
00000000
00000000
00000000
00013000
00000000
00000010
00000000
00001000
00000000
,
00000010
00000000
00000000
00000000
00000100
00000000
00000000
00000000
00000001
00000000
00000000
00000000
00000100
00000000
00000000
00000000
00000000
00000000
00000010
00000000
00000000
00001000
00000000
00000000
,
00000020
00000000
00020030
00031000
,
00000000
00000000
00011000
00000000
00010000
00000000
00001000
00010000
,
00001000
00000000
00100000
00010000
00100000
00000000
01000000
00000000
,
10000000
00000000
00100000
01000000
00100000
00000000
00010000
00000000
,
00001000
00000000
00000100
00000010
00000100
00000000
00000001
00000000
,
00000010
00001000
00022000
00000000
,
00000000
00000000
00000000
00000000
,
00000000
00000000
00000000
00000000
00033000
00000000
00000000
00000000
00010100
00000000
00000000
01001000
00000000
00000000
01000000
00010000
,
00100000
00000000
01000000
00000000
10000000
00000000
00100000
00000000
01100000
00000000
00000000
10010000
00000000
00000000
10000000
01000000
,
00100000
00010000
00100000
00001000
00020000
00000000
00030000
00000000
00010010
00000000
00000000
00101000
00000000
00000000
00100000
00010000
,
01000000
00000000
00001000
00000000
00010000
00000100
00001000
00000100
00000010
00000000
00000000
00000011
00000000
00000000
00000001
00000100
,
00001000
00000000
00010000
00000000
01000000
00010000
00001000
00000000
01001000
00000000
00000000
00010100
00000000
00000000
00000100
00001000
,
00000010
00000000
00000100
00000000
00000001
00000000
00000010
00000000
00000110
00000000
00000000
00001001
00000000
00000000
00000001
00000100
,
00000010
00001000
00000010
00010000
00002000
00000000
00003000
00000000
00101000
00000000
00000000
00010010
00000000
00000000
00000010
00001000
,
00000100
00000000
00010000
00000000
00001000
00100000
00010000
00100000
01000000
00000000
00000000
11000000
00000000
00000000
10000000
00100000
,
00010000
00000000
00001000
00000000
00000100
00000000
00000001
00000000
00001001
00000000
00001000
00000100
00000010
00000000
00000100
00000000
,
00001000
00000000
00000200
00000000
00000000
00000000
00000310
00001000
00010000
00000000
00001000
00010000
01000000
00000000
10000000
00000000
,
00100000
00000000
02000000
00000000
00000000
00000000
03010000
00000000
10010000
00000000
00010000
00100000
01000000
00000000
00100000
00000000
,
00010000
00000000
00200000
00000000
00000000
00000000
01300000
00010000
00001000
00000000
00010000
00001000
00000010
00000000
00000001
00000000
,
00001000
00000010
00000000
00000100
00000220
00000330
00000010
00001000
,
00000100
00000000
00000020
00000000
00000000
00000000
00001030
00010000
00100000
00000000
00010000
00001000
00000010
00000000
00001000
00000000
,
00010000
00000000
02000000
00000000
00000000
00000000
13000000
00000000
10100000
00000000
10000000
01000000
00010000
00000000
01000000
00000000
,
10000000
00000000
00200000
00000000
00000000
00000000
00310000
00001000
00000100
00000000
00001000
00010000
01000000
00000000
00010000
00000000
,
00001000
00010000
00001000
00000000
00000100
00000000
00000001
00000000
00000021
00000000
00000000
00000000
00000000
00000000
00000000
00000000
,
00002030
00000000
00000000
00000000
00000000
00000000
00000000
00000000
00103000
00010000
01000000
00001000
00010000
00000100
00001000
00000010
,
00010000
00000000
00001000
00000000
01000000
00000000
00010000
00000000
00100000
00000000
00000000
00001000
00000000
00000000
00010000
00000000
00011000
00000000
00000000
00000000
00000000
00000000
00000000
00000000
00010000
00000000
00000000
00000000
00000000
00000000
00000000
00000000
,
00001000
00100000
00010000
01000000
,
00100000
00000000
10000000
00000000
00010000
00000000
01000000
00100000
,
01000000
00000000
00001000
00100000
00001000
00000000
00010000
00000010
,
00010000
00000000
00000010
00000100
00000010
00000000
00000000
00000100
,
00000000
00000000
00000001
00000000
00000010
00000000
00000000
00001000
,
00000000
00000000
00010000
00000000
02000000
00000000
13000000
00100000
,
02000000
03000000
01010000
00001000
,
00011000
00000000
00010000
00000100
00001000
00000000
00000002
00000000
,
00000000
00000103
00000110
00000000
,
00000010
00000000
00010000
00001000
00100000
00000000
00020000
00000000
,
00000000
01030000
01100000
00000000
,
00100000
10000000
00100000
10000000
00010000
00000000
00100000
00000000
,
01000000
00000000
00010000
00001000
00010000
00000000
00000100
00000000
,
00000010
00000000
00001000
00010000
00001000
00000000
00100000
00000000
,
01000000
00000000
00010000
00000000
00010100
00000000
00000000
01001000
,
00000000
00010010
00011000
00001000
,
00000100
00000001
00000010
00000100
,
00010000
00001000
00100000
01000000
,
10000000
00000000
00100000
00000000
00010000
00001000
00000000
00010000
,
00001000
00000000
00010000
00000100
00001000
00000000
00000001
00000000
,
00000010
00001000
00010000
01000000
,
10000000
00100000
00010000
00001000
,
00000100
00000000
00000001
00000000
00000010
00000100
00000000
00000010
,
00000100
00000000
00000010
00001000
00010000
00000000
00100000
00000000
,
00010000
00001000
00000100
00001000
,
00010000
00000000
01000000
00000000
11000000
00000000
10000000
00100000
,
01000000
00000000
00010000
01000000
00100000
00000000
00010000
00001000
,
00100000
00000000
00001000
00010000
00000100
00000000
00000010
00000001
,
00000000
00000100
00000001
00000000
00001000
00000000
00000010
00001000
,
00000000
00000100
00001000
00000000
00000010
00000000
00010000
00000000
,
00001000
00000000
00100000
00000000
01000000
10000000
01000000
00000000
,
00010000
00001000
00010000
00000000
00011000
00000000
00001000
00000000
,
00010000
00000010
00001000
00000100
,
00000010
00000000
00000001
00000000
00001000
00000000
00000010
00000100
,
00000001
00000000
00000010
00000100
00010000
00000000
00001000
01000000
,
00100000
00000000
10000000
01000000
00100000
00000000
00000000
01000000
,
00000000
00000000
10000000
00000000
00100000
00000000
00000000
00010000
,
00000000
00000000
00001000
00000000
00000200
00000000
00000301
00000010
,
00000200
00000300
00001100
00010000
,
00011000
00000000
00001000
01000000
00010000
00000000
20000000
00000000
,
00000000
31000000
01100000
00000000
,
00100000
00000000
00001000
00010000
00000010
00000000
00002000
00000000
,
00000000
00003100
00000110
00000000
,
00000010
00000001
00000010
00000001
00001000
00000000
00000010
00000000
,
00000100
00000000
00001000
00010000
00001000
00000000
01000000
00000000
,
00100000
00000000
00010000
00001000
00010000
00000000
00000010
00000000
,
00000100
00000000
00001000
00000000
01001000
00000000
00000000
00010100
,
00000000
00101000
00011000
00010000
,
01000000
10000000
00100000
00010000
,
00001000
00100000
01000000
00010000
,
00001000
00000000
00000010
00000000
00000100
00001000
00000000
00000100
,
00000010
00000000
00000100
00001000
00000001
00000000
00000010
00000000
,
00001000
00010000
01000000
10000000
,
00100000
00010000
00001000
00000100
,
00000001
00000000
00000010
00000000
00001000
00010000
00000000
00001000
,
00100000
00000000
00010000
00100000
01000000
10000000
01000000
00000000
,
00100000
00000000
00010000
00000000
00100000
01000000
00100000
00000000
,
00001000
00000000
00010000
00000000
00000100
00000010
00000100
00000000
,
00001000
00000000
00000100
00000000
00000010
00000001
00000010
00000000
,
00000100
00000000
00000010
00000000
00000001
00000100
00000010
00000000
,
00001000
00000100
00010000
00000000
00001000
00100000
00010000
00000000
,
00100000
01000000
10000000
00000000
10200000
00000000
00000000
02300000
,
00000000
00000000
03001000
00000000
00001000
00010000
00001000
00010000
,
00000100
00001000
00000100
00000010
00000002
00000000
00000103
00000010
,
00010000
00001000
01000000
00100000
20000000
00000000
30100000
01000000
,
00001000
00010000
00000010
00000100
00000002
00000000
00000013
00000100
,
00010000
00001000
00100000
01000000
20000000
00000000
31000000
00100000
,
00001000
00010000
00000100
00000010
00000002
00000000
00000103
00001000
,
00010000
00100000
10000000
01000000
00200000
00000000
01300000
00010000
,
00001000
00000010
00000001
00000100
00000020
00000000
00001030
00000100
,
00000010
00000001
00000100
00001000
00010000
00100000
10000000
01000000
,
00010000
00001000
00000010
00000001
00002002
00000000
00000000
00000000
,
00003003
00000000
00000000
00000000
;

//---------------dance-double - ----------------
#NOTES:
     dance-double:
     :
     Challenge:
     18:
     0.999706,1.559290,0.674114,0.465460,0.405271,872.000000,788.000000,84.000000,58.000000,0.000000,0.000000,0.999706,1.559290,0.674114,0.465460,0.405271,872.000000,788.000000,84.000000,58.000000,0.000000,0.000000:
// measure 0
00000000
00000000
00000000
00000000
,  // measure 1
00000000
00000000
00000000
00000000
,  // measure 2
00000000
00000000
00000000
00000000
,  // measure 3
00000000
00000000
00000000
00000000
,  // measure 4
00000000
00000000
00000000
00000000
,  // measure 5
00000000
00000000
00000000
00000000
,  // measure 6
00000000
00000000
00000000
00000000
,  // measure 7
00000000
00000000
00000000
00000000
,  // measure 8
00010000
01000000
00010000
01000000
00001000
00010000
00000100
00001000
00000020
00000000
00010030
00000000
00011000
00000000
00000000
00000000
,  // measure 9
00001000
00010000
00001000
00000000
02000000
00000000
00000000
00000000
03100000
00000000
10000000
00000000
11000000
00000000
00000000
00000000
,  // measure 10
01000000
00010000
01000000
00000000
00020000
00000000
00000000
00000000
00031000
00000000
00000010
00000000
00000110
00000000
00000000
00000000
,  // measure 11
00000100
00001000
00000100
00000000
00000020
00000000
00000000
00000000
00000031
00000000
00001000
00000000
00001010
00000000
00000000
00000000
,  // measure 12
00000010
00000100
00000010
00000000
00002000
00000000
00000000
00000000
00003100
00000000
00010000
00000000
00011000
00000000
00000000
00000000
,  // measure 13
00001000
00100000
00001000
00000000
00020000
00000000
00000000
00000000
01030000
00000000
10000000
00000000
10100000
00000000
00000000
00000000
,  // measure 14
00100000
01000000
00100000
00000000
00020000
00000000
00000000
00000000
00031000
00000000
00000100
00000000
00000101
00000000
00000000
00000000
,  // measure 15
00000001
00000010
00000100
00000000
00000020
00000000
00000000
00000000
00001030
00000000
00010000
00000000
01010000
00000000
00000000
00000000
,  // measure 16
01000000
10000000
00100000
00000000
00010000
00000000
00001000
00000000
00022000
00000000
00000000
00000000
00033000
00000000
00000000
00000000
,  // measure 17
00010000
00001000
01000000
00001000
00010000
00000010
00010000
00001000
00000100
00000000
00000100
00000000
00000102
00000000
00000000
00000000
,  // measure 18
00000013
00002010
00000000
00013000
00010100
00000000
01001000
00000000
,  // measure 19
00010010
00000000
00101000
00000000
00100000
01000000
21000000
00000000
,  // measure 20
30010000
00000000
00000000
00210000
00000000
00000000
00000000
00000000
00000000
01300000
00000000
00000000
01000000
00000000
10000000
00000000
00100000
00000000
01000000
00000000
00010000
00000000
00100000
00000000
,  // measure 21
00101000
00000000
00010100
00000000
00000100
00000010
00000012
00000000
,  // measure 22
00001003
00001200
00000000
00000310
00000011
00000100
00001000
00000100
,  // measure 23
00001100
00000000
01010000
00000000
00010000
00100000
02100000
00000000
,  // measure 24
13000000
00000000
10200000
00000000
00000000
00000000
00310000
00000000
00011000
00000000
00001000
00000000
00010000
00000000
00000100
00001000
,  // measure 25
00000100
00001000
00000010
00000100
00000001
00000010
00000100
00001000
00000200
00000000
00000000
00000000
00000310
00000000
00000000
00000000
,  // measure 26
00000110
00000000
00000000
00000001
00000000
00000000
00000100
00000000
00001000
00000000
00010000
00000000
,  // measure 27
01000000
00000000
00000000
00000000
00010000
00000000
00000000
00000000
00001000
00000000
00000000
00000000
00000100
00000000
00000000
00000000
00000000
00000000
00000010
00000000
00000000
00000100
00000000
00000000
,  // measure 28
00000010
00000000
00010000
00000000
00001000
00000000
02000000
00000000
00000000
03100000
00000000
00000000
,  // measure 29
02000000
00000000
03100000
10000000
00100000
00000000
10000000
00000000
,  // measure 30
11000000
01000000
00010000
00001000
,  // measure 31
00000100
00000000
00000001
00000010
00000100
00001000
00000100
00000010
,  // measure 32
00000001
00000100
00001000
00010000
,  // measure 33
00011000
00000000
00001000
00010000
00002000
00000000
01003000
00000000
,  // measure 34
01100000
00000000
00000000
10000000
00000000
00000000
01000000
00000000
00010000
00000000
00001000
00000000
,  // measure 35
00000100
00000000
00000000
00000000
00001000
00000000
00000000
00000000
00010000
00000000
00000000
00000000
01000000
00000000
00000000
00000000
00000000
00000000
00100000
00000000
00000000
01000000
00000000
00000000
,  // measure 36
00100000
00000000
00001000
00000000
00010000
00000000
00000200
00000000
00000000
00000310
00000000
00000000
,  // measure 37
00000200
00000000
00000310
00000001
00000100
00000000
00000100
00000010
,  // measure 38
00001000
00000000
00001000
00000100
00010000
00000000
00001000
00000000
,  // measure 39
00011000
00000000
00010000
00001000
00100000
00000000
00100000
01000000
,  // measure 40
10000000
00000000
10000000
00100000
00010000
00000000
00010000
00001000
,  // measure 41
00000010
00000000
00000010
00000002
00002000
00000000
00000000
00000000
,  // measure 42
00000000
00000000
00000000
00000000
,  // measure 43
00000000
00000000
00000000
00000000
00003003
00000000
00000000
00000000
00001010
00000000
00000000
00000101
00000000
00000000
00000001
00000010
,  // measure 44
00001000
00000000
00011000
00000000
00100000
00000000
01100000
00000000
10000000
00000000
00000000
10100000
00000000
00000000
00100000
00010000
,  // measure 45
00001000
00100000
01000000
00010000
00001000
00000000
00000100
00000001
00000011
00000000
00000000
00001100
00000000
00000000
00000100
00000010
,  // measure 46
00001000
00000000
00011000
00000000
00010000
01000000
10000000
00100000
00010000
00000000
00000000
00010010
00000000
00000000
00000010
00001000
,  // measure 47
00000200
00000000
00000310
00000000
00000020
00000032
00000203
00002300
00013000
00100000
10000000
10010000
00000000
00000000
00010000
00100000
,  // measure 48
01000000
00000000
11000000
00000000
00010000
00000000
00110000
00000000
00100000
01000000
00010000
00011000
00000000
00000000
00001000
00000010
,  // measure 49
00000100
00001000
00000001
00000010
00000100
00000000
00001000
00000010
00000001
00000010
00000100
00000101
00000000
00000000
00000001
00000010
,  // measure 50
00001000
00000000
00011000
00000000
00010000
01000000
10000000
00100000
00010000
00000000
00000000
00011000
00000000
00000000
00001000
00000100
,  // measure 51
00000002
00000023
00000230
00000000
00020300
00000000
00032000
00000000
00103000
00000000
00100000
01000000
00100000
00000000
01000000
10000000
,  // measure 52
01000000
00000000
21000000
00000000
00000000
00000000
30100000
00000000
01100000
00000000
01000000
00001000
01000000
00000000
00001000
00010000
,  // measure 53
00001000
00000000
00201000
00000000
00000000
00000000
01300000
00000000
11000000
00000000
10000000
00100000
10000000
00000000
00010000
01000000
,  // measure 54
00010000
00000000
00210000
00000000
00000000
00000000
00301000
00000000
00011000
00000000
00010000
00000100
00010000
00000000
00000010
00001000
,  // measure 55
00000010
00000000
00000110
00000000
00000000
00000000
00000001
00000000
00002002
00000000
00003003
00000000
00001000
00000000
00000100
00000010
,  // measure 56
00000001
00000000
00000200
00000000
00000000
00000000
00001300
00000000
00010000
00000000
00100000
10000000
01000000
00000000
00100000
01000000
,  // measure 57
10000000
00000000
00200000
00000000
00000000
00000000
00310000
00000000
00001000
00000000
00100000
01000000
00010000
00000000
00001000
00010000
,  // measure 58
00100000
00000000
00020000
00000000
00000000
00000000
00031000
00000010
00000100
00000000
00001000
00000100
00000010
00000000
00000011
00000000
,  // measure 59
00000001
00000100
00000010
00001000
00000100
00000010
00000001
00000100
00002000
00000000
00000000
00000000
00000000
00000000
00000000
00000000
,  // measure 60
00023000
00000000
00000000
00000000
00000000
00000000
00000000
00000000
00000000
00000000
00000000
00000000
00000000
00000000
00000000
00000000
00130000
00000000
10000000
00000000
01000000
00000000
00100000
00000000
00010000
00000000
00001000
00000000
00000100
00000000
00000010
00000001
,  // measure 61
00000010
00000001
00000100
00000010
00000100
00000010
00001000
00000100
00010000
00000000
00000000
00010010
00000000
00000000
00101000
00000000
00011000
00000000
00000000
00000000
00000000
00000000
00000000
00000000
00010000
00000000
00000000
00000000
00000000
00000000
00000000
00000000
,  // measure 62
01000000
10000000
00100000
10000000
,  // measure 63
01000000
00000000
00010000
00000000
00001000
00000000
00100000
01000000
,  // measure 64
00010000
00000000
00001000
00000010
00000100
00000000
00010000
00001000
,  // measure 65
00000100
00000000
00001000
00010000
00100000
00000000
10000000
01000000
,  // measure 66
00000000
00010000
01000000
00000000
10000000
00000000
00100000
00010000
,  // measure 67
00000000
00001000
00010000
00000000
00001000
00000000
00000100
00000001
,  // measure 68
00000200
00000300
00000110
00000010
,  // measure 69
00001001
00000000
00001000
00000100
00000010
00000000
00000001
00000000
,  // measure 70
00000100
00001000
00021000
00000000
,  // measure 71
01030000
00000000
10000000
00000000
10100000
00000000
00100000
00010000
,  // measure 72
00001000
00100000
01100000
01000000
,  // measure 73
00010000
00001000
00010000
00000100
00000010
00000000
00000001
00000000
,  // measure 74
00000101
00000000
00000100
00001000
00010000
00000000
00001000
00000000
,  // measure 75
00011000
00000000
00010000
00100000
10000000
00000000
01000000
00000000
,  // measure 76
01100000
00000000
00100000
00000000
00010000
01000000
00001000
00010000
,  // measure 77
00001000
00010000
00000010
00001000
00000100
00000000
00000010
00000000
,  // measure 78
00000001
00000100
00001000
00010000
,  // measure 79
00000010
00000100
00001000
00010000
,  // measure 80
00100000
00000000
10000000
00000000
01000000
00000000
00100000
00010000
,  // measure 81
01000000
00100000
01000000
00010000
00100000
00000000
01000000
00000000
,  // measure 82
00010000
00001000
00000010
00010000
,  // measure 83
00100000
00001000
00010000
01000000
,  // measure 84
00001000
00000000
00000100
00000000
00000010
00000001
00000100
00000010
,  // measure 85
00000100
00000001
00000010
00000100
00002000
00000000
00003010
00000000
,  // measure 86
00010000
00002000
00103000
00010000
,  // measure 87
20000000
00000000
31000000
00000000
01100000
00000000
00100000
00010000
,  // measure 88
01000000
00000000
00100000
00010000
00001000
00000000
00010000
00001000
,  // measure 89
00000100
00000000
00000010
00001000
00000100
00000000
00000010
00000001
,  // measure 90
00000100
00000000
00000100
00001000
00010000
00000000
00001000
00010000
,  // measure 91
01000000
00000000
01000000
10000000
00100000
00000000
01100000
00000000
,  // measure 92
00010000
00000000
10010000
00000000
10000000
00100000
01000000
00010000
,  // measure 93
00100000
00001000
00010000
00000000
00011000
00000000
00001000
00000000
,  // measure 94
00000100
00000001
00000010
00000001
,  // measure 95
00000100
00000000
00001000
00000000
00010000
00000000
00000010
00000100
,  // measure 96
00001000
00000000
00010000
00100000
01000000
00000000
00001000
00010000
,  // measure 97
01000000
00000000
00010000
00001000
00000010
00000000
00000001
00000100
,  // measure 98
00000000
00001000
00000100
00000000
00000001
00000000
00000010
00001000
,  // measure 99
00000000
00010000
00001000
00000000
00010000
00000000
01000000
10000000
,  // measure 100
02000000
03000000
01100000
00100000
,  // measure 101
10010000
00000000
00010000
01000000
00100000
00000000
10000000
00000000
,  // measure 102
01000000
00010000
00012000
00000000
,  // measure 103
00003100
00000000
00000001
00000000
00000011
00000000
00000010
00001000
,  // measure 104
00010000
00000010
00000110
00000100
,  // measure 105
00001000
00010000
00001000
01000000
00100000
00000000
10000000
00000000
,  // measure 106
11000000
00000000
01000000
00010000
00001000
00000000
00010000
00000000
,  // measure 107
00011000
00000000
00001000
00000010
00000001
00000000
00000100
00000000
,  // measure 108
00000110
00000000
00000010
00000000
00001000
00000100
00010000
00001000
,  // measure 109
00010000
00001000
00100000
00010000
01000000
00000000
00100000
10000000
,  // measure 110
01000000
00000000
00100000
00000000
00001000
00000000
00010000
00100000
,  // measure 111
01000000
00000000
00100000
00000000
00010000
00000000
00001000
00000100
,  // measure 112
00000010
00000000
00000100
00000000
00001000
00000000
00010000
00000100
,  // measure 113
00001000
00000100
00010000
00001000
00000100
00000000
00000001
00000000
,  // measure 114
00000010
00000000
00000100
00000010
00000001
00000000
00000100
00000000
,  // measure 115
00001000
00000000
00010000
00100000
10000000
00000000
01000000
00000000
,  // measure 116
00100000
00000000
00010000
01000000
00100000
00000000
00010000
00001000
,  // measure 117
00000000
00000100
00000010
00000100
00000001
00000000
00000011
00000000
,  // measure 118
00000010
00000100
00001000
00010000
,  // measure 119
00100000
01100000
10010000
10000000
,  // measure 120
00100000
01000000
00010000
00001000
,  // measure 121
00000010
00000000
00000100
00000000
00000001
00000010
00000001
00001000
,  // measure 122
00000100
00001000
00000010
00000100
00000010
00010000
00001000
01000000
,  // measure 123
00100000
01000000
00010000
00100000
02000000
00000000
13000000
00200000
,  // measure 124
00000000
00310000
00002000
00000000
00003100
00000001
00000010
00000100
,  // measure 125
00010000
00001000
00100000
01000000
10000000
10000000
00100000
00010000
,  // measure 126
00001000
00000100
00000010
00001000
00000001
00000001
00000010
00001000
,  // measure 127
00010000
01000000
00100000
00010000
10000000
10000000
01000000
00010000
,  // measure 128
00000100
00001000
00000010
00000100
00000001
00000001
00000010
00001000
,  // measure 129
00100000
00010000
01000000
00100000
10000000
10000000
01000000
00100000
,  // measure 130
00010000
00001000
00000100
00000010
00000001
00000001
00000100
00000010
,  // measure 131
00001000
00010000
01000000
00100000
10000000
01000000
00100000
10000000
,  // measure 132
00100000
00001000
00010000
00000100
00000001
00000100
00000010
00001000
,  // measure 133
00010000
01000000
00100000
00010000
20020000
00000000
00000000
00000000
,  // measure 134
30030000
00000000
00000000
00000000
;

//---------------dance-double - ----------------
#NOTES:
     dance-double:
     :
     Easy:
     11:
     0.455142,0.752761,0.240755,0.112352,0.000000,397.000000,367.000000,30.000000,14.000000,0.000000,0.000000,0.455142,0.752761,0.240755,0.112352,0.000000,397.000000,367.000000,30.000000,14.000000,0.000000,0.000000:
00000000
00000000
00000000
00000000
,
00000000
00000000
00000000
00000000
,
00000000
00000000
00000000
00000000
,
00000000
00000000
00000000
00000000
,
00000000
00000000
00000000
00000000
,
00000000
00000000
00000000
00000000
,
00000000
00000000
00000000
00000000
,
00000000
00000000
00000000
00000000
,
00000000
00000000
00001000
00010000
,
00000000
00001000
00010000
00100000
,
00000000
00010000
00001000
00000010
,
00000000
00001000
00010000
01000000
,
00000000
00010000
00001000
00000100
,
00000000
00000001
00000010
00001000
,
00000000
00010000
01000000
10000000
,
00000000
00100000
00010000
00001000
,
00000010
00000001
00002002
00003003
,
00000100
00000010
00000100
00000000
00000010
00000000
00000110
00000000
,
00001000
00000100
00000000
00000010
00000001
00000000
00000100
00000000
,
00001000
00010000
01000000
01100000
,
00010000
01000000
00000000
00100000
10000000
00000000
01000000
00000000
,
00010000
00001000
00000100
00000110
,
00000001
00001000
00000000
00000100
00000010
00000000
00000001
00000000
,
00000100
00001000
01000000
01100000
,
10000000
00010000
00000000
00100000
01000000
00000000
10000000
00000000
,
00100000
00010000
00001000
00000000
,
00011000
00000000
00010000
00000000
,
00000100
00000000
00001000
00000100
,
00000010
00000000
00000011
00000000
,
00000100
00000000
00001000
00000000
,
00001100
00000000
00000100
00000000
,
00010000
00000000
00001000
00000000
,
01001000
00000000
00010000
00000000
,
00010010
00000000
00001000
00000000
,
00011000
00000000
00010000
00000000
,
00001000
00000000
00100000
01000000
,
10000000
00000000
00100000
00000000
,
10100000
00000000
10000000
01000000
,
00100000
00000000
01000000
00010000
,
00001000
00000000
00010000
00001000
,
00000010
00000100
00000010
00000001
,
00000100
00001000
00022000
00000000
,
00000000
00000000
00000000
00000000
,
00000000
00033000
00011000
00010000
,
01000000
00000000
10000000
00100000
10000000
00000000
01000000
00000000
,
00010000
00001000
00010000
00000000
00011000
00000000
00001000
00000000
,
00010000
00001000
00010000
00000000
00001000
00000000
00000100
00000000
,
00000001
00000010
00000100
00000000
00001100
00000000
00000011
00000000
,
00000001
00000000
00000100
00000010
00000100
00000000
00001000
00000000
,
00010000
00001000
00010000
00000000
00011000
00000000
00001000
00000000
,
00010000
00001000
00010000
00000000
01000000
00000000
10000000
00000000
,
00100000
01000000
00100000
00000000
01100000
00000000
10000000
00000000
,
01000000
00000000
00100000
00001000
,
00010000
00000000
00000010
00010000
,
00001000
00000000
00000100
00000001
,
00000010
00000000
00000110
00000001
,
00000100
00000000
00001000
00010000
,
01000000
00000000
00010000
00001000
,
00000100
00000000
00001000
00010000
,
01000000
10000000
00200000
00000000
,
02300000
00000000
00000000
00000000
03010000
00100000
00001000
00010000
,
00000100
00001000
00000020
00000000
00000130
00000000
00000000
00000000
,
00000010
00000000
00000100
00000001
,
00000010
00000000
00000100
00000000
,
00000010
00000000
00000100
00001000
,
00000010
00000000
00010000
00001000
,
00000100
00000000
00001000
00010000
,
01000000
00000000
20020000
00000000
,
30030000
00000000
10000000
00010000
,
10000000
00010000
10000000
00000000
,
01000000
00000000
01100000
00000000
,
00100000
00000000
00001000
00000000
,
00010000
00000000
00011000
00000000
,
00001000
00000000
00010000
00001000
,
00000100
00000000
00001000
00010000
,
01000000
00000000
00010000
00001000
,
00000100
00000001
00001000
00000000
,
00000001
00000000
00001001
00000000
,
00000100
00000000
00000010
00000000
,
00001000
00000000
00010000
00000000
,
01000000
00000000
00100000
00000000
,
00010000
10000000
00010000
00000000
,
01000000
00000000
00100000
00000000
,
00010000
00000000
00001000
00000000
,
00000100
00000000
00000010
00000100
,
00000001
00000100
00000010
00000000
,
00001000
00000100
00000000
00000010
,
00000001
00000000
00000100
00001000
,
00010000
00000000
01000000
00010000
,
00001000
00000000
00000010
00001000
,
00010000
00000000
00100000
00010000
,
00001000
00000000
00010000
00001000
,
00010000
00001000
00100000
01000000
,
00200000
00000000
01300000
00000000
,
00100000
00000000
01000000
10000000
,
00100000
00000000
01000000
00000000
,
00100000
00000000
01000000
00010000
,
00100000
00000000
00001000
00010000
,
01000000
00000000
00010000
00001000
,
00000100
00000000
00002002
00000000
,
00003003
00000000
00000001
00001000
,
00000001
00001000
00000001
00000000
,
00000100
00000000
00000110
00000000
,
00000010
00000000
00010000
00000000
,
00001000
00000000
00011000
00000000
,
00010000
00000000
00001000
00010000
,
01000000
00000000
00010000
00001000
,
00000100
00000000
00001000
00010000
,
01000000
10000000
00010000
00000000
,
10000000
00000000
10010000
00000000
,
00010000
00000000
00100000
00000000
,
01000000
00000000
00010000
00001000
,
00000010
00000000
00000001
00000000
,
00000100
00000000
00001000
00010000
,
00100000
00000000
10000000
00000000
,
01000000
00000000
00010000
00001000
,
00000100
00000000
00000001
00000000
,
00000010
00000000
00000100
00000010
,
00000100
00000010
00000001
00000000
,
00000100
00000000
00001000
00010000
,
00001000
00010000
01000000
00000000
,
10000000
00000000
00100000
00010000
,
00001000
00000000
00010000
00001000
,
00000100
00000000
00000001
00000010
,
00000100
00010000
00001000
00100000
,
01000000
10000000
10010000
00000000
,
10000000
00000000
01000000
00000000
,
00100000
00000000
00010000
00000000
,
00001000
00000000
00000100
00000000
,
00000010
00000000
00000001
00000000
,
00000100
00000000
00001000
00000000
,
00010000
00000000
00100000
00000000
,
10000000
00000000
01000000
00000000
,
00010000
00000000
00022000
00000000
,
00033000
00000000
00000000
00000000
;

//---------------dance-double - ----------------
#NOTES:
     dance-double:
     :
     Medium:
     14:
     0.708508,1.236678,0.377183,0.441384,0.116365,618.000000,571.000000,47.000000,55.000000,0.000000,0.000000,0.708508,1.236678,0.377183,0.441384,0.116365,618.000000,571.000000,47.000000,55.000000,0.000000,0.000000:
00000000
00000000
00000000
00000000
,
00000000
00000000
00000000
00000000
,
00000000
00000000
00000000
00000000
,
00000000
00000000
00000000
00000000
,
00000000
00000000
00000000
00000000
,
00000000
00000000
00000000
00000000
,
00000000
00000000
00000000
00000000
,
00000000
00000000
00000000
00000000
,
00001000
00010000
00100000
01000000
00100000
00000000
10100000
00000000
,
00000000
10000000
01000000
00000000
00010000
00000000
00011000
00000000
,
00000000
00001000
00000100
00000000
00000001
00000000
00000011
00000000
,
00000000
00000010
00001000
00000000
00010000
00000000
00011000
00000000
,
00000000
00001000
00010000
00000000
00100000
00000000
10100000
00000000
,
00000000
10000000
01000000
00000000
00010000
00000000
00011000
00000000
,
00000000
00001000
00000010
00000000
00000001
00000000
00000101
00000000
,
00000000
00000100
00001000
00000000
00010000
00000000
00011000
00000000
,
00000000
00001000
00010000
00000000
00022000
00000000
00033000
00000000
,
00010000
00001000
00000100
00000010
00000100
00000000
00000101
00000000
,
00000001
00000010
00000000
00000100
00001100
00000000
00010100
00000000
,
01001000
00000000
01000000
00010000
00100000
00000000
01100000
00000000
,
01000000
10000000
00000000
10000000
00100000
00010000
00001000
00100000
,
00110000
01001000
00010100
00001010
,
00000010
00000100
00000000
00000100
00000001
00000010
00001000
00010000
,
00100000
10100000
01010000
10010000
,
10000000
01000000
00000000
01000000
00010000
00001000
00100000
01000000
,
00010000
00001000
00000010
00000001
00001001
00000000
00001000
00000000
,
00000200
00000000
00000310
00000001
,
00000010
00000100
00001000
00000100
,
00020000
00000000
00031000
00100000
,
00020000
00000000
01030000
00100000
,
10100000
00000000
10000000
02000000
,
00000000
03010000
00001000
00010000
,
01000000
00010000
00001000
00100000
,
00010000
00010000
10000000
00100000
,
02000000
00000000
03100000
10000000
,
00100000
01000000
00010000
01000000
,
00002000
00000000
00013000
00000010
,
00002000
00000000
00003100
00000100
,
00000010
00000001
00000100
00000100
,
00001000
00010000
00100000
00100000
,
10000000
01000000
00010000
00010000
,
00001000
00010000
00022000
00000000
,
00000000
00000000
00000000
00000000
,
00000000
00000000
00000000
00000000
00033000
00000000
00000000
00000000
00011000
00000000
00000000
00001000
00000000
00000000
00100000
00010000
,
01000000
00000000
00100000
00000000
10000000
00000000
01000000
00000000
01100000
00000000
00000000
00100000
00000000
00000000
00010000
00100000
,
00001000
00000000
00010000
00000000
00011000
00000000
00000000
00000000
00010100
00000000
00000000
00000100
00000000
00000000
00000010
00000001
,
00000100
00000000
00001000
00000000
00010000
00001000
00000100
00001000
00010000
00000000
00000000
00011000
00000000
00000000
00001000
00100000
,
01000000
00000000
10000000
00000000
00100000
00010000
00001000
00000000
00011000
00000000
00000000
00010000
00000000
00000000
00000010
00001000
,
00000100
00000000
00000010
00000000
00000001
00000000
00000100
00000000
00000110
00000000
00000000
00000010
00000000
00000000
00001000
00000010
,
00010000
00000000
00001000
00000000
00011000
00000000
00000000
00000000
01001000
00000000
00000000
01000000
00000000
00000000
00100000
10000000
,
01000000
00000000
00010000
00000000
00001000
00010000
01000000
00010000
00001000
00000000
00000000
00011000
00000000
00000000
00010000
00000010
,
00000100
00000001
00000010
00001000
00010000
01000000
10000000
01000000
,
00010000
02000000
00000000
13000000
00100000
00010000
00001000
00100000
,
01000000
00020000
00000000
00031000
00001000
00000100
00000001
00000100
,
00001000
00000200
00000000
00000301
00000010
00001000
00010000
00000010
,
00000100
00002000
00000000
00013000
00011000
00000000
00010000
00100000
,
10000000
02000000
00000000
03100000
00010000
01000000
00100000
00010000
,
00001000
00000200
00000000
00000310
00001000
00000100
00000010
00000001
,
00000100
00002000
00000000
00013000
00100000
10000000
01000000
00010000
,
00001000
00000010
00000001
00000100
00002000
00000000
00000000
00000000
,
00023000
00000000
00000000
00000000
00000000
00000000
00000000
00000000
00130000
10000000
01000000
00100000
00010000
01000000
00100000
00010000
,
00001000
00000000
00000100
00000000
00000010
00000000
00001000
00000000
00000100
00000000
00000000
00000100
00000000
00000000
00000010
00000000
00001001
00000000
00000000
00000000
00000000
00000000
00000000
00000000
00000001
00000000
00000000
00000000
00000000
00000000
00000000
00000000
,
00000100
00000010
00001000
00000100
,
00010000
00000000
00001000
00000000
00100000
00000000
00000000
00100000
,
01000000
00000000
00000000
01000000
10000000
00000000
00000000
10000000
,
00100000
00000000
00000000
00100000
01000000
00000000
00000000
00001000
,
00000000
00000000
00010000
00000000
00000010
00000000
00000000
00001000
,
00000000
00000100
00000220
00000000
,
00000000
00000330
00000010
00000001
,
00000100
00000000
00001000
00010000
00001000
00000000
00200000
00000000
,
00000000
00310000
02000000
00000000
,
03100000
00000000
10000000
00000000
11000000
00000000
00000000
01000000
,
00000000
00000000
00010000
00000000
00011000
00000000
00000000
00001000
,
00000000
00000000
00000010
00000001
00000010
00000000
00000100
00000000
,
00000010
00001000
00010000
00001000
,
00000010
00000000
00000100
00000010
00000100
00000000
00001000
00000000
,
00000100
00000010
00000001
00000100
,
00001000
00010000
00001000
00010000
00001000
00000000
00100000
00000000
,
00010000
01000000
00100000
10000000
,
01000000
00100000
00010000
01000000
,
00100000
00010000
00000010
00001000
,
00000100
00000010
00000001
00001000
,
00000100
00010000
01000000
10000000
,
00100000
00010000
00001000
00100000
,
01000000
00000000
10000000
00000000
00100000
00000000
00000000
00010000
,
00000000
00001000
00021000
00000000
,
00030010
00001000
00000100
00000010
,
00000001
00000000
00000100
00000000
00000110
00000000
00000000
00000010
,
00001000
00000000
00000000
00001000
00000100
00000000
00000000
00000100
,
00010000
00000000
00000000
00010000
00001000
00000000
00000000
01000000
,
00000000
00000000
00001000
00000000
00010000
00000000
00000000
00000010
,
00000000
00010000
00001000
00100000
,
01000000
00000000
10000000
00000000
00100000
00000000
01000000
00100000
,
01000000
00010000
10010000
10000000
,
01000000
00100000
00010000
01000000
,
00001000
00000000
00010000
00000000
00000010
00000000
00000000
00000010
,
00000100
00000000
00000000
00000100
00000001
00000000
00000000
00000001
,
00000010
00000000
00000000
00000010
00000100
00000000
00000000
00010000
,
00000000
00000000
00001000
00000000
00100000
00000000
00000000
00010000
,
00000000
01000000
02200000
00000000
,
00000000
03300000
00100000
10000000
,
01000000
00000000
00010000
00001000
00010000
00000000
00000020
00000000
,
00000000
00001030
00000200
00000000
,
00000310
00000000
00000001
00000000
00000101
00000000
00000000
00000100
,
00000000
00000000
00001000
00000000
00011000
00000000
00000000
00010000
,
00000000
00000000
00100000
10000000
00100000
00000000
01000000
00000000
,
00100000
00010000
00001000
00010000
,
00100000
00000000
01000000
00100000
01000000
00000000
00010000
00000000
,
01000000
00100000
10000000
01000000
,
00010000
00001000
00010000
00001000
00010000
00000000
00000010
00000000
,
00001000
00000100
00000010
00000001
,
00000100
00000010
00001000
00000100
,
00000010
00001000
00100000
00010000
,
01000000
00100000
10000000
00010000
,
01000000
00001000
00000100
00000001
,
00000010
00001000
00010000
00000010
,
00000100
00000000
00000001
00000000
00000010
00000000
00000000
00001000
,
00000000
00000000
00010000
00001000
00010000
00000000
01000000
00000000
,
10000000
01000000
00010000
01000000
,
00100000
00001000
00011000
00010000
,
00000100
00000010
00001000
00000010
,
00000001
00000000
00000010
00000000
00000100
00000010
00000100
00000000
,
00010000
00000000
00001000
00000000
00100000
01000000
00100000
00000000
,
00010000
00000000
10000000
00000000
01000000
00000000
00000000
00010000
,
00000000
00001000
00000010
00000001
,
00000100
00000000
00001000
00010000
00002000
00000000
00203000
00000000
,
02300000
23000000
30200000
00320000
,
00032000
00003200
00000302
00000023
,
00000230
00020300
00032000
00003200
,
00000302
00000023
00002030
00023000
,
00230000
20300000
32000000
03020000
,
00032000
00000000
00003020
00000000
00000031
00000100
00000010
00010000
,
00001000
01000000
00100000
10000000
01000000
00010000
00001000
00000010
,
00000001
00000100
00001000
00010000
00022000
00000000
00000000
00000000
,
00033000
00000000
00000000
00000000
;
