#VERSION:0.83;
#TITLE:golden hour (Fujii Kaze Remix);
#SUBTITLE:;
#ARTIST:JVKE;
#TITLETRANSLIT:;
#SUBTITLETRANSLIT:;
#ARTISTTRANSLIT:;
#GENRE:POP CHARTS;
#ORIGIN:;
#CREDIT:MUINELIM;
#BANNER:golden hour (Fujii Kaze Remix).png;
#BACKGROUND:golden hour (Fujii Kaze Remix)-bg.png;
#PREVIEWVID:;
#JACKET:golden hour (Fujii Kaze Remix)-jacket.png;
#CDIMAGE:;
#DISCIMAGE:;
#LYRICSPATH:;
#CDTITLE:;
#MUSIC:golden hour (Fujii Kaze Remix).ogg;
#OFFSET:0.040000;
#SAMPLESTART:46.008099;
#SAMPLELENGTH:15.238518;
#SELECTABLE:YES;
#DISPLAYBPM:85.000000:96.000000;
#BPMS:0.000=94.000,
42.000=96.000,
45.000=94.000,
48.000=95.000,
54.000=94.000,
66.000=96.000,
69.000=85.000,
72.000=94.000,
84.000=95.000,
96.000=94.000,
102.000=95.000,
114.000=96.000,
117.000=93.000,
120.000=94.000,
144.000=95.000,
168.000=94.000,
186.000=96.000,
189.000=92.000,
192.000=96.000,
198.000=94.000,
210.000=96.000,
216.000=94.000,
222.000=95.000,
228.000=94.000;
#STOPS:;
#DELAYS:;
#WARPS:;
#TIMESIGNATURES:0.000=4=4;
#TICKCOUNTS:0.000=4;
#COMBOS:0.000=1;
#SPEEDS:0.000=1.000=0.000=0;
#SCROLLS:0.000=1.000;
#FAKES:;
#LABELS:0.000=Song Start;
#BGCHANGES:0.000=golden hour (Fujii Kaze Remix).avi=1.000=1=0=0=StretchNoLoop==CrossFade==,
99999=-nosongbg-=1.000=0=0=0 // don't automatically add -songbackground-
;
#KEYSOUNDS:;
#ATTACKS:
;

//---------------dance-single - ----------------
#NOTEDATA:;
#CHARTNAME:;
#STEPSTYPE:dance-single;
#DESCRIPTION:;
#CHARTSTYLE:;
#DIFFICULTY:Beginner;
#METER:2;
#RADARVALUES:0.062558,0.078431,0.013072,0.000000,0.000000,67.000000,65.000000,2.000000,0.000000,0.000000,0.000000,0.000000,0.000000,0.000000,0.062558,0.078431,0.013072,0.000000,0.000000,67.000000,65.000000,2.000000,0.000000,0.000000,0.000000,0.000000,0.000000,0.000000;
#CREDIT:;
#DISPLAYBPM:94.000000;
#NOTES:
0000
0000
0000
0000
,
0000
0000
0000
0000
,
0000
0000
0000
0000
,
0000
0000
0000
0000
,
0000
0000
0000
0000
,
0000
0000
0000
0000
,
1000
0000
0000
1000
,
0000
0000
1000
0000
,
0000
1000
0000
0000
,
0001
0000
0000
0001
,
0000
0000
0001
0000
,
0000
0001
0000
0000
,
0100
0000
0000
0100
,
0000
0000
0100
0000
,
0000
0100
0000
0000
,
0010
0000
0000
0010
,
0000
0000
0010
0000
,
0000
0010
0000
0000
,
1001
0000
0000
0000
,
0000
0000
1000
0000
,
0000
1000
0000
0000
,
1000
0000
0000
0000
,
0000
0000
0001
0000
,
0000
0001
0000
0000
,
0001
0000
0000
0000
,
0000
0000
0100
0000
,
0000
0100
0000
0000
,
0100
0000
0000
0000
,
0000
0000
0010
0000
,
0000
0010
0000
0000
,
0010
0000
0000
1000
,
0000
0000
0010
0000
,
0000
1000
0000
0000
,
0001
0000
0000
0100
,
0000
0000
0001
0000
,
0000
0100
0000
0000
,
0001
0000
0000
0010
,
0000
0000
0001
0000
,
0000
0010
0000
0000
,
0100
0000
0000
1000
,
0000
0000
0100
0000
,
0000
1000
0000
0000
,
0001
0000
0000
0001
,
0000
0000
1000
0000
,
0000
1000
0000
0000
,
0010
0000
0000
0010
,
0000
0000
0100
0000
,
0000
0100
0000
0000
,
1001
0000
0000
0000
,
0000
0000
0010
0000
,
0000
0010
0000
0000
,
0010
0000
0000
0000
,
0000
0000
0100
0000
,
0000
0100
0000
0000
,
0100
0000
0000
0000
,
0000
0000
0001
0000
,
0000
0001
0000
0000
,
0001
0000
0000
0000
,
0000
0000
1000
0000
,
0000
1000
0000
0000
,
1000
0000
0000
0000
;

//---------------dance-single - ----------------
#NOTEDATA:;
#CHARTNAME:;
#STEPSTYPE:dance-single;
#DESCRIPTION:;
#CHARTSTYLE:;
#DIFFICULTY:Easy;
#METER:4;
#RADARVALUES:0.109243,0.136968,0.045751,0.078431,0.000000,117.000000,110.000000,7.000000,12.000000,0.000000,0.000000,0.000000,0.000000,0.000000,0.109243,0.136968,0.045751,0.078431,0.000000,117.000000,110.000000,7.000000,12.000000,0.000000,0.000000,0.000000,0.000000,0.000000;
#CREDIT:;
#DISPLAYBPM:85.000000:96.000000;
#NOTES:
0000
0000
0000
0000
,
0000
0000
0000
0000
,
0000
0000
0000
0000
,
0000
0000
0000
0000
,
0000
0000
0000
0000
,
0000
0000
0000
0000
,
1000
0000
0000
1000
0000
0000
0001
0000
,
0000
0001
0000
0000
1000
0000
0000
1000
,
0000
0000
0001
0000
0000
0001
0000
0000
,
0100
0000
0000
0100
0000
0000
0010
0000
,
0000
0010
0000
0000
0100
0000
0000
0100
,
0000
0000
0010
0000
0000
0010
0000
0000
,
1000
0000
0000
0100
,
0000
0000
0010
0000
,
0000
0001
0000
0000
,
0100
0000
0000
0010
,
0000
0000
0000
0000
0100
0000
0000
0100
,
0000
0000
0100
0000
0000
0100
0000
0000
,
0200
0000
0000
0000
,
0000
0000
0300
0000
0001
0000
0000
1000
,
0000
0000
0010
0000
0000
0100
0000
0000
,
0020
0000
0000
0000
,
0000
0000
0000
0000
0030
0000
0000
1000
,
0000
0000
0001
0000
0000
0100
0000
0000
,
0020
0000
0000
0000
,
0000
0000
0030
0000
1000
0000
0000
0001
,
0000
0000
1000
0000
0000
0010
0000
0000
,
0200
0000
0000
0000
,
0000
0000
0300
0000
0010
0000
0000
0100
,
0000
0000
0010
0000
0000
0100
0000
0000
,
0001
0000
0000
0001
0000
0000
1000
0000
,
0000
1000
0000
0000
0100
0000
0000
0100
,
0000
0000
0010
0000
0000
0010
0000
0000
,
0001
0000
0000
1000
0000
0000
0001
0000
,
0000
1000
0000
0000
0100
0000
0000
0010
,
0000
0000
0100
0000
0000
0010
0000
0000
,
0001
0000
0000
0001
0000
0000
0100
0000
,
0000
0100
0000
0000
0010
0000
0000
0010
,
0000
0000
1000
0000
0000
1000
0000
0000
,
0100
0000
0000
0100
0000
0000
0010
0000
,
0000
0010
0000
0000
0001
0000
0000
0001
,
0000
0000
1000
0000
0000
1000
0000
0000
,
1001
0000
0000
0110
,
0000
0000
0000
0000
1000
0000
0000
0001
,
0000
0000
1000
0000
0000
0001
0000
0000
,
1001
0000
0000
0000
,
0000
0100
0000
0000
0010
0000
0000
0100
,
0000
0000
0010
0000
0000
0100
0000
0000
,
0220
0000
0000
0000
,
0000
0000
0330
0000
0010
0000
0000
0100
,
0000
0000
0001
0000
0000
1000
0000
0000
,
2002
0000
0000
0000
,
0000
0000
0000
0000
3003
0000
0000
0001
,
0000
0000
0100
0000
0000
0010
0000
0000
,
0220
0000
0000
0000
,
0000
0000
0330
0000
0100
0000
0000
0010
,
0000
0000
1000
0000
0000
0001
0000
0000
,
2002
0000
0000
0000
,
0000
0000
3003
0000
1000
0000
0000
0001
,
0000
0000
0100
0000
0000
0010
0010
0010
;

//---------------dance-single - ----------------
#NOTEDATA:;
#CHARTNAME:;
#STEPSTYPE:dance-single;
#DESCRIPTION:;
#CHARTSTYLE:;
#DIFFICULTY:Medium;
#METER:7;
#RADARVALUES:0.212884,0.234802,0.300652,0.104574,0.000000,228.000000,182.000000,46.000000,16.000000,0.000000,0.000000,0.000000,0.000000,0.000000,0.212884,0.234802,0.300652,0.104574,0.000000,228.000000,182.000000,46.000000,16.000000,0.000000,0.000000,0.000000,0.000000,0.000000;
#CREDIT:;
#DISPLAYBPM:85.000000:96.000000;
#NOTES:
0000
0000
0000
0000
,
0000
0000
0000
0000
,
0000
0000
0000
0000
,
0000
0000
0000
0000
,
0000
0000
0000
0000
,
0000
0000
0000
0000
,
1000
0000
0001
1000
0000
0000
0001
0000
,
1000
0001
0000
0100
0010
0000
1000
0001
,
0000
0000
1000
0000
0001
1000
0000
0010
,
0100
0000
0001
1000
0000
0000
0010
0000
,
0100
0010
0000
0000
0100
0000
0010
0100
,
0000
0001
1000
0000
0010
0100
0000
0001
,
1000
0000
0000
0000
0001
1000
0001
0000
,
0000
0000
0100
0010
0100
0000
0010
1000
,
0000
0001
0100
0000
0010
1000
0000
0001
,
0100
0000
0000
0000
,
0010
0100
0010
0100
0010
0000
0000
1000
,
0000
0000
0001
0000
0000
1000
0000
0000
,
2002
0000
0000
0000
,
0000
0000
3003
0000
1001
0000
0000
1010
,
0000
0000
0101
0000
0000
1001
0000
0000
,
0220
0000
0000
0000
,
0330
0000
0010
0100
0010
0000
0000
0110
,
0000
0000
0101
0000
0000
1010
0000
0000
,
2002
0000
0000
0000
,
0000
0000
3003
0000
1001
0000
0000
0011
,
0000
0000
1100
0000
0000
1001
0000
0000
,
0220
0000
0000
0000
,
0330
0000
0100
0010
0100
0000
0001
0010
,
0000
0100
1000
0000
0001
0100
0000
0010
,
1000
0000
0100
1000
0000
0000
0001
0000
,
0010
0001
0000
0000
1000
0000
0010
1000
,
0000
0000
0001
0000
0100
0001
0000
0000
,
1000
0100
1000
0001
0000
0000
0001
0100
,
0001
1000
0000
0000
1000
0010
1000
0001
,
0000
0000
0001
0010
0001
1000
0000
0000
,
1100
0000
0000
0110
0000
0000
0011
0000
,
0001
0100
0000
0000
0101
0000
0000
0110
,
0000
0000
1010
0000
1000
0100
0000
0000
,
1100
0000
0000
0101
0000
0000
0011
0000
,
0010
1000
0000
0000
1010
0000
0000
0011
,
0000
0000
0101
0000
0000
0100
1000
0100
,
1000
0000
0000
0000
0001
0010
0001
0000
,
0000
0000
1000
0010
1000
0000
0001
0100
,
0000
0010
1000
0000
0100
0010
0000
0001
,
1000
0000
0000
1001
0000
0000
0001
0000
,
1000
0010
0000
0100
0001
0000
0000
0011
,
0000
0000
1010
0000
0000
1100
0000
0000
,
0202
0000
0000
0000
,
0000
0000
0303
0000
0011
0000
0000
1100
,
0000
0000
0101
0000
0000
1010
0000
0000
,
0220
0000
0000
0000
,
0330
0000
0100
0010
1000
0000
0000
1100
,
0000
0000
0101
0000
0000
0011
0000
0000
,
2020
0000
0000
0000
,
0000
0000
3030
0000
1100
0000
0000
0011
,
0000
0000
1010
0000
0000
0101
0000
0000
,
2002
0000
0000
0000
,
3003
0000
0001
1000
0010
0000
0001
0100
,
0000
1000
0010
0100
0010
0100
0001
0001
;

//---------------dance-single - ----------------
#NOTEDATA:;
#CHARTNAME:;
#STEPSTYPE:dance-single;
#DESCRIPTION:;
#CHARTSTYLE:;
#DIFFICULTY:Hard;
#METER:10;
#RADARVALUES:0.299718,0.489682,0.196077,0.490193,0.078431,321.000000,291.000000,30.000000,75.000000,0.000000,0.000000,0.000000,0.000000,0.000000,0.299718,0.489682,0.196077,0.490193,0.078431,321.000000,291.000000,30.000000,75.000000,0.000000,0.000000,0.000000,0.000000,0.000000;
#CREDIT:;
#DISPLAYBPM:85.000000:96.000000;
#NOTES:
// measure 0
0000
0000
0000
0000
,  // measure 1
0000
0000
0000
0000
,  // measure 2
0000
0000
0000
0000
,  // measure 3
0000
0000
0000
0000
,  // measure 4
0000
0000
0000
0000
,  // measure 5
0000
0000
0000
0000
,  // measure 6
1000
0010
0100
0110
0000
0000
0010
0100
,  // measure 7
0001
0001
0100
1000
1000
0100
0010
0110
,  // measure 8
0000
0000
0100
0010
1000
1000
0010
0001
,  // measure 9
0001
0010
0100
0110
0000
0000
0010
0100
,  // measure 10
0001
1001
0000
0000
1000
0010
0001
0001
,  // measure 11
0010
0100
0100
0010
1000
1000
0001
0100
,  // measure 12
0120
0000
0000
0000
0000
0000
1030
0000
0100
0000
0010
0001
0020
0000
0000
0000
,  // measure 13
0000
0031
0100
0010
1010
1000
0100
0011
,  // measure 14
0001
0010
1100
1000
0010
0101
0001
1000
,  // measure 15
1020
0000
0000
0230
0000
0001
0302
0000
,  // measure 16
1000
1003
0100
0010
0011
0001
0100
1010
,  // measure 17
1000
0010
0101
0001
0010
1100
0000
0000
,  // measure 18
1002
0000
0000
0203
0000
0000
0320
0000
,  // measure 19
0000
2030
0000
0000
3200
0000
0000
0302
,  // measure 20
0000
0000
2003
0000
0000
3020
0000
0000
,  // measure 21
0032
0000
0000
0203
0000
0000
0320
0000
,  // measure 22
0000
0000
1030
0000
0001
0000
0100
0010
0100
0000
0000
0000
0000
0000
2001
0000
,  // measure 23
0000
0000
3200
0000
0000
0320
0000
0000
,  // measure 24
0032
0000
0000
0203
0000
0000
2300
0000
,  // measure 25
0000
3002
0000
0000
0023
0000
0000
2030
,  // measure 26
0000
0000
3200
0000
0000
0320
0000
0000
,  // measure 27
0032
0000
0000
0203
0000
0000
0320
0000
,  // measure 28
0000
0000
1030
0000
0001
0000
0010
0100
0010
0000
0000
0000
0100
0010
0100
0000
,  // measure 29
0000
0000
0010
0100
0020
0000
0001
0000
0001
0000
0230
0000
1000
0000
1300
0000
,  // measure 30
1000
0010
0001
0010
1010
0000
0001
0100
,  // measure 31
1000
0100
0101
0000
1000
0100
0001
0100
,  // measure 32
1100
0000
0001
0010
1000
0010
0011
0000
,  // measure 33
0001
0000
1000
0000
0001
0000
0110
0000
1000
0000
0001
0000
0100
0010
0100
0000
,  // measure 34
0010
0000
1001
0000
1000
0000
0001
0000
0100
0010
0100
0010
1000
0000
0010
0100
,  // measure 35
0010
0100
0001
0000
0100
0010
1000
0001
0100
0000
0010
0000
1000
0000
0001
0000
,  // measure 36
2001
0000
0010
3020
0000
0000
0032
0000
,  // measure 37
0010
0023
0000
0000
2030
0000
0100
3200
,  // measure 38
0000
0000
0302
0000
0100
0203
0000
0000
,  // measure 39
2300
0000
0010
3020
0000
0000
0032
0000
,  // measure 40
1000
2003
0000
0000
3200
0000
0001
0302
,  // measure 41
0000
0000
0000
0000
0013
0000
0010
0100
1000
0000
0001
0000
0010
0000
0100
0000
,  // measure 42
2100
0000
0000
0000
0000
0000
0000
0000
3010
0000
0010
0100
0002
0000
0000
0000
,  // measure 43
0000
0000
1003
0100
0001
1000
0010
0002
,  // measure 44
0000
0103
0100
0001
0010
1000
0001
0100
,  // measure 45
2000
0000
0000
0001
0000
0000
0001
0000
,  // measure 46
3001
0100
0010
1000
1100
0100
0001
0011
,  // measure 47
0010
1000
1010
0010
0001
0101
0000
0000
,  // measure 48
2100
0000
0000
3020
0000
0000
0032
0000
,  // measure 49
0000
2003
0000
0000
3200
0000
0000
0302
,  // measure 50
0000
0000
0023
0000
0000
2030
0000
0000
,  // measure 51
3002
0000
0000
0203
0000
0000
2300
0000
,  // measure 52
0000
0000
3010
0000
0100
0000
0001
1000
0010
0000
0000
0000
0000
0000
0210
0000
,  // measure 53
0000
0000
0302
0000
0000
2003
0000
0000
,  // measure 54
3020
0000
0000
0032
0000
0000
2003
0000
,  // measure 55
0000
3200
0000
0000
0302
0000
0000
0023
,  // measure 56
0000
0000
2030
0000
0000
3002
0000
0000
,  // measure 57
0203
0000
0000
2300
0000
0000
3020
0000
,  // measure 58
0000
0000
0130
0000
0001
0000
1000
0010
0100
0000
0000
0000
0001
0100
0010
0000
,  // measure 59
0000
0000
1000
0100
1000
0100
0010
0001
0010
0001
0100
0010
0100
0010
0100
0100
;

//---------------dance-double - ----------------
#NOTEDATA:;
#CHARTNAME:;
#STEPSTYPE:dance-double;
#DESCRIPTION:;
#CHARTSTYLE:;
#DIFFICULTY:Hard;
#METER:12;
#RADARVALUES:0.294116,0.489682,0.163398,0.490193,0.075163,315.000000,290.000000,25.000000,75.000000,0.000000,0.000000,0.000000,0.000000,0.000000,0.294116,0.489682,0.163398,0.490193,0.075163,315.000000,290.000000,25.000000,75.000000,0.000000,0.000000,0.000000,0.000000,0.000000;
#CREDIT:;
#DISPLAYBPM:85.000000:96.000000;
#NOTES:
00000000
00000000
00000000
00000000
,
00000000
00000000
00000000
00000000
,
00000000
00000000
00000000
00000000
,
00000000
00000000
00000000
00000000
,
00000000
00000000
00000000
00000000
,
00000000
00000000
00000000
00000000
,
00001000
00010000
01000000
10000000
00000000
00000000
00100000
00010000
,
00001000
00000010
00001000
00010000
00100000
00010000
00001000
00001000
,
00000000
00000000
00000100
00001000
00010000
01000000
00010000
00001000
,
00000100
00001000
00010000
00010000
00000000
00000000
00001000
00000010
,
00000001
00001000
00000000
00000000
00010000
10000000
01000000
00010000
,
00001000
00000100
00001000
00010000
00100000
00010000
00001000
00000010
,
00000012
00000000
00000000
00000000
00000000
00000000
00001003
00000000
00000100
00000000
00010000
00001000
00020000
00000000
00000000
00000000
,
00000000
01030000
10000000
00100000
01100000
01000000
00001000
00011000
,
00010000
00000010
00000110
00000100
00000001
00001001
00001000
00000010
,
00020000
00000000
00000000
00032000
00000000
00100000
00203000
00000000
,
01000000
01300000
10000000
00010000
00110000
00100000
01000000
00011000
,
00000100
00000010
00001010
00001000
00010000
00011000
00000000
00000000
,
00010200
00000000
00000000
00000320
00000000
00000000
00000032
00000000
,
00000000
00000203
00000000
00000000
00002300
00000000
00000000
00023000
,
00000000
00000000
00230000
00000000
00000000
20300000
00000000
00000000
,
32000000
00000000
00000000
03200000
00000000
00000000
00320000
00000000
,
00000000
00000000
01030000
00000000
00001000
00000000
00010000
00001000
00010000
00000000
00000000
00000000
00000000
00000000
02001000
00000000
,
00000000
00000000
03200000
00000000
00000000
20300000
00000000
00000000
,
32000000
00000000
00000000
03020000
00000000
00000000
00032000
00000000
,
00000000
00003020
00000000
00000000
00000032
00000000
00000000
00000203
,
00000000
00000000
00002300
00000000
00000000
00023000
00000000
00000000
,
00230000
00000000
00000000
20300000
00000000
00000000
32000000
00000000
,
00000000
00000000
03100000
00000000
00001000
00000000
00010000
00000100
00010000
00000000
00000000
00000000
00001000
00100000
00001000
00000000
,
00000000
00000000
00010000
00001000
00020000
00000000
00000010
00000000
00030010
00000000
00002000
00000000
01000000
00000000
01003000
00000000
,
00001000
00010000
00100000
10000000
01010000
00000000
00010000
00001000
,
00000100
00000001
00001010
00000000
00001000
00010000
01000000
10000000
,
00110000
00000000
00010000
00001000
00000010
00000001
00001100
00000000
,
00001000
00000000
00010000
00000000
00001000
00000000
00011000
00000000
00010000
00000000
00001000
00000000
00010000
00000010
00010000
00000000
,
00001000
00000000
00011000
00000000
00010000
00000000
00001000
00000000
01000000
00010000
01000000
00010000
00100000
00000000
00001000
00010000
,
00001000
00010000
00000010
00000000
00001000
00000100
00001000
00000100
00000010
00000000
00000001
00000000
00000100
00000000
00001000
00000000
,
00021000
00000000
00100000
00230000
00000000
00000000
00302000
00000000
,
00000010
00003020
00000000
00000000
00020030
00000000
01000000
02030000
,
00000000
00000000
03002000
00000000
00000100
00003200
00000000
00000000
,
00000302
00000000
00001000
00002003
00000000
00000000
00023000
00000000
,
10000000
20030000
00000000
00000000
30200000
00000000
00001000
00302000
,
00000000
00000000
00013000
00001000
00000100
00000001
00000010
00000100
,
00000120
00000000
00000000
00000000
00000000
00000000
00000000
00000000
00001030
00000000
00001000
00010000
00200000
00000000
00000000
00000000
,
00000000
00000000
10300000
01000000
00100000
00010000
00001000
00000020
,
00000000
00000130
00000100
00000001
00000010
00000100
00001000
00010000
,
02000000
00000000
00000000
10000000
00000000
00000000
00100000
00000000
,
03010000
00100000
01000000
00010000
00011000
00001000
00000010
00000101
,
00000100
00001000
00011000
00010000
00100000
11000000
00000000
00000000
,
10020000
00000000
00000000
00230000
00000000
00000000
00302000
00000000
,
00000000
00003020
00000000
00000000
00000032
00000000
00000000
00000203
,
00000000
00000000
00020300
00000000
00000000
02030000
00000000
00000000
,
03002000
00000000
00000000
00003020
00000000
00000000
00020030
00000000
,
00000000
00000000
00130000
00000000
01000000
00000000
10000000
00100000
00010000
00000000
00000000
00000000
00000000
00000000
00012000
00000000
,
00000000
00000000
00003200
00000000
00000000
00000302
00000000
00000000
,
00002003
00000000
00000000
00003020
00000000
00000000
00020030
00000000
,
00000000
00230000
00000000
00000000
20300000
00000000
00000000
32000000
,
00000000
00000000
03002000
00000000
00000000
00003200
00000000
00000000
,
00020300
00000000
00000000
00230000
00000000
00000000
00302000
00000000
,
00000000
00000000
00003010
00000000
00000100
00000000
00000001
00000010
00001000
00000000
00000000
00000000
00010000
01000000
10000000
00000000
,
00000000
00000000
00100000
01000000
00100000
01000000
00001000
00010000
00001000
00010000
00000100
00000010
00000100
00000010
00000100
00000100
;

//---------------dance-double - ----------------
#NOTEDATA:;
#CHARTNAME:;
#STEPSTYPE:dance-double;
#DESCRIPTION:;
#CHARTSTYLE:;
#DIFFICULTY:Easy;
#METER:4;
#RADARVALUES:0.105508,0.136968,0.019608,0.052287,0.000000,113.000000,110.000000,3.000000,8.000000,0.000000,0.000000,0.000000,0.000000,0.000000,0.105508,0.136968,0.019608,0.052287,0.000000,113.000000,110.000000,3.000000,8.000000,0.000000,0.000000,0.000000,0.000000,0.000000;
#CREDIT:;
#DISPLAYBPM:85.000000:96.000000;
#NOTES:
00000000
00000000
00000000
00000000
,
00000000
00000000
00000000
00000000
,
00000000
00000000
00000000
00000000
,
00000000
00000000
00000000
00000000
,
00000000
00000000
00000000
00000000
,
00000000
00000000
00000000
00000000
,
00001000
00000000
00000000
00001000
00000000
00000000
01000000
00000000
,
00000000
01000000
00000000
00000000
00001000
00000000
00000000
00001000
,
00000000
00000000
00010000
00000000
00000000
00010000
00000000
00000000
,
00000010
00000000
00000000
00000010
00000000
00000000
00010000
00000000
,
00000000
00010000
00000000
00000000
00001000
00000000
00000000
00001000
,
00000000
00000000
00100000
00000000
00000000
00100000
00000000
00000000
,
01000000
00000000
00000000
10000000
,
00000000
00000000
00100000
00000000
,
00000000
00010000
00000000
00000000
,
00001000
00000000
00000000
00000100
,
00000000
00000000
00000000
00000000
00000001
00000000
00000000
00000001
,
00000000
00000000
00000001
00000000
00000000
00000001
00000000
00000000
,
00000002
00000000
00000000
00000000
,
00000000
00000000
00000003
00000000
00000010
00000000
00000000
00000100
,
00000000
00000000
00010000
00000000
00000000
00001000
00000000
00000000
,
02000000
00000000
00000000
00000000
,
00000000
00000000
00000000
00000000
03000000
00000000
00000000
00100000
,
00000000
00000000
10000000
00000000
00000000
00010000
00000000
00000000
,
20000000
00000000
00000000
00000000
,
00000000
00000000
30000000
00000000
01000000
00000000
00000000
00100000
,
00000000
00000000
00001000
00000000
00000000
00010000
00000000
00000000
,
00000020
00000000
00000000
00000000
,
00000000
00000000
00000030
00000000
00000100
00000000
00000000
00000100
,
00000000
00000000
00000100
00000000
00000000
00000100
00000000
00000000
,
00000001
00000000
00000000
00000010
00000000
00000000
00000001
00000000
,
00000000
00000010
00000000
00000000
00000100
00000000
00000000
00010000
,
00000000
00000000
00000100
00000000
00000000
00010000
00000000
00000000
,
00001000
00000000
00000000
00100000
00000000
00000000
00001000
00000000
,
00000000
00100000
00000000
00000000
01000000
00000000
00000000
10000000
,
00000000
00000000
01000000
00000000
00000000
10000000
00000000
00000000
,
00100000
00000000
00000000
01000000
00000000
00000000
00100000
00000000
,
00000000
01000000
00000000
00000000
00001000
00000000
00000000
00010000
,
00000000
00000000
00001000
00000000
00000000
00010000
00000000
00000000
,
00000010
00000000
00000000
00000100
00000000
00000000
00000010
00000000
,
00000000
00000100
00000000
00000000
00000001
00000000
00000000
00001000
,
00000000
00000000
00000001
00000000
00000000
00001000
00000000
00000000
,
00001001
00000000
00000000
00000110
,
00000000
00000000
00000000
00000000
00000010
00000000
00000000
00010000
,
00000000
00000000
00001000
00000000
00000000
01000000
00000000
00000000
,
01100000
00000000
00000000
00000000
,
00000000
00100000
00000000
00000000
10000000
00000000
00000000
01000000
,
00000000
00000000
00100000
00000000
00000000
00010000
00000000
00000000
,
20000000
00000000
00000000
00000000
,
00000000
00000000
30000000
00000000
01000000
00000000
00000000
00010000
,
00000000
00000000
00001000
00000000
00000000
00000010
00000000
00000000
,
00000200
00000000
00000000
00000000
,
00000000
00000000
00000000
00000000
00000300
00000000
00000000
00001000
,
00000000
00000000
00000010
00000000
00000000
00000100
00000000
00000000
,
00000002
00000000
00000000
00000000
,
00000000
00000000
00000003
00000000
00000010
00000000
00000000
00001000
,
00000000
00000000
00010000
00000000
00000000
01000000
00000000
00000000
,
00200000
00000000
00000000
00000000
,
00000000
00000000
00300000
00000000
10000000
00000000
00000000
01000000
,
00000000
00000000
00010000
00000000
00000000
00001000
00001000
00001000
;

//---------------dance-double - ----------------
#NOTEDATA:;
#CHARTNAME:;
#STEPSTYPE:dance-double;
#DESCRIPTION:;
#CHARTSTYLE:;
#DIFFICULTY:Medium;
#METER:7;
#RADARVALUES:0.191409,0.234802,0.176469,0.104574,0.000000,205.000000,178.000000,27.000000,16.000000,0.000000,0.000000,0.000000,0.000000,0.000000,0.191409,0.234802,0.176469,0.104574,0.000000,205.000000,178.000000,27.000000,16.000000,0.000000,0.000000,0.000000,0.000000,0.000000;
#CREDIT:;
#DISPLAYBPM:85.000000:96.000000;
#NOTES:
00000000
00000000
00000000
00000000
,
00000000
00000000
00000000
00000000
,
00000000
00000000
00000000
00000000
,
00000000
00000000
00000000
00000000
,
00000000
00000000
00000000
00000000
,
00000000
00000000
00000000
00000000
,
00001000
00000000
00010000
00000100
00000000
00000000
00010000
00000000
,
00001000
00100000
00000000
00001000
00010000
00000000
00000010
00010000
,
00000000
00000000
00001000
00000000
00010000
00000100
00000000
00010000
,
00001000
00000000
01000000
00001000
00000000
00000000
00010000
00000000
,
00000010
00010000
00000000
00000000
00001000
00000000
00010000
00000100
,
00000000
00010000
00001000
00000000
00100000
00001000
00000000
00010000
,
00001000
00000000
00000000
00000000
00010000
00000010
00010000
00000000
,
00000000
00000000
00001000
01000000
00001000
00000000
00010000
00000010
,
00000000
00001000
00000100
00000000
00010000
00001000
00000000
00100000
,
00010000
00000000
00000000
00000000
,
01000000
00100000
01000000
00100000
01000000
00000000
00000000
00001000
,
00000000
00000000
00010000
00000000
00000000
00000010
00000000
00000000
,
00000220
00000000
00000000
00000000
,
00000000
00000000
00000330
00000000
00000001
00000000
00000000
00000100
,
00000000
00000000
00001000
00000000
00000000
00010000
00000000
00000000
,
00022000
00000000
00000000
00000000
,
00033000
00000000
00001000
00010000
00001000
00000000
00000000
00010000
,
00000000
00000000
01000000
00000000
00000000
00100000
00000000
00000000
,
02200000
00000000
00000000
00000000
,
00000000
00000000
03300000
00000000
10000000
00000000
00000000
00100000
,
00000000
00000000
00010000
00000000
00000000
00001000
00000000
00000000
,
00022000
00000000
00000000
00000000
,
00033000
00000000
00010000
00001000
00010000
00000000
00000100
00001000
,
00000000
00000010
00010000
00000000
00001000
01000000
00000000
00010000
,
00100000
00000000
01000000
10000000
00000000
00000000
01000000
00000000
,
00100000
00010000
00000000
00000000
00100000
00000000
00001000
00010000
,
00000000
00000000
00000010
00000000
00010000
00001000
00000000
00000000
,
01000000
00000000
00001000
00010000
00000000
00000000
00000100
00000000
,
00010000
00001000
00000000
00000000
00000100
00000000
00000001
00000010
,
00000000
00000000
00000100
00000000
00001000
00000010
00000000
00000000
,
00000110
00000000
00000000
00000101
00000000
00000000
00001010
00000000
,
00001000
00000100
00000000
00000000
00010100
00000000
00000000
00011000
,
00000000
00000000
00101000
00000000
00100000
00010000
00000000
00000000
,
01010000
00000000
00000000
10100000
00000000
00000000
10010000
00000000
,
00010000
01000000
00000000
00000000
01100000
00000000
00000000
00011000
,
00000000
00000000
00000110
00000000
00000000
00000010
00000100
00000001
,
00000100
00000000
00000000
00000000
00000010
00001000
00000010
00000000
,
00000000
00000000
00010000
00001000
00010000
00000000
00100000
10000000
,
00000000
01000000
00010000
00000000
00001000
00000100
00000000
00000001
,
00000010
00000000
00000000
00000110
00000000
00000000
00000100
00000000
,
00010000
00001000
00000000
00100000
01000000
00000000
00000000
11000000
,
00000000
00000000
10100000
00000000
00000000
00110000
00000000
00000000
,
00022000
00000000
00000000
00000000
,
00000000
00000000
00033000
00000000
00001000
00000000
00000000
00000100
,
00000000
00000000
00000001
00000000
00000000
00000010
00000000
00000000
,
00002002
00000000
00000000
00000000
,
00003003
00000000
00001000
00000001
00000100
00000000
00000000
00000101
,
00000000
00000000
00000011
00000000
00000000
00001010
00000000
00000000
,
00022000
00000000
00000000
00000000
,
00000000
00000000
00033000
00000000
00010000
00000000
00000000
01000000
,
00000000
00000000
10000000
00000000
00000000
00100000
00000000
00000000
,
20020000
00000000
00000000
00000000
,
30030000
00000000
10000000
00010000
00100000
00000000
00001000
00010000
,
00000000
00000100
00001000
00000100
00000010
00000001
00000010
00000010
;
