#TITLE:アンダンテ;
#SUBTITLE:;
#ARTIST:Dixie Flatline;
#TITLETRANSLIT:andante;
#SUBTITLETRANSLIT:;
#ARTISTTRANSLIT:;
#GENRE:J-MUSIC;
#CREDIT:MUINELIM;
#BANNER:andante.png;
#BACKGROUND:andante-bg.png;
#LYRICSPATH:;
#CDTITLE:;
#MUSIC:andante.ogg;
#OFFSET:-0.065000;
#SAMPLESTART:82.499786;
#SAMPLELENGTH:14.608696;
#SELECTABLE:YES;
#DISPLAYBPM:115.000000;
#BPMS:0.000000=115.000000
;
#STOPS:
;
#BGCHANGES:0.000=andante.avi=1.000=1=0=0=StretchNoLoop==CrossFade==,
99999=-nosongbg-=1.000=0=0=0 // don't automatically add -songbackground-
;
#KEYSOUNDS:;
#ATTACKS:;

//---------------dance-single - ----------------
#NOTES:
     dance-single:
     :
     Beginner:
     1:
     0.060332,0.087593,0.007821,0.000000,0.000000,54.000000,53.000000,1.000000,0.000000,0.000000,0.000000,0.060332,0.087593,0.007821,0.000000,0.000000,54.000000,53.000000,1.000000,0.000000,0.000000,0.000000:
0000
0000
0000
0000
,
0000
0000
0000
0000
,
0000
0000
0000
0000
,
0000
0000
0000
0000
,
1000
0000
0000
0000
,
1000
0000
0000
0000
,
0001
0000
0000
0000
,
0001
0000
0000
0000
,
1000
0000
0000
0000
,
0010
0000
0000
0000
,
0100
0000
0000
0000
,
0001
0000
0000
0000
,
0001
0000
0000
0000
,
0100
0000
0000
0000
,
0010
0000
0000
0000
,
1000
0000
0000
0000
,
1000
0000
0000
0000
,
0100
0000
0000
0000
,
0010
0000
0000
0000
,
0001
0000
0000
0000
,
0001
0000
0000
0000
,
0010
0000
0000
0000
,
0100
0000
0000
0000
,
1000
0000
0000
0000
,
1000
0000
0000
0000
,
0010
0000
0000
0000
,
0001
0000
0000
0000
,
0100
0000
0000
0000
,
1000
0000
0000
0000
,
0010
0000
0000
0000
,
0001
0000
0000
0000
,
0100
0000
0000
0000
,
1000
0000
0000
0000
,
0001
0000
0000
0000
,
1000
0000
0000
0000
,
0001
0000
0000
0000
,
0010
0000
0000
0000
,
0100
0000
0000
0000
,
0010
0000
0000
0000
,
0100
0000
0000
0000
,
0010
0000
0000
0000
,
0010
0000
0000
0000
,
0001
0000
0000
0000
,
0001
0000
0000
0000
,
0100
0000
0000
0000
,
0100
0000
0000
0000
,
1000
0000
0000
0000
,
1000
0000
0000
0000
,
0010
0000
0000
0000
,
0100
0000
0000
0000
,
0010
0000
0000
0000
,
0100
0000
0000
0000
,
1000
0000
0000
0000
,
0001
0000
0000
0000
,
1000
0000
0000
0000
,
0001
0000
0000
0000
,
1001
0000
0000
0000
;

//---------------dance-single - ----------------
#NOTES:
     dance-single:
     :
     Easy:
     3:
     0.136306,0.204123,0.070387,0.062566,0.000000,122.000000,113.000000,9.000000,8.000000,0.000000,0.000000,0.136306,0.204123,0.070387,0.062566,0.000000,122.000000,113.000000,9.000000,8.000000,0.000000,0.000000:
0000
0000
0000
0000
,
0000
0000
0000
0000
,
0000
0000
0000
0000
,
0000
0000
0000
0000
,
1000
0000
1000
0000
,
1000
0000
0000
0000
,
0001
0000
0001
0000
,
0001
0000
0000
0000
,
1000
0000
0100
0000
,
0010
0000
0001
0000
,
1000
0000
0100
0000
,
0010
0000
0001
0000
,
0001
0000
0010
0000
,
0100
0000
1000
0000
,
0001
0000
0010
0000
,
0100
0000
1000
0000
,
0010
0000
0100
0000
,
0010
0010
0010
0000
,
0100
0000
0010
0000
,
0110
0000
0000
0000
,
1000
0000
0001
0000
,
1000
1000
1000
0000
,
0001
0000
1000
0000
,
1001
0000
0000
0000
,
0001
0001
0001
0000
,
0100
0100
0100
0000
,
0010
0000
1000
0000
,
1001
0000
0000
0000
,
1000
1000
1000
0000
,
0010
0010
0010
0000
,
0100
0000
0001
0000
,
1000
0000
1001
0000
,
0001
0000
0100
0000
,
1000
0000
0010
0000
,
0002
0003
2000
3000
,
0002
0000
1003
0000
,
1000
0000
0100
0000
,
0001
0000
0010
0000
,
2000
3000
0002
0003
,
2000
0000
3001
1000
,
1001
0000
0110
0000
,
0010
0100
0010
0000
,
1000
0000
0001
0000
,
0100
0010
0100
0000
,
0110
0000
1001
0000
,
0001
1000
0001
0000
,
1000
0001
1000
0000
,
0001
1000
0010
0100
,
0001
0000
0010
0000
,
1000
0000
0100
0000
,
0001
0000
0010
0000
,
1000
0000
0100
0000
,
1000
0000
0010
0000
,
0001
0000
0100
0000
,
1000
0000
0010
0000
,
0001
0000
1000
0000
,
2002
0000
0000
0000
,
0000
0000
0000
0000
,
3003
0000
0000
0000
;

//---------------dance-double - ----------------
#NOTES:
     dance-double:
     :
     Easy:
     3:
     0.132954,0.204123,0.078208,0.046925,0.000000,119.000000,109.000000,10.000000,6.000000,0.000000,0.000000,0.132954,0.204123,0.078208,0.046925,0.000000,119.000000,109.000000,10.000000,6.000000,0.000000,0.000000:
00000000
00000000
00000000
00000000
,
00000000
00000000
00000000
00000000
,
00000000
00000000
00000000
00000000
,
00000000
00000000
00000000
00000000
,
00001000
00000000
00001000
00000000
,
00001000
00000000
00000000
00000000
,
00010000
00000000
00010000
00000000
,
00010000
00000000
00000000
00000000
,
00001000
00000000
00100000
00000000
,
00010000
00000000
01000000
00000000
,
00010000
00000000
00100000
00000000
,
00001000
00000000
00010000
00000000
,
00010000
00000000
00000100
00000000
,
00001000
00000000
00000010
00000000
,
00001000
00000000
00000100
00000000
,
00010000
00000000
00010000
00000000
,
00001000
00000000
00000100
00000000
,
00000001
00000001
00000001
00000000
,
00000010
00000000
00001000
00000000
,
00011000
00000000
00000000
00000000
,
00010000
00000000
01000000
00000000
,
10000000
10000000
10000000
00000000
,
00100000
00000000
00010000
00000000
,
00011000
00000000
00000000
00000000
,
00001000
00010000
00001000
00000000
,
00000100
00000001
00000100
00000000
,
00001000
00000000
00010000
00000000
,
00011000
00000000
00000000
00000000
,
00010000
00001000
00010000
00000000
,
00100000
10000000
00100000
00000000
,
00010000
00000000
00001000
00000000
,
00010000
00000000
00011000
00000000
,
00001000
00000000
00010000
00000000
,
01000000
00000000
10000000
00000000
,
00100000
00000000
00010000
00000000
,
00002000
00000000
00013000
00000000
,
00010000
00000000
00001000
00000000
,
00000100
00000000
00000001
00000000
,
00000020
00000030
00002000
00003000
,
00020000
00000000
00031000
00010000
,
00010010
00000000
01001000
00000000
,
00001000
00010000
00100000
00000000
,
10000000
00000000
00100000
00000000
,
00010000
00000000
00001000
00000000
,
00101000
00000000
00010100
00000000
,
00010000
00001000
00000010
00000000
,
00000001
00000000
00000010
00000000
,
00001000
00000000
00010000
00000000
,
00011000
00000000
00100000
00000000
,
01000000
00000000
10000000
00000000
,
01000000
00000000
00100000
00000000
,
00010000
00000000
00001000
00000000
,
00000100
00000000
00000010
00000000
,
00000001
00000000
00000010
00000000
,
00000100
00000000
00001000
00000000
,
00010000
00000000
00001000
00000000
,
00022000
00000000
00000000
00000000
,
00000000
00000000
00000000
00000000
,
00033000
00000000
00000000
00000000
;

//---------------dance-single - ----------------
#NOTES:
     dance-single:
     :
     Medium:
     6:
     0.246914,0.272164,0.125133,0.211162,0.000000,221.000000,205.000000,16.000000,27.000000,0.000000,0.000000,0.246914,0.272164,0.125133,0.211162,0.000000,221.000000,205.000000,16.000000,27.000000,0.000000,0.000000:
0000
0000
0000
0000
,
0000
0000
0000
0000
,
0000
0000
0000
0000
,
0000
0000
0000
0000
,
1000
0000
0001
0000
,
2002
0000
0000
3003
0000
0000
0000
0000
,
0001
0000
1000
0000
,
2002
0000
0000
3003
0000
0010
0010
0000
,
1000
0100
1000
0100
,
0010
0001
0010
0001
,
1000
0010
1000
0010
,
0100
0000
0001
0000
0100
0000
0001
1000
,
0001
0010
0001
0010
,
0100
1000
0100
1000
,
0001
0100
0001
0100
,
0010
0000
1000
0000
0010
0000
1000
0001
,
1000
1000
0100
0100
,
0010
0010
0001
0001
,
1000
0100
0010
0001
,
2002
0000
0000
3003
,
0001
0001
0100
0100
,
0010
0010
1000
1000
,
0001
0100
0010
1000
,
2002
0000
0000
3003
0000
0100
0100
0000
,
1000
0000
0010
0100
0000
0000
0100
0000
,
0001
0000
0100
0010
0000
0000
0010
0000
,
1000
0100
0010
0001
,
1000
2002
3003
1001
,
0001
0000
0010
0100
0000
0000
0100
0000
,
1000
0000
0100
0010
0000
0000
0010
0000
,
0001
0100
0010
1000
,
0100
0010
0220
0330
,
2000
3000
0002
0003
,
1000
1000
0001
0001
,
2000
3200
0320
0032
,
2003
0000
3001
1001
,
0002
0003
2000
3000
,
0001
0000
0001
0000
1000
0100
1000
0000
,
0002
0023
0230
2300
,
0001
0001
3001
1001
,
0110
0000
0010
1000
0010
0000
0100
0000
,
0010
0000
0100
0001
0000
0000
0100
0010
,
0100
0001
1000
0010
,
0100
0000
0010
0100
0000
0100
0010
0000
,
0110
0000
0100
0001
0100
0000
0010
0000
,
1000
0000
0010
0100
0000
0000
0010
0100
,
0001
0000
0100
0000
0010
0000
0100
0010
,
1000
0010
0100
0010
,
1000
0000
0001
0001
0000
0000
0100
0100
,
0000
0001
0010
0011
,
0001
0000
1000
1000
0000
0000
0010
0010
,
0000
1000
0100
1100
,
1000
0000
0001
0001
0000
0000
0010
0010
,
0000
0001
0100
0101
,
0001
0000
1000
1000
0000
0000
0100
0100
,
0000
1000
0010
1010
,
2000
0100
0000
3100
,
0002
0010
0000
0013
,
1001
0000
0000
0000
;

//---------------dance-double - ----------------
#NOTES:
     dance-double:
     :
     Medium:
     6:
     0.239093,0.272164,0.132954,0.156416,0.000000,214.000000,197.000000,17.000000,20.000000,0.000000,0.000000,0.239093,0.272164,0.132954,0.156416,0.000000,214.000000,197.000000,17.000000,20.000000,0.000000,0.000000:
00000000
00000000
00000000
00000000
,
00000000
00000000
00000000
00000000
,
00000000
00000000
00000000
00000000
,
00000000
00000000
00000000
00000000
,
00001000
00000000
00010000
00000000
,
00022000
00000000
00000000
00033000
00000000
00000000
00000000
00000000
,
00010000
00000000
00001000
00000000
,
00022000
00000000
00000000
00033000
00000000
00100000
00100000
00000000
,
00010000
01000000
00001000
00010000
,
00001000
01000000
00010000
00000000
,
00010000
00100000
00001000
00010000
,
00000100
00001000
00000010
00000000
,
00001000
00000100
00010000
00001000
,
00010000
00000100
00001000
00000000
,
00001000
00000010
00010000
00001000
,
01000000
00010000
00100000
00000000
,
01000000
10000000
00100000
00010000
,
00001000
00010000
00001000
00000100
,
00000001
00000010
00001000
00010000
,
00022000
00000000
00000000
00033000
,
00000100
00000001
00000010
00001000
,
00010000
00001000
00010000
01000000
,
10000000
00100000
00010000
00001000
,
00022000
00000000
00000000
00033000
00000000
01000000
01000000
00000000
,
00010000
00000000
00100000
00001000
00000000
00000000
00010000
00000000
,
00000100
00000000
00001000
00000010
00000000
00000000
00000100
00000000
,
00000001
00000010
00001000
00010000
,
00001000
00022000
00033000
00011000
,
00010000
00000000
00001000
01000000
00000000
00000000
00100000
00000000
,
10000000
00000000
01000000
00100000
00000000
00000000
01000000
00000000
,
00010000
00001000
00000010
00000001
,
00000100
00000010
00000220
00000330
,
00000002
00000003
00002000
00003000
,
00000001
00000100
00001000
00010000
,
00100000
10000000
01000000
00100000
,
00020000
00000000
10030000
10010000
,
20000000
30000000
00020000
00030000
,
10000000
00000000
00100000
00000000
00010000
00001000
00010000
00000000
,
00001000
00000100
00000001
00000010
,
00002000
00010000
00010000
00013000
,
00011000
00000000
00010000
00001000
00010000
00000000
01000000
00000000
,
10000000
00000000
00100000
00010000
00000000
00000000
00001000
00010000
,
00001000
00010000
00001000
00000100
,
00000001
00000010
00001000
00010000
,
00011000
00000000
00001000
00010000
00001000
00000000
00000100
00000000
,
00000001
00000000
00000010
00001000
00000000
00000000
00010000
00001000
,
00010000
00001000
00010000
01000000
,
10000000
00100000
00010000
00001000
,
00011000
00000000
00100000
00100000
00000000
00000000
01000000
01000000
,
00000000
10000000
00100000
01100000
,
00010000
00000000
00100000
00100000
00000000
00000000
00001000
00001000
,
00000000
00010000
00001000
00010000
,
00011000
00000000
00000010
00000010
00000000
00000000
00000100
00000100
,
00000000
00000001
00000010
00000110
,
00001000
00000000
00000010
00000010
00000000
00000000
00010000
00010000
,
00000000
00001000
00010000
00001000
,
00021000
00000010
00000000
00030010
,
00012000
00100000
00000000
00103000
,
00011000
00000000
00000000
00000000
;

//---------------dance-single - ----------------
#NOTES:
     dance-single:
     :
     Hard:
     9:
     0.327357,0.362886,0.140775,0.367578,0.031283,293.000000,275.000000,18.000000,47.000000,0.000000,0.000000,0.327357,0.362886,0.140775,0.367578,0.031283,293.000000,275.000000,18.000000,47.000000,0.000000,0.000000:
0000
0000
0000
0000
,
0000
0000
0000
0000
,
0000
0000
0000
0000
,
0000
0000
0000
0000
,
2000
0000
3010
0000
,
0002
0000
0000
0103
0000
0000
0000
0000
,
2000
0000
3100
0000
,
0002
0000
0000
0013
0000
1000
1001
0000
,
0001
0000
0100
0000
0010
0000
0000
0000
1000
0000
0000
1000
0000
0000
1000
0000
,
0001
0000
0000
0001
0000
0000
0001
0000
0000
0000
0100
0000
0100
0000
0001
0000
,
1000
0000
0010
0000
0100
0000
0000
0000
0001
0000
0000
0001
0000
0000
0001
0000
,
1000
0000
0000
1000
0000
0000
1000
0000
0000
0000
0000
0000
0001
0000
0010
0000
,
0100
0000
1000
0000
0010
0000
0000
0000
0100
0000
0000
0100
0000
0000
0100
0000
,
0010
0000
0000
0010
0000
0000
0010
0000
0000
0000
1000
0000
1000
0000
0100
0000
,
0010
0000
0001
0000
0100
0000
0000
0000
0010
0000
0000
0010
0000
0000
0010
0000
,
0100
0000
0000
0100
0000
0000
0100
0000
0000
0000
0001
0000
1001
0000
0000
0000
,
1000
0000
0020
0000
0000
0100
0130
0000
,
0001
0000
0100
0010
0000
0010
0100
0000
,
0001
0000
0020
0000
0000
0100
0130
0000
,
1000
0000
0010
0100
0000
0100
0010
0000
,
1000
0000
0002
0000
0000
0100
0103
0000
,
1000
0000
0001
0010
0000
0001
0100
0000
,
0001
0000
2000
0000
0000
0010
3010
0000
,
0001
0000
1000
0100
0000
1000
0010
0000
,
1000
0100
0010
0002
0000
0100
0103
0000
,
1000
0100
0010
0002
0000
0100
0103
0000
,
1000
0100
0010
0001
0200
0000
0010
0310
,
0000
0110
0000
0000
0000
0001
0010
0100
,
1000
0001
0010
0200
0000
1300
0010
0110
,
0000
0001
0100
0110
0000
1000
0100
0010
,
0001
1000
0100
0010
0200
0000
2300
0000
,
3002
0000
0000
0010
0013
0000
0000
0001
,
0200
0000
0301
1000
0020
0000
1030
0001
,
0200
0000
0320
0000
1030
0100
0010
0001
,
1000
1100
0011
1010
,
0202
0000
0300
0000
1003
0000
0000
1000
,
0200
0000
1300
0001
0020
0000
0031
1000
,
0200
0000
0320
0000
0031
0100
0010
1000
,
0001
0011
1100
0101
,
2020
0000
3030
0000
1000
0100
0010
0001
,
0200
0000
0310
1000
0200
0000
0320
0000
,
0230
0000
0001
0301
0000
0000
0100
1000
,
0001
0010
0100
1000
0001
0010
0100
1000
,
0020
0000
0100
0130
0000
0100
0001
1000
,
0020
0000
0130
0001
0020
0000
0230
0000
,
0320
0000
1000
1030
0000
0000
0010
0001
,
1000
0100
0010
0001
1000
0100
0000
0001
,
0010
0100
1000
0001
0010
0100
1000
0001
,
0010
0000
2000
3100
0000
0000
0002
0103
,
0000
0000
1001
0000
1000
0010
0200
0000
,
0301
0000
0002
0013
0000
0000
2000
3100
,
0000
0001
0010
0100
1000
0010
0100
0110
,
0000
0000
2000
3010
0000
0000
0002
0103
,
0000
0000
1001
0000
1000
0010
0100
0001
,
0000
0000
2000
3100
0000
0000
0002
0013
,
0000
0000
0110
0000
0001
1000
0010
0100
,
0002
0000
0010
0000
0000
0100
0103
0000
,
2000
0000
0100
0000
0000
0010
3010
0000
,
1001
0000
0000
0000
;

//---------------dance-double - ----------------
#NOTES:
     dance-double:
     :
     Hard:
     8:
     0.321770,0.362886,0.132954,0.359757,0.031283,288.000000,271.000000,17.000000,46.000000,0.000000,0.000000,0.321770,0.362886,0.132954,0.359757,0.031283,288.000000,271.000000,17.000000,46.000000,0.000000,0.000000:
00000000
00000000
00000000
00000000
,
00000000
00000000
00000000
00000000
,
00000000
00000000
00000000
00000000
,
00000000
00000000
00000000
00000000
,
00002000
00000000
01003000
00000000
,
00020000
00000000
00000000
00030100
00000000
00000000
00000000
00000000
,
00002000
00000000
00103000
00000000
,
00020000
00000000
00000000
00030010
00000000
00001000
00011000
00000000
,
00010000
00000000
00001000
00000000
00000100
00000000
00000000
00000000
00000001
00000000
00000000
00000010
00000000
00000000
00000001
00000000
,
00001000
00000000
00000000
00000010
00000000
00000000
00001000
00000000
00000000
00000000
00001000
00000000
00000100
00000000
00010000
00000000
,
00001000
00000000
00010000
00000000
01000000
00000000
00000000
00000000
10000000
00000000
00000000
00100000
00000000
00000000
10000000
00000000
,
00010000
00000000
00000000
00100000
00000000
00000000
00010000
00000000
00000000
00000000
00000000
00000000
00010000
00000000
01000000
00000000
,
00001000
00000000
00010000
00000000
00000010
00000000
00000000
00000000
00000100
00000000
00000000
00000001
00000000
00000000
00000100
00000000
,
00000010
00000000
00000000
00001000
00000000
00000000
00000010
00000000
00000000
00000000
00000010
00000000
00010000
00000000
00001000
00000000
,
01000000
00000000
00010000
00000000
00100000
00000000
00000000
00000000
01000000
00000000
00000000
10000000
00000000
00000000
01000000
00000000
,
00100000
00000000
00000000
00010000
00000000
00000000
00100000
00000000
00000000
00000000
00001000
00000000
00011000
00000000
00000000
00000000
,
00010000
00000000
00000200
00000000
00000000
00001000
00001300
00000000
,
00000100
00000000
00010000
00001000
00000000
00001000
00010000
00000000
,
00001000
00000000
00200000
00000000
00000000
00010000
00310000
00000000
,
00100000
00000000
00001000
00010000
00000000
00010000
00001000
00000000
,
00010000
00000000
00000020
00000000
00000000
00001000
00001030
00000000
,
00000010
00000000
00010000
00001000
00000000
00001000
00010000
00000000
,
00001000
00000000
02000000
00000000
00000000
00010000
03010000
00000000
,
01000000
00000000
00001000
00010000
00000000
00010000
00001000
00000000
,
00000100
00000001
00000010
00000200
00000000
00000010
00000310
00000000
,
00000010
00001000
00010000
02000000
00000000
00100000
03100000
00000000
,
00100000
01000000
10000000
00100000
00020000
00000000
00001000
00031000
,
00000000
00011000
00000000
00000000
00000000
00001000
00010000
00100000
,
01000000
00010000
00100000
02000000
00000000
13000000
00100000
00010000
,
00000000
00001000
00000100
00000001
00000000
00000001
00000010
00000100
,
00001000
00000010
00000100
00001000
00011000
00000000
01001000
00000000
,
00010010
00000000
00000000
00010000
00001000
00000000
00000000
00010000
,
02000000
00000000
13000000
00100000
00020000
00000000
00130000
00010000
,
00002000
00000000
00203000
00000000
00310000
01000000
00001000
00010000
,
00000100
00001100
00000010
00000011
,
00002002
00000000
00003003
00000000
00001001
00000000
00000000
00000001
,
00000200
00000000
00000310
00010000
00002000
00000000
00103000
00010000
,
02000000
00000000
03200000
00000000
10300000
01000000
00100000
01000000
,
00010000
00010100
00001000
01001000
,
00022000
00000000
00033000
00000000
00010000
00001000
00000100
00000010
,
00000200
00000000
00000301
00000010
00002000
00000000
00023000
00000000
,
00032000
00000000
01000000
01003000
00000000
00000000
01000000
00010000
,
00100000
00000000
01000000
10000000
00100000
00000000
00010000
00001000
,
00020000
00000000
00001000
00031000
00000000
00010000
00100000
01000000
,
00200000
00000000
10300000
01000000
00020000
00000000
00032000
00000000
,
00023000
00000000
00000010
00030010
00000000
00000000
00000010
00001000
,
00000100
00000000
00000010
00000001
00000100
00001000
00000000
00010000
,
00100000
10000000
00000000
01000000
00010000
00001000
00010000
00001000
,
00000100
00000000
00000002
00000013
00000000
00000000
00002000
00003010
,
00000000
00000000
00001001
00000000
00000001
00000100
00002000
00000000
,
00013000
00000000
00020000
00030010
00000000
00000000
00002000
01003000
,
00000000
01000000
00010000
01000000
00100000
10000000
01000000
00100000
,
00000000
00000000
00020000
01030000
00000000
00000000
20000000
30100000
,
00000000
00000000
10010000
00000000
10000000
00100000
01000000
00010000
,
00000000
00000000
00200000
00301000
00000000
00000000
00020000
00030010
,
00000000
00000000
00011000
00000000
00001000
00000100
00000010
00000100
,
00000002
00000000
00000023
00000000
00000000
00001000
00001030
00000000
,
00020000
00000000
02030000
00000000
00000000
10000000
13000000
00000000
,
10010000
00000000
00000000
00000000
;
