#VERSION:0.83;
#TITLE:YOU AND I;
#SUBTITLE:;
#ARTIST:Dreamcatcher;
#TITLETRANSLIT:;
#SUBTITLETRANSLIT:;
#ARTISTTRANSLIT:;
#GENRE:K-POP;
#ORIGIN:;
#CREDIT:MUINELIM;
#BANNER:YOU AND I.png;
#BACKGROUND:YOU AND I-bg.png;
#PREVIEWVID:;
#JACKET:YOU AND I-jacket.png;
#CDIMAGE:;
#DISCIMAGE:YOU AND I-bg.png;
#LYRICSPATH:;
#CDTITLE:;
#MUSIC:YOU AND I.mp3;
#OFFSET:0.008000;
#SAMPLESTART:44.450764;
#SAMPLELENGTH:12.371132;
#SELECTABLE:YES;
#DISPLAYBPM:97.000000:194.000000;
#BPMS:0.000=194.000,
270.000=97.000,
287.000=194.000,
290.000=776.000,
294.000=194.000,
346.000=97.000,
348.000=194.000;
#STOPS:14.000=0.309,
141.000=0.309,
270.000=1.856;
#DELAYS:;
#WARPS:;
#TIMESIGNATURES:0.000=4=4;
#TICKCOUNTS:0.000=4;
#COMBOS:0.000=1;
#SPEEDS:0.000=1.000=0.000=0;
#SCROLLS:0.000=1.000;
#FAKES:;
#LABELS:0.000=Song Start;
#BGCHANGES:0.000=YOU AND I.avi=1.000=1=0=0=StretchNoLoop==CrossFade==,
99999=-nosongbg-=1.000=0=0=0 // don't automatically add -songbackground-
;
#KEYSOUNDS:;
#ATTACKS:
;

//---------------dance-single - ----------------
#NOTEDATA:;
#CHARTNAME:;
#STEPSTYPE:dance-single;
#DESCRIPTION:;
#CHARTSTYLE:;
#DIFFICULTY:Beginner;
#METER:3;
#RADARVALUES:0.102282,0.219163,0.041626,0.000000,0.000000,86.000000,81.000000,5.000000,0.000000,0.000000,0.000000,0.000000,0.000000,0.000000,0.102282,0.219163,0.041626,0.000000,0.000000,86.000000,81.000000,5.000000,0.000000,0.000000,0.000000,0.000000,0.000000,0.000000;
#CREDIT:MILEN;
#DISPLAYBPM:97.000000:194.000000;
#NOTES:
0000
0000
0000
0000
,
0000
0000
0000
0000
,
0000
0000
0000
0000
,
0000
0000
0000
0100
,
0000
0000
0000
0000
,
0000
0000
0000
0100
,
0000
0000
0000
0000
,
0000
0000
0000
0100
,
0000
0000
0000
0001
,
0000
0000
0000
1000
,
0000
0000
0000
0010
,
0000
0000
0000
0010
,
0000
0100
0000
0010
,
0000
0000
0000
1000
,
0000
0000
0000
0001
,
0000
0000
0000
0100
,
0000
0010
0000
0100
,
0000
0000
0000
0001
,
0000
0000
0000
1000
,
0000
0000
0000
0001
,
0000
0000
0000
0000
,
0000
0000
0000
0100
,
0000
0000
0000
0000
,
0000
0000
0000
1000
,
0000
0000
0000
0000
,
0000
0000
0000
0010
,
0000
0000
0000
0000
,
0000
0000
0000
0001
,
0000
0000
0000
0001
,
0000
0000
0000
1000
,
0000
0000
0000
1000
,
0000
0000
0000
1001
,
0000
0000
0000
0000
,
0000
0000
0000
0100
,
0000
0100
0000
0100
,
0000
0000
0100
0000
,
0000
0000
0001
0000
,
0000
0000
1000
0000
,
0000
0000
0010
0000
,
0000
0000
0100
0000
,
0000
0000
0001
0000
,
0000
0000
1000
0000
,
0000
0000
0010
0000
,
0000
0000
0100
0000
,
0000
0000
0001
0000
,
0000
0000
1000
0000
,
0000
0000
0010
0000
,
0010
0000
0000
0000
,
0000
0000
0001
0000
,
0000
0000
1000
0000
,
0000
0000
0001
0000
,
0000
0000
1000
0000
,
0000
0000
0000
0000
,
0000
0000
0100
0000
,
0000
0000
0100
0000
,
0000
0000
0010
0000
,
0000
0000
0010
0000
,
0000
0000
0001
0000
,
0000
0000
0000
0000
,
0000
0000
1001
0000
,
0000
0000
0000
0000
,
0000
0000
1000
0000
,
0000
0000
0000
0000
,
0000
0000
0001
0000
,
0000
0000
0000
0000
,
0000
0000
0100
0000
,
0000
0000
0100
0000
,
0000
0000
0100
0001
,
0000
0000
0000
0010
,
0000
0000
0000
1000
,
0000
0000
0000
0100
,
0000
0000
0000
1001
,
0000
0000
0000
0000
,
0000
0000
0000
0000
,
1000
0000
1000
0000
,
0100
0000
0100
0000
,
0010
0000
0010
0000
,
0001
0000
0001
0000
,
0100
0100
0100
0000
,
0000
0000
0000
0000
,
0000
0000
1001
0000
,
0000
0000
0001
0000
,
0000
0000
1000
0000
,
0000
0000
0010
0000
,
0000
0000
0001
0000
,
0000
0000
0100
0000
,
0000
0000
1000
0000
,
0001
0000
0000
1001
;

//---------------dance-single - ----------------
#NOTEDATA:;
#CHARTNAME:;
#STEPSTYPE:dance-single;
#DESCRIPTION:;
#CHARTSTYLE:;
#DIFFICULTY:Easy;
#METER:9;
#RADARVALUES:0.344905,0.512838,0.308036,0.466216,0.000000,290.000000,253.000000,37.000000,56.000000,0.000000,0.000000,0.000000,0.000000,0.000000,0.344905,0.512838,0.308036,0.466216,0.000000,290.000000,253.000000,37.000000,56.000000,0.000000,0.000000,0.000000,0.000000,0.000000;
#CREDIT:MILEN;
#DISPLAYBPM:97.000000:194.000000;
#NOTES:
0000
0000
0000
0000
,
0000
0000
0000
0000
,
0000
0000
0000
0000
,
0000
0000
0000
1001
,
0001
0100
0010
1000
,
0000
1000
0000
0000
0000
0000
0001
0000
,
0000
0001
0000
0000
0100
0000
0010
0000
,
0100
0001
1000
2002
,
3003
0000
0001
0010
,
0100
1000
0001
0020
,
0030
0000
1000
0100
,
0010
0001
0000
0200
,
0000
0320
0000
1030
,
0001
1001
0000
1000
,
1000
1000
0100
0010
,
0001
0200
0300
0000
,
1000
0010
0100
0001
,
0010
0100
2000
0000
,
3000
0000
0010
0100
,
0010
0110
0000
2000
,
3000
0020
0030
0200
,
0300
0002
0003
0020
,
0030
0200
0300
2000
,
0000
0002
0000
3003
,
0001
0100
0001
1000
,
0100
1000
0002
0100
,
0003
0000
2000
0010
,
3000
0000
0000
0002
,
0003
0020
0030
0200
,
0300
2000
3000
0020
,
0030
0200
0300
0002
,
0003
2000
0000
0002
,
0000
0000
0000
3003
,
0001
0100
0010
1000
,
0100
0010
0001
2002
,
3003
0110
0010
1000
,
0100
1000
1100
0010
,
0001
0010
0011
0001
,
0100
0010
1010
0100
,
0101
1000
1001
0001
,
0100
0001
0101
1000
,
0010
1000
1010
0001
,
1000
0001
0110
1000
,
1010
0101
0110
0010
,
1000
0100
1100
0010
,
0001
0100
0101
0001
,
1000
0010
1010
0001
,
0022
0033
0010
0100
,
1000
0001
0100
1000
,
0001
0000
0010
0000
1000
0000
0000
0001
,
0000
0000
0010
0000
0100
0000
1000
0001
,
1000
1001
0001
0100
,
1000
0100
0001
0010
,
1000
0010
0001
0100
,
1000
0001
0010
1000
,
0100
0010
0002
0003
,
0010
0100
2000
3000
,
0002
0003
0220
0000
,
0000
0330
0001
0100
,
1000
0010
0002
0000
,
0003
0000
0200
0000
,
0300
0000
0020
0000
,
0030
0000
2000
0000
,
3000
0000
0200
0000
,
0300
0000
0002
0000
,
0003
0000
0020
0000
,
0030
0000
2000
0000
,
0000
3000
1001
0001
,
0100
0010
1000
0000
0010
0000
0001
0000
,
0010
0100
0001
0000
0100
0000
1000
0000
,
0100
0001
0010
0000
1000
0000
0001
0000
,
0100
1000
0010
0000
0100
0010
0110
0000
,
0000
0001
0000
0000
1000
0000
0000
0000
,
0000
0000
2002
3003
,
0001
0100
1000
0010
,
0001
0100
1000
0010
,
0220
0000
0330
0000
,
1000
0100
0001
0010
,
1000
0000
0100
0000
0110
0000
0000
0011
,
0000
1100
1001
0001
,
0100
1000
0002
0003
,
1000
0010
0001
1000
,
0010
0100
0220
0330
,
0010
1000
0001
0100
0010
0000
0100
0000
,
0001
1000
2002
0000
,
0000
3003
0001
0010
,
0100
1000
0220
0330
,
1010
0000
0000
0101
0000
0000
2002
0000
,
3003
0000
0000
0000
;

//---------------dance-single - ----------------
#NOTEDATA:;
#CHARTNAME:;
#STEPSTYPE:dance-single;
#DESCRIPTION:;
#CHARTSTYLE:;
#DIFFICULTY:Medium;
#METER:13;
#RADARVALUES:0.520925,0.659363,0.333011,0.507842,0.016651,438.000000,398.000000,40.000000,61.000000,0.000000,0.000000,0.000000,0.000000,0.000000,0.520925,0.659363,0.333011,0.507842,0.016651,438.000000,398.000000,40.000000,61.000000,0.000000,0.000000,0.000000,0.000000,0.000000;
#CREDIT:MILEN;
#DISPLAYBPM:97.000000:194.000000;
#NOTES:
0000
0000
0000
0000
,
0000
0000
0000
0000
,
0000
0000
0000
0000
,
0000
0000
0000
1001
,
0010
0100
0010
0000
1000
0000
0001
0000
,
0100
0020
0000
0000
0000
1030
0001
0000
,
0100
0010
0000
1000
0001
0000
0010
0000
,
0100
1000
0010
0220
,
0000
0330
0000
0100
0001
0100
0010
1000
,
0010
0100
0001
0000
1000
0000
0200
0000
,
0000
0000
0000
1300
0001
1000
0010
0100
,
0010
1000
0002
0000
0000
0000
0013
0100
,
0000
1000
0001
0000
0010
0100
0010
0000
,
0011
0000
2200
0000
3300
0000
1000
0010
,
0100
0001
2000
0000
3100
0010
0002
0000
,
0203
0320
0000
0030
,
0100
0010
1000
0000
0001
0000
0010
0000
,
0100
1000
2002
0000
,
0000
3003
0011
1100
,
1010
0000
0202
0000
0303
0000
0001
0010
,
1000
0000
1000
0010
0002
0000
2003
0000
,
0000
0000
3002
0000
0000
0000
1003
0100
,
0001
0000
0001
0100
2000
0000
3002
0000
,
0000
2003
0000
0000
,
3001
0010
0100
0010
0001
0010
0100
0000
,
1000
0010
0100
0202
,
0000
0303
0010
2020
,
0000
0000
0000
0000
3030
0000
1000
0100
,
0001
0000
0001
0010
2000
0000
3002
0000
,
0000
0000
2003
0000
0000
0000
3001
0010
,
1000
0000
1000
0100
0002
0000
2003
0000
,
0000
3002
0000
1003
,
1000
0010
0010
0001
,
0001
0000
0100
0000
0100
0000
1000
0010
,
1000
0001
0010
0001
1000
0010
2000
0000
,
0000
0001
3001
0000
0001
0010
0100
0010
,
0001
0100
0010
1000
0001
0000
0010
0100
,
1000
0001
0010
0000
1000
0010
0001
0100
,
0010
1000
0100
0010
0001
0000
0100
0010
,
0110
0000
1001
0000
1000
0100
0010
0100
,
1000
0010
0100
0001
1000
0000
0100
0010
,
0001
1000
0100
0000
0001
0100
1000
0010
,
0100
0001
0010
0100
1000
0000
0010
0100
,
0110
0000
1001
0000
0001
0100
1000
0100
,
0001
0010
0100
0001
0100
0010
0001
0100
,
1000
0001
0010
1000
0100
0010
1000
0010
,
0100
1000
0010
0001
0010
1000
0100
0010
,
0002
2000
0003
0000
3020
0000
0000
0000
,
0130
0001
1000
0200
0000
0000
0320
0000
,
0032
0000
2003
0000
3010
0010
0100
0001
,
0001
0100
1000
0100
0001
0010
0100
0010
,
0001
1001
1000
0010
,
0001
0100
1000
0001
,
0100
0010
1000
0001
,
0010
1000
0100
0001
,
1000
0010
0210
0301
,
0120
1030
2100
3001
,
0012
1003
1010
0011
,
1100
0101
1010
0011
,
0101
1100
2002
0000
,
3000
0000
0200
0000
,
0003
0000
0020
0000
,
0300
0000
2000
0000
,
0030
0000
0200
0000
,
3000
0000
0002
0000
,
0300
0000
0020
0000
,
0003
0000
2000
0000
,
0030
0000
0000
0000
0000
0000
0000
0000
3001
0000
0000
0000
0001
0000
0000
0100
,
0000
0000
1000
0000
1100
0000
0000
0000
0001
0000
0010
0000
1000
0000
0000
0100
,
0000
0000
0001
0000
0011
0000
0000
0000
1001
0000
0000
0000
1000
0000
0000
0010
,
0000
0000
0001
0000
0101
0000
0000
0000
1000
0000
0100
0000
0001
0000
0000
0010
,
0000
1000
1010
0000
0001
1000
1001
0000
,
0000
0110
0000
1000
0002
0000
0000
0000
,
0000
0000
0000
0000
1003
0000
1000
0100
,
0010
0100
1000
0010
0001
0010
0100
1000
,
0100
0001
0010
0100
0010
0001
1000
0010
,
0100
0001
0010
0100
2000
0000
0000
0000
,
3001
0001
0100
1000
0001
0010
0100
0001
,
1000
0100
0010
1000
0010
0010
0001
0100
,
0100
1000
0100
0001
0010
0100
0001
0100
,
1000
0010
0100
0001
1001
0000
1000
0000
,
0100
0000
0001
0000
0010
0000
0100
0001
,
0000
1000
0010
0000
0220
0000
0330
0000
,
1000
0010
0001
0100
1000
0000
0001
0200
,
0000
0310
1000
0100
0010
0000
0001
0000
,
1000
0000
0100
0000
0001
0100
1000
0010
,
0100
0001
1000
0100
0220
0000
0330
0000
,
0001
0100
1000
0010
0001
0100
2002
0000
,
3003
0000
0000
0000
;

//---------------dance-single - ----------------
#NOTEDATA:;
#CHARTNAME:;
#STEPSTYPE:dance-single;
#DESCRIPTION:;
#CHARTSTYLE:;
#DIFFICULTY:Hard;
#METER:17;
#RADARVALUES:0.790902,1.135569,0.591095,0.774252,0.457891,665.000000,594.000000,71.000000,93.000000,0.000000,0.000000,0.000000,0.000000,0.000000,0.790902,1.135569,0.591095,0.774252,0.457891,665.000000,594.000000,71.000000,93.000000,0.000000,0.000000,0.000000,0.000000,0.000000;
#CREDIT:MILEN;
#DISPLAYBPM:97.000000:194.000000;
#NOTES:
0000
0000
0000
0000
,
0000
0000
0000
0000
,
0000
0000
0000
0000
,
0000
0000
0000
1001
,
0110
0100
0002
0000
0023
0000
0230
0000
,
1300
0020
0000
0000
0000
0130
0001
0000
,
0001
0010
0000
0010
1000
0000
1100
0000
,
0011
0101
1010
2002
,
0000
0003
0000
0001
0100
0010
0001
0100
,
0010
0001
3100
0000
0110
0000
0022
0000
,
0000
0030
0000
0010
1000
0100
0010
1000
,
0100
0000
0010
0000
2000
0000
0000
0000
3003
0000
0000
0000
1000
0010
0200
0000
,
0000
0000
0301
0010
0200
0000
0000
0000
1300
0000
0001
0000
0010
0000
0000
0000
,
1010
0000
0202
0000
0303
0000
2000
3200
,
0302
0023
2030
0000
3010
0100
1100
0000
,
0011
0220
0330
1001
,
0001
0100
1010
0000
0011
0000
1100
0000
,
0101
1001
0220
0000
,
0000
0330
0101
1100
,
0011
0000
2020
0000
0030
0000
0010
0001
,
3200
0000
1000
0010
0302
0000
0203
0000
,
0000
0000
2000
0000
0300
0000
0100
0001
,
3020
0000
0001
0100
2030
0000
3002
0000
,
0000
0200
0000
0303
,
0100
0001
0010
1000
0001
0100
2000
0000
,
3020
0230
0302
0020
,
0030
0003
2000
0200
,
0000
0000
0000
0000
0300
0000
0100
0010
,
3002
0000
0010
0100
2003
0000
0020
0000
,
3030
0000
0202
0000
0300
0000
0100
0010
,
2003
0000
0010
0100
3002
0000
0020
0000
,
0033
0000
2200
0000
3300
0000
1001
0001
,
0100
0010
1000
0100
0010
0001
1000
0010
,
0100
0001
0010
0100
1000
0010
0210
0301
,
0120
1030
2100
3001
0012
1003
2002
0000
,
3003
0000
0100
0010
0200
0000
0300
0000
1001
0000
0001
0000
1000
0000
0100
1000
,
0100
0000
1000
0000
0010
0100
0001
0000
0010
0001
0010
0000
0100
0000
0010
0000
,
0100
1000
0010
0000
0100
0010
0100
0000
0001
0010
0100
0000
1000
0000
0010
0100
,
0001
0000
1000
0000
0100
0010
0001
0000
0100
0010
1000
0000
0001
0000
0010
0000
,
0100
1000
0100
1000
0001
0000
0100
0000
0010
1000
0100
0000
0010
0000
0001
0100
,
0001
0000
1000
0000
0010
0100
0010
0000
1000
0100
0010
0000
0001
0000
0100
0000
,
0010
1000
0001
0000
0010
0001
0100
0000
0010
1000
0010
0000
0100
0000
0001
0010
,
0100
0000
1000
0000
0010
0100
0010
0000
1000
0001
0010
0000
0100
0000
1000
0000
,
0001
0100
0001
0100
0010
1000
0010
1000
0001
0010
0100
0000
1000
0000
0010
0100
,
0001
0000
1000
0000
0100
0010
0001
0000
1000
0010
0100
0010
1000
0000
0001
0000
,
0010
0100
1000
0000
0010
0100
0001
0000
1000
0100
0010
0000
0001
0000
0100
0001
,
1000
0000
0010
0000
0100
0001
0010
0000
0100
1000
0001
0000
0100
0000
0010
0000
,
1000
0001
1000
0001
0010
0100
0010
0100
2000
0000
0000
0000
3010
0000
0100
0000
,
0001
0000
0100
0000
1000
0000
0100
0000
0001
0010
0001
0000
1000
0100
1000
0000
,
0001
0100
0001
0000
1000
0010
1000
0000
1100
0000
0100
0000
0010
0000
0011
0000
,
0001
0100
0110
0010
1001
1000
0010
0100
,
0101
0001
0110
1000
1010
0010
0100
0001
,
0100
1000
0100
0001
0010
1000
0010
0001
,
0010
0100
1000
0010
0210
0301
0001
0100
,
0120
1030
1000
0100
0120
0031
0210
1300
,
1002
0013
2001
3100
1010
0010
0100
0001
,
0011
0010
0100
1000
1100
0100
0010
0001
,
0101
0100
0010
1000
1100
1001
0001
0100
,
1000
0000
0100
0000
0001
0000
0010
0000
0100
1000
0010
0000
0100
0001
0010
0000
,
0100
1000
0010
0000
0100
0001
0010
0000
0220
0000
0000
0000
0000
0000
0000
0000
,
0000
0030
2000
0000
,
0000
0300
0020
0000
,
0000
3000
0002
0030
,
0023
2030
0200
0000
,
0000
3000
0002
0003
,
2300
3020
0032
0000
,
0000
0000
0203
2300
0002
0000
0000
0000
,
0000
0000
0000
0000
3003
0000
0000
0000
0110
0000
0000
0000
2010
0000
3100
0001
,
1000
0010
0001
0100
0010
0000
0000
0000
1100
0000
0110
0000
0102
0000
0013
1000
,
0001
0100
1000
0010
0100
0000
0000
0000
0110
0000
0000
0000
0021
0000
1030
0100
,
0010
1000
0010
0001
0100
0000
0000
0000
0101
0000
0110
0000
1200
0000
0301
0010
,
0100
0001
0100
1000
0010
0000
0000
0000
1010
0000
0110
0000
1001
0000
0000
0000
,
0001
0100
1000
0000
0000
0000
1000
0010
0002
0000
0000
0000
0000
0000
0000
0000
,
0000
0000
0000
0000
1003
0100
0010
0001
,
0100
0010
1000
0000
0001
0010
0100
0000
1000
0010
0100
0001
1000
0000
0001
0100
,
0010
1000
0001
0000
0010
0100
1000
0000
0001
0010
0100
0000
1000
0000
0010
0000
,
0100
0001
0100
0001
0010
0100
0010
0100
1000
0000
0001
0000
0100
0000
0010
0000
,
1000
0100
1000
0001
0100
0001
0010
0100
1000
0010
1000
0001
0010
0001
0100
0010
,
1000
0100
0010
0001
1000
0100
0010
0001
0100
0010
1000
0000
0010
0000
0001
0010
,
0100
0000
0001
0000
1000
0100
0010
0000
0100
1000
0010
0000
0001
0010
0100
0000
,
0010
1000
0010
1000
0100
0010
0100
0010
0002
0000
0000
0000
1003
0000
0010
0000
,
0001
0010
1000
0200
0010
0300
0002
1000
,
0003
0200
0010
0300
0001
1000
0100
0010
,
0001
0100
0010
1000
0001
0010
0100
1000
0020
0000
0000
0000
0230
0000
0001
0000
,
0300
0010
1000
0100
0120
0000
0031
0100
,
1000
0000
0001
0000
0010
0000
1000
0000
0100
0010
0100
1000
0001
0010
0100
0010
,
0100
1000
0010
0100
0001
1000
0100
0010
0002
0000
0000
0000
0000
0000
0003
0000
,
0101
0100
1000
1010
0010
0001
2002
0000
,
3003
0000
0000
0000
;

//---------------dance-double - ----------------
#NOTEDATA:;
#CHARTNAME:;
#STEPSTYPE:dance-double;
#DESCRIPTION:;
#CHARTSTYLE:;
#DIFFICULTY:Hard;
#METER:17;
#RADARVALUES:0.758790,1.025675,0.532818,0.682673,0.382963,638.000000,574.000000,64.000000,82.000000,0.000000,0.000000,0.000000,0.000000,0.000000,0.758790,1.025675,0.532818,0.682673,0.382963,638.000000,574.000000,64.000000,82.000000,0.000000,0.000000,0.000000,0.000000,0.000000;
#CREDIT:MILEN;
#DISPLAYBPM:97.000000:194.000000;
#NOTES:
00000000
00000000
00000000
00000000
,
00000000
00000000
00000000
00000000
,
00000000
00000000
00000000
00000000
,
00000000
00000000
00000000
00011000
,
00001000
00010000
02000000
00000000
23000000
00000000
30200000
00000000
,
00310000
00002000
00000000
00000000
00000000
00003100
00000001
00000000
,
00000001
00000010
00000000
00000010
00001000
00000000
00011000
00000000
,
00010100
00011000
01001000
00022000
,
00000000
00003000
00000000
00031000
00000100
00000010
00001000
00000100
,
00000010
00000001
00000100
00000000
00001000
00000000
00022000
00000000
,
00000000
00030000
00000000
00013000
00100000
01000000
00010000
00100000
,
01000000
00000000
10000000
00000000
00200000
00000000
00000000
00000000
00300000
00000000
00000000
00000000
00010000
00001000
02000000
00000000
,
00000000
00000000
03001000
00010000
00000200
00000000
00000000
00000000
00000310
00000000
00000001
00000000
00000100
00000000
00000000
00000000
,
00001010
00000000
00022000
00000000
00033000
00000000
00000200
00002300
,
00023000
00230000
02300000
00000000
03010000
10000000
11000000
00000000
,
00110000
00022000
00033000
01001000
,
00001000
00010000
00010010
00000000
00001100
00000000
00000011
00000000
,
00000101
00001010
00000220
00000000
,
00000000
00000330
00001001
00010010
,
00101000
00000000
02020000
00000000
00030000
00000000
03100000
10000000
,
02000000
00000000
03010000
01000000
20000000
00000000
30200000
00000000
,
00000000
00000000
00020000
00000000
00300000
00000000
00130000
00010000
,
00002000
00000000
00013000
00001000
00000200
00000000
00000002
00000000
,
00000300
00000020
00000000
00000033
,
00000001
00000100
00000010
00010000
00001000
01000000
00200000
00000000
,
20300000
32000000
03020000
00000200
,
00000300
00030000
00002000
02000000
,
00000000
00000000
00000000
00000000
03000000
00000000
00013000
00001000
,
00000020
00000000
00001030
00000010
00000002
00000000
00002000
00000000
,
00003003
00000000
00000220
00000000
00000030
00000000
00000310
00000100
,
00002000
00000000
00003100
00001000
00020000
00000000
02000000
00000000
,
00030000
00000000
20000000
00000000
03000000
00000000
30010000
00010000
,
01000000
00001000
00010000
00000100
00001000
00000010
00010000
00001000
,
00100000
00010000
01000000
00001000
00010000
00000100
00001100
00000001
,
00000100
00001000
00011000
00010000
00100000
10000000
00220000
00030000
,
00000000
00000000
00301000
00010000
00002000
00000000
00003000
00000000
00011000
00000000
00010000
00000000
00000100
00000000
00001000
00000010
,
00001000
00000000
00000100
00000000
00000010
00000001
00000010
00000000
00000001
00000100
00000001
00000000
00001000
00000000
00000010
00000000
,
00010000
00001000
00010000
00000000
00001000
00100000
00001000
00000000
00100000
00010000
00100000
00000000
01000000
00000000
10000000
00100000
,
10000000
00000000
00010000
00000000
01000000
00100000
01000000
00000000
00100000
10000000
00100000
00000000
01000000
00000000
00001000
00000000
,
00010000
00001000
00010000
00000000
00000100
00000000
00001000
00000000
00000100
00000010
00000100
00000000
00000010
00000000
00000001
00000100
,
00000001
00000000
00001000
00000000
00000010
00000100
00000010
00000000
00010000
00001000
00010000
00000000
00100000
00000000
01000000
00000000
,
00100000
10000000
00100000
00000000
01000000
00010000
01000000
00000000
00001000
00100000
00001000
00000000
00010000
00000000
00000100
00001000
,
00000100
00000000
00000010
00000000
00000001
00001000
00000001
00000000
00000100
00000010
00000100
00000000
00001000
00000000
00010000
00000000
,
00100000
01000000
00100000
00000000
10000000
00010000
10000000
00010000
10000000
00000000
01000000
00000000
00010000
00000000
00001000
00010000
,
00001000
00000000
00000100
00000000
00000001
00000010
00000001
00000000
00001000
00000010
00001000
00000000
00000100
00000000
00010000
00000000
,
00001000
01000000
00001000
00000000
00100000
00010000
00100000
00000000
01000000
10000000
01000000
00000000
00010000
00000000
00001000
00010000
,
00001000
00000000
00000100
00000000
00000001
00000010
00000001
00000000
00001000
00000010
00001000
00000000
00000100
00000000
00010000
00000000
,
00001000
00010000
00001000
00000000
01000000
00100000
01000000
00100000
02000000
00000000
00000000
00000000
03010000
00000000
00100000
00000000
,
01000000
00000000
10000000
00000000
00100000
00000000
01000000
00000000
00010000
00100000
00010000
00000000
00100000
00000000
00001000
00000000
,
00010000
00000100
00010000
00000000
00000010
00000000
00000100
00000000
00000101
00000000
00001000
00000000
00000100
00000000
00010100
00000000
,
00010000
00001000
01001000
00010000
00110000
00100000
01000000
10000000
,
10200000
00000000
00320000
00000000
00031000
00010000
00001000
00000100
,
00000001
00000010
00001000
00010000
01000000
10000000
00100000
00010000
,
00001000
00100000
01000000
00010000
00012000
01003000
00001000
00010000
,
00021000
00030010
00010000
00001000
01001000
00010000
00011000
00000010
,
00010010
00001000
00011000
00100000
01100000
10000000
01000000
00010000
,
00001000
00100000
01000000
00010000
00001000
00000010
00000100
00010000
,
00001000
00000100
00000001
00000010
00000110
00001001
00000001
00000100
,
00001000
00010000
00100000
10000000
11000000
01000000
01100000
00100000
,
00101000
00001000
00011000
00010000
00020020
00000000
00000000
00000000
,
00000000
00030000
00000200
00000000
,
00000000
00000030
00000002
00000000
,
00000000
00000300
00000020
00000003
,
00002030
00023000
02000000
00000000
,
00000000
00030000
20000000
30000000
,
03200000
00320000
00002000
00000000
,
00030000
00000000
00003200
00000320
00000002
00000000
00000000
00000000
,
00000000
00000000
00000000
00000000
00000033
00000000
00000000
00000000
00001001
00000000
00000000
00000000
00000110
00000000
00001000
00010000
,
00100000
01000000
00001000
00010000
00100000
00000000
00000000
00000000
10100000
00000000
01010000
00000000
01100000
00000000
00010000
00001000
,
00000100
00000010
00010000
00001000
00000100
00000000
00000000
00000000
00000110
00000000
00000000
00000000
00001001
00000000
00000010
00000100
,
00001000
00010000
00100000
01000000
10000000
00000000
00000000
00000000
00110000
00000000
11000000
00000000
10010000
00000000
01000000
00100000
,
00010000
00001000
00000100
00000010
00000001
00000000
00000000
00000000
00001100
00000000
00000011
00000000
00001001
00000000
00000000
00000000
,
00000001
00000100
00001000
00000000
00000000
00000000
00000100
00001000
00020000
00000000
00000000
00000000
00000000
00000000
00000000
00000000
,
00000000
00000000
00000000
00000000
00031000
00010000
01000000
10000000
,
00100000
01000000
00010000
00000000
00100000
00001000
00010000
00000000
00000100
00001000
00000001
00000000
00000010
00000000
00000001
00001000
,
00000100
00000000
00001000
00000000
00000100
00000010
00000001
00000000
00000100
00001000
00010000
00000000
00001000
00000000
00100000
00000000
,
00010000
01000000
00100000
00000000
10000000
01000000
00100000
00010000
01000000
00000000
00001000
00000000
00010000
00000000
00000100
00000000
,
00001000
00000010
00000100
00000000
00000001
00000010
00000100
00000000
00010000
00001000
00100000
00000000
01000000
10000000
00010000
00000000
,
01000000
00100000
01000000
00001000
00010000
00001000
00010000
00000010
00000100
00000010
00001000
00000000
00000100
00000000
00000010
00000001
,
00000100
00000000
00001000
00000000
00010000
00001000
00100000
00000000
00010000
00100000
01000000
00000000
10000000
00100000
01000000
00000000
,
00100000
00010000
00100000
00010000
00001000
00010000
00001000
00010000
00000020
00000000
00000000
00000000
00001030
00000000
00000100
00000000
,
00000001
00001000
00000010
00000002
00000100
00000003
00000200
00001000
,
00000300
00002000
00010000
00003000
00010000
00100000
10000000
01000000
,
00100000
00010000
00100000
00001000
00010000
00001000
00010000
00000100
00002000
00000000
00000000
00000000
00003002
00000000
00000100
00000000
,
00000003
00000010
00001000
00010000
00012000
00000000
00103000
01000000
,
10000000
00000000
00010000
00000000
00100000
00000000
01000000
00000000
10000000
00100000
10000000
00100000
01000000
00010000
00100000
01000000
,
00100000
00010000
00100000
00001000
00010000
00001000
00000100
00000010
00000200
00000000
00000000
00000000
00000000
00000000
00000300
00000000
,
00000110
00001000
00010000
00011000
00100000
01000000
02200000
00000000
,
03300000
00000000
00000000
00000000
;

//---------------dance-double - ----------------
#NOTEDATA:;
#CHARTNAME:;
#STEPSTYPE:dance-double;
#DESCRIPTION:;
#CHARTSTYLE:;
#DIFFICULTY:Easy;
#METER:10;
#RADARVALUES:0.334201,0.477559,0.249759,0.449565,0.000000,281.000000,251.000000,30.000000,54.000000,0.000000,0.000000,0.000000,0.000000,0.000000,0.334201,0.477559,0.249759,0.449565,0.000000,281.000000,251.000000,30.000000,54.000000,0.000000,0.000000,0.000000,0.000000,0.000000;
#CREDIT:MILEN;
#DISPLAYBPM:97.000000:194.000000;
#NOTES:
00000000
00000000
00000000
00000000
,
00000000
00000000
00000000
00000000
,
00000000
00000000
00000000
00000000
,
00000000
00000000
00000000
00011000
,
00001000
00100000
00001000
00010000
,
00000000
00010000
00000000
00000000
00000000
00000000
00000010
00000000
,
00000000
00000010
00000000
00000000
00001000
00000000
00000100
00000000
,
00000010
00000001
00001000
00002002
,
00003003
00000000
00000001
00000100
,
00001000
00010000
00100000
20000000
,
30000000
00000000
10000000
01000000
,
00010000
00011000
00000000
00002000
,
00000000
00023000
00000000
00030100
,
00000010
00000110
00000000
00000001
,
00000001
00000001
00000100
00001000
,
00010000
00200000
00300000
00000000
,
00100000
10000000
01000000
00100000
,
00010000
01000000
00002000
00000000
,
00003000
00000000
00010000
00001000
,
00010000
00011000
00000000
00000200
,
00000300
00002000
00003000
00000020
,
00000030
00020000
00030000
00002000
,
00003000
00200000
00300000
00020000
,
00000000
20000000
00000000
30030000
,
10000000
01000000
00010000
00001000
,
00010000
00001000
00000200
00000001
,
00000300
00000000
00000020
00001000
,
00000030
00000000
00000000
00020000
,
00030000
00002000
00003000
00200000
,
00300000
00020000
00030000
02000000
,
03000000
00002000
00003000
00020000
,
00030000
00000200
00000000
00000020
,
00000000
00000000
00000000
00000330
,
00000001
00000100
00001000
00010000
,
00100000
10000000
01000000
00020000
,
00000000
00031000
00001000
00100000
,
00010000
01000000
10100000
10000000
,
01000000
00100000
00011000
00001000
,
00010000
00000100
00001010
00000001
,
00001100
00000010
00011000
00010000
,
00001000
00000100
00000011
00000001
,
00001000
00000100
00001010
00001000
,
00010000
01000000
10100000
00010000
,
01100000
10000000
00110000
00100000
,
01000000
00010000
00101000
00001000
,
00010000
00000100
00001010
00000001
,
00000010
00001000
00011000
01000000
,
02200000
03300000
10000000
01000000
,
00010000
00001000
00100000
01000000
,
00010000
00000000
00001000
00000000
00000010
00000000
00000000
00000001
,
00000000
00000000
00000100
00000000
00001000
00000000
00010000
00001000
,
00010000
00011000
00001000
00100000
,
01000000
10000000
00010000
00100000
,
01000000
00010000
00001000
00000010
,
00000100
00001000
00000001
00000010
,
00000100
00010000
00002000
00003000
,
01000000
00001000
00020000
00030000
,
00002000
00000000
00020000
00000000
,
00000000
00033000
00010000
01000000
,
10000000
00100000
00020000
00000000
,
00030000
00000000
00002000
00000000
,
00003000
00000000
00000200
00000000
,
00000300
00000000
00000002
00000000
,
00000003
00000000
00000020
00000000
,
00000030
00000000
00000200
00000000
,
00000300
00000000
00002000
00000000
,
00003000
00000000
00020000
00000000
,
00000000
00030000
00011000
00001000
,
00100000
00010000
01000000
00000000
00100000
00000000
10000000
00000000
,
00010000
01000000
00001000
00000000
00010000
00000000
00000100
00000000
,
00000010
00000001
00000100
00000000
00000010
00000000
00010000
00000000
,
00001000
00100000
00010000
00000000
01000000
00100000
10000000
00000000
,
00000000
01000000
00000000
00000000
00010000
00000000
00000000
00000000
,
00000000
00000000
00022000
00033000
,
00010000
00001000
00000100
00000010
,
00001000
00000100
00000010
00000001
,
00002002
00000000
00003003
00000000
,
00001000
00000010
00010000
00100000
,
10000000
00000000
01000000
00000000
00100000
00000000
00000000
00010000
,
00000000
00001000
00011000
00010000
,
00001000
00000100
00000020
00000030
,
00000001
00000100
00001000
00010000
,
00100000
10000000
20020000
30030000
,
00010000
01000000
00001000
00000100
,
00000001
00001000
00002002
00000000
,
00000000
00003003
00000001
00000100
,
00000010
00010000
00022000
00033000
,
01001000
00000000
00000000
00010100
00000000
00000000
00022000
00000000
,
00000000
00033000
00000000
00000000
;

//---------------dance-double - ----------------
#NOTEDATA:;
#CHARTNAME:;
#STEPSTYPE:dance-double;
#DESCRIPTION:;
#CHARTSTYLE:;
#DIFFICULTY:Medium;
#METER:14;
#RADARVALUES:0.519736,0.659363,0.291385,0.507842,0.016651,437.000000,402.000000,35.000000,61.000000,0.000000,0.000000,0.000000,0.000000,0.000000,0.519736,0.659363,0.291385,0.507842,0.016651,437.000000,402.000000,35.000000,61.000000,0.000000,0.000000,0.000000,0.000000,0.000000;
#CREDIT:MILEN;
#DISPLAYBPM:97.000000:194.000000;
#NOTES:
// measure 0
00000000
00000000
00000000
00000000
,  // measure 1
00000000
00000000
00000000
00000000
,  // measure 2
00000000
00000000
00000000
00000000
,  // measure 3
00000000
00000000
00000000
00011000
,  // measure 4
00010000
01000000
10000000
00000000
00100000
00000000
00010000
00000000
,  // measure 5
00001000
00200000
00000000
00000000
00000000
00310000
01000000
00000000
,  // measure 6
00001000
00010000
00000000
00000100
00001000
00000000
00000010
00000000
,  // measure 7
00000100
00000001
00001000
00002002
,  // measure 8
00000000
00003003
00000000
00000001
00000100
00001000
00000100
00000001
,  // measure 9
00000010
00001000
00010000
00000000
00100000
00000000
20200000
00000000
,  // measure 10
00000000
30300000
00000000
10000000
01000000
00010000
01000000
10000000
,  // measure 11
00100000
00010000
00002000
00000000
00000000
00000000
00103000
00010000
,  // measure 12
00000000
01000000
00001000
00000000
00010000
00000100
00001000
00000000
,  // measure 13
00001010
00000000
00000202
00000000
00000303
00000000
00000001
00000010
,  // measure 14
00000100
00001000
00000020
00000000
00010030
00001000
00200000
00000000
,  // measure 15
02300000
23000000
00000000
30000000
,  // measure 16
00100000
00010000
00001000
00000000
00100000
00000000
01000000
00000000
,  // measure 17
00010000
00001000
00022000
00000000
,  // measure 18
00000000
00033000
00010010
00101000
,  // measure 19
00010100
00000000
02002000
00000000
03003000
00000000
00001000
00010000
,  // measure 20
00100000
00000000
00010000
00100000
20000000
00000000
32000000
00000000
,  // measure 21
00000000
00000000
00020000
00000000
03030000
00000000
00010000
00001000
,  // measure 22
00000100
00000000
00001000
00000100
00000002
00000000
00000023
00000000
,  // measure 23
00000000
00002000
00000000
00003030
,  // measure 24
00001000
00010000
00001000
00000010
00001000
00010000
00100000
00000000
,  // measure 25
10000000
01000000
00100000
00220000
,  // measure 26
00000000
00330000
00001000
00002200
,  // measure 27
00000000
00000000
00000000
00000000
00003300
00000000
00000010
00000001
,  // measure 28
00000100
00000000
00000001
00000100
00002000
00000000
00023000
00000000
,  // measure 29
00000000
00000000
00200000
00000000
00330000
00000000
00100000
10000000
,  // measure 30
01000000
00000000
10000000
01000000
00020000
00000000
00032000
00000000
,  // measure 31
00000000
00003020
00000000
00000031
,  // measure 32
00000001
00001000
00001000
00000010
,  // measure 33
00000010
00000000
00000100
00000000
00000100
00000000
00001000
00010000
,  // measure 34
00000010
00010000
00001000
01000000
00001000
00010000
00200000
00000000
,  // measure 35
00000000
10000000
10300000
00000000
10000000
01000000
10000000
01000000
,  // measure 36
00100000
00010000
01000000
00001000
00010000
00001000
01000000
00010000
,  // measure 37
00100000
01000000
00010000
00001000
00000100
00000001
00000100
00000001
,  // measure 38
00000010
00000100
00000010
00000001
00000100
00000010
00001000
00000010
,  // measure 39
00000100
00000001
00000010
00000100
00010000
00001000
00010000
00001000
,  // measure 40
00100000
01000000
10000000
00100000
10000000
01000000
00100000
00010000
,  // measure 41
01000000
00100000
00010000
00001000
00000100
00000010
00000100
00000010
,  // measure 42
00001000
00000001
00000010
00000100
00001000
00000010
00010000
00001000
,  // measure 43
00100000
00010000
00100000
01000000
10000000
00100000
10000000
00100000
,  // measure 44
00010000
00100000
01000000
00010000
00100000
00001000
00100000
00010000
,  // measure 45
01000000
00100000
00010000
00001000
00000100
00000001
00000100
00000001
,  // measure 46
00000010
00000001
00000100
00001000
00010000
00100000
10000000
01000000
,  // measure 47
00100000
00020000
00000000
00000000
02030000
00000000
00000000
00000000
,  // measure 48
03001000
00010000
00000100
00000020
00000000
00000000
00000032
00000000
,  // measure 49
00000203
00000000
00002300
00000000
00013000
00000000
00010000
00000010
,  // measure 50
00000000
00000100
00001000
00000000
00010000
01000000
10000000
00100000
,  // measure 51
01000000
01100000
00010000
10000000
,  // measure 52
01000000
00010000
00001000
00100000
,  // measure 53
00010000
01000000
00001000
00010000
,  // measure 54
00000010
00001000
00000100
00000010
,  // measure 55
00000001
00000100
00002100
00013000
,  // measure 56
01020000
00031000
00002010
00013000
,  // measure 57
00120000
00031000
01001000
00010000
,  // measure 58
00010100
00001000
00101000
00010000
,  // measure 59
00010010
00001000
00022000
00000000
,  // measure 60
00003000
00000000
02000000
00000000
,  // measure 61
00030000
00000000
20000000
00000000
,  // measure 62
03000000
00000000
00200000
00000000
,  // measure 63
30000000
00000000
00020000
00000000
,  // measure 64
00300000
00000000
00002000
00000000
,  // measure 65
00030000
00000000
00000200
00000000
,  // measure 66
00003000
00000000
00000002
00000000
,  // measure 67
00000300
00000000
00000000
00000000
00000000
00000000
00000000
00000000
00001003
00000000
00000000
00000000
00001000
00000000
00000000
00000001
,  // measure 68
00000000
00000000
00000100
00000000
00001000
00000000
00000000
00000000
00010000
00000000
00010000
00000000
10000000
00000000
00000000
01000000
,  // measure 69
00000000
00000000
00010000
00000000
00010100
00000000
00000000
00000000
01001000
00000000
00000000
00000000
00010000
00000000
00000000
10000000
,  // measure 70
00000000
00000000
00100000
00000000
00010000
00000000
00000000
00000000
00001000
00000000
00001000
00000000
00000001
00000000
00000000
00000100
,  // measure 71
00000000
00001000
00101000
00000000
00010000
00000010
00010010
00000000
,  // measure 72
00000000
01001000
00000000
00001000
00020000
00000000
00000000
00000000
,  // measure 73
00000000
00000000
00000000
00000000
00031000
00000000
00001000
00010000
,  // measure 74
01000000
10000000
01000000
00100000
00010000
01000000
00100000
00010000
,  // measure 75
00001000
00000100
00000010
00001000
00000100
00000010
00000001
00000010
,  // measure 76
00001000
00010000
00100000
01000000
00020000
00000000
00000000
00000000
,  // measure 77
10030000
10000000
01000000
00010000
00100000
00010000
01000000
10000000
,  // measure 78
00100000
00010000
00001000
00000100
00000101
00000000
00000010
00001010
,  // measure 79
00000000
00010000
00011000
00000000
00101000
00000000
00100000
01000000
,  // measure 80
10000000
00010000
00100000
01000000
11000000
00000000
10000000
00000000
,  // measure 81
00100000
00000000
00010000
00000000
00001000
00000000
00100000
01000000
,  // measure 82
00000000
00010000
00001000
00000100
00000202
00000000
00000303
00000000
,  // measure 83
00000001
00000010
00000100
00001000
00010000
00000000
00010000
02000000
,  // measure 84
00000000
03100000
10000000
01000000
00100000
00000000
00010000
00000000
,  // measure 85
01000000
00000000
00001000
00000000
00010000
00001000
00000100
00000001
,  // measure 86
00000010
00000100
00010000
00001000
00022000
00000000
00033000
00000000
,  // measure 87
00010000
01000000
10000000
00100000
00010000
00001000
00022000
00000000
,  // measure 88
00033000
00000000
00000000
00000000
;
